  0
SECTION
  2
HEADER
  9
$ACADVER
  1
AC1014
  9
$ACADMAINTVER
 70
     9
  9
$DWGCODEPAGE
  3
ANSI_932
  9
$INSBASE
 10
0.0
 20
0.0
 30
0.0
  9
$EXTMIN
 10
24.0
 20
20.0
 30
0.0
  9
$EXTMAX
 10
1164.0
 20
820.0
 30
0.0
  9
$LIMMIN
 10
0.0
 20
0.0
  9
$LIMMAX
 10
594.0
 20
420.0
  9
$ORTHOMODE
 70
     0
  9
$REGENMODE
 70
     1
  9
$FILLMODE
 70
     1
  9
$QTEXTMODE
 70
     0
  9
$MIRRTEXT
 70
     1
  9
$DRAGMODE
 70
     2
  9
$LTSCALE
 40
1.0
  9
$OSMODE
 70
    37
  9
$ATTMODE
 70
     1
  9
$TEXTSIZE
 40
2.5
  9
$TRACEWID
 40
1.0
  9
$TEXTSTYLE
  7
STANDARD
  9
$CLAYER
  8
DN40_営業図
  9
$CELTYPE
  6
BYLAYER
  9
$CECOLOR
 62
   256
  9
$CELTSCALE
 40
1.0
  9
$DELOBJ
 70
     1
  9
$DISPSILH
 70
     0
  9
$DIMSCALE
 40
1.0
  9
$DIMASZ
 40
2.5
  9
$DIMEXO
 40
0.625
  9
$DIMDLI
 40
3.75
  9
$DIMRND
 40
0.0
  9
$DIMDLE
 40
0.0
  9
$DIMEXE
 40
1.25
  9
$DIMTP
 40
0.0
  9
$DIMTM
 40
0.0
  9
$DIMTXT
 40
2.5
  9
$DIMCEN
 40
2.5
  9
$DIMTSZ
 40
0.0
  9
$DIMTOL
 70
     0
  9
$DIMLIM
 70
     0
  9
$DIMTIH
 70
     0
  9
$DIMTOH
 70
     0
  9
$DIMSE1
 70
     0
  9
$DIMSE2
 70
     0
  9
$DIMTAD
 70
     1
  9
$DIMZIN
 70
     8
  9
$DIMBLK
  1

  9
$DIMASO
 70
     1
  9
$DIMSHO
 70
     1
  9
$DIMPOST
  1

  9
$DIMAPOST
  1

  9
$DIMALT
 70
     0
  9
$DIMALTD
 70
     3
  9
$DIMALTF
 40
0.03937007874016
  9
$DIMLFAC
 40
1.0
  9
$DIMTOFL
 70
     1
  9
$DIMTVP
 40
0.0
  9
$DIMTIX
 70
     0
  9
$DIMSOXD
 70
     0
  9
$DIMSAH
 70
     0
  9
$DIMBLK1
  1

  9
$DIMBLK2
  1

  9
$DIMSTYLE
  2
ISO-25
  9
$DIMCLRD
 70
     0
  9
$DIMCLRE
 70
     0
  9
$DIMCLRT
 70
     0
  9
$DIMTFAC
 40
1.0
  9
$DIMGAP
 40
0.625
  9
$DIMJUST
 70
     0
  9
$DIMSD1
 70
     0
  9
$DIMSD2
 70
     0
  9
$DIMTOLJ
 70
     0
  9
$DIMTZIN
 70
     8
  9
$DIMALTZ
 70
     0
  9
$DIMALTTZ
 70
     0
  9
$DIMFIT
 70
     3
  9
$DIMUPT
 70
     0
  9
$DIMUNIT
 70
     2
  9
$DIMDEC
 70
     2
  9
$DIMTDEC
 70
     2
  9
$DIMALTU
 70
     2
  9
$DIMALTTD
 70
     3
  9
$DIMTXSTY
  7
STANDARD
  9
$DIMAUNIT
 70
     0
  9
$LUNITS
 70
     2
  9
$LUPREC
 70
     4
  9
$SKETCHINC
 40
1.0
  9
$FILLETRAD
 40
10.0
  9
$AUNITS
 70
     0
  9
$AUPREC
 70
     0
  9
$MENU
  1
.
  9
$ELEVATION
 40
0.0
  9
$PELEVATION
 40
0.0
  9
$THICKNESS
 40
0.0
  9
$LIMCHECK
 70
     0
  9
$CHAMFERA
 40
0.0
  9
$CHAMFERB
 40
0.0
  9
$CHAMFERC
 40
0.0
  9
$CHAMFERD
 40
0.0
  9
$SKPOLY
 70
     0
  9
$TDCREATE
 40
2457806.609078727
  9
$TDUPDATE
 40
2457806.609078877
  9
$TDINDWG
 40
0.0000000116
  9
$TDUSRTIMER
 40
0.0000000116
  9
$USRTIMER
 70
     1
  9
$ANGBASE
 50
0.0
  9
$ANGDIR
 70
     0
  9
$PDMODE
 70
     0
  9
$PDSIZE
 40
0.0
  9
$PLINEWID
 40
0.0
  9
$COORDS
 70
     1
  9
$SPLFRAME
 70
     0
  9
$SPLINETYPE
 70
     6
  9
$SPLINESEGS
 70
     8
  9
$ATTDIA
 70
     0
  9
$ATTREQ
 70
     1
  9
$HANDLING
 70
     1
  9
$HANDSEED
  5
582
  9
$SURFTAB1
 70
     6
  9
$SURFTAB2
 70
     6
  9
$SURFTYPE
 70
     6
  9
$SURFU
 70
     6
  9
$SURFV
 70
     6
  9
$UCSNAME
  2

  9
$UCSORG
 10
0.0
 20
0.0
 30
0.0
  9
$UCSXDIR
 10
1.0
 20
0.0
 30
0.0
  9
$UCSYDIR
 10
0.0
 20
1.0
 30
0.0
  9
$PUCSNAME
  2

  9
$PUCSORG
 10
0.0
 20
0.0
 30
0.0
  9
$PUCSXDIR
 10
1.0
 20
0.0
 30
0.0
  9
$PUCSYDIR
 10
0.0
 20
1.0
 30
0.0
  9
$USERI1
 70
     0
  9
$USERI2
 70
     0
  9
$USERI3
 70
     0
  9
$USERI4
 70
     0
  9
$USERI5
 70
     0
  9
$USERR1
 40
0.0
  9
$USERR2
 40
0.0
  9
$USERR3
 40
0.0
  9
$USERR4
 40
0.0
  9
$USERR5
 40
0.0
  9
$WORLDVIEW
 70
     1
  9
$SHADEDGE
 70
     3
  9
$SHADEDIF
 70
    70
  9
$TILEMODE
 70
     1
  9
$MAXACTVP
 70
    64
  9
$PINSBASE
 10
0.0
 20
0.0
 30
0.0
  9
$PLIMCHECK
 70
     0
  9
$PEXTMIN
 10
1.000000000000000E+20
 20
1.000000000000000E+20
 30
1.000000000000000E+20
  9
$PEXTMAX
 10
-1.000000000000000E+20
 20
-1.000000000000000E+20
 30
-1.000000000000000E+20
  9
$PLIMMIN
 10
0.0
 20
0.0
  9
$PLIMMAX
 10
420.0
 20
297.0
  9
$UNITMODE
 70
     0
  9
$VISRETAIN
 70
     1
  9
$PLINEGEN
 70
     0
  9
$PSLTSCALE
 70
     1
  9
$TREEDEPTH
 70
  3020
  9
$PICKSTYLE
 70
     1
  9
$CMLSTYLE
  2
STANDARD
  9
$CMLJUST
 70
     0
  9
$CMLSCALE
 40
20.0
  9
$PROXYGRAPHICS
 70
     1
  9
$MEASUREMENT
 70
     1
  0
ENDSEC
  0
SECTION
  2
CLASSES
  0
CLASS
  1
ACDBDICTIONARYWDFLT
  2
AcDbDictionaryWithDefault
  3
ObjectDBX Classes
 90
        0
280
     0
281
     0
  0
CLASS
  1
VISUALSTYLE
  2
AcDbVisualStyle
  3
ObjectDBX Classes
 90
     4095
280
     0
281
     0
  0
CLASS
  1
MATERIAL
  2
AcDbMaterial
  3
ObjectDBX Classes
 90
     1153
280
     0
281
     0
  0
CLASS
  1
SCALE
  2
AcDbScale
  3
ObjectDBX Classes
 90
     1153
280
     0
281
     0
  0
CLASS
  1
TABLESTYLE
  2
AcDbTableStyle
  3
ObjectDBX Classes
 90
     4095
280
     0
281
     0
  0
CLASS
  1
MLEADERSTYLE
  2
AcDbMLeaderStyle
  3
ACDB_MLEADERSTYLE_CLASS
 90
     4095
280
     0
281
     0
  0
CLASS
  1
SUN
  2
AcDbSun
  3
SCENEOE
 90
     1153
280
     0
281
     0
  0
CLASS
  1
DICTIONARYVAR
  2
AcDbDictionaryVar
  3
ObjectDBX Classes
 90
        0
280
     0
281
     0
  0
CLASS
  1
XRECORD
  2
AcDbXrecord
  3
ObjectDBX Classes
 90
        0
280
     0
281
     0
  0
CLASS
  1
LWPOLYLINE
  2
AcDbPolyline
  3
ObjectDBX Classes
 90
        0
280
     0
281
     1
  0
CLASS
  1
HATCH
  2
AcDbHatch
  3
ObjectDBX Classes
 90
        0
280
     0
281
     1
  0
CLASS
  1
ACDBPLACEHOLDER
  2
AcDbPlaceHolder
  3
ObjectDBX Classes
 90
        0
280
     0
281
     0
  0
CLASS
  1
LAYOUT
  2
AcDbLayout
  3
ObjectDBX Classes
 90
        0
280
     0
281
     0
  0
ENDSEC
  0
SECTION
  2
TABLES
  0
TABLE
  2
VPORT
  5
8
102
{ACAD_XDICTIONARY
360
577
102
}
330
0
100
AcDbSymbolTable
 70
     1
  0
VPORT
  5
29
330
8
100
AcDbSymbolTableRecord
100
AcDbViewportTableRecord
  2
*ACTIVE
 70
     0
 10
0.0
 20
0.0
 11
1.0
 21
1.0
 12
594.0
 22
420.0
 13
0.0
 23
0.0
 14
10.0
 24
10.0
 15
10.0
 25
10.0
 16
0.0
 26
0.0
 36
1.0
 17
0.0
 27
0.0
 37
0.0
 40
800.0
 41
1.425
 42
50.0
 43
0.0
 44
0.0
 50
0.0
 51
0.0
 71
     0
 72
  1000
 73
     1
 74
     3
 75
     0
 76
     0
 77
     0
 78
     0
  0
ENDTAB
  0
TABLE
  2
LTYPE
  5
5
330
0
100
AcDbSymbolTable
 70
     7
  0
LTYPE
  5
14
330
5
100
AcDbSymbolTableRecord
100
AcDbLinetypeTableRecord
  2
BYBLOCK
 70
     0
  3

 72
    65
 73
     0
 40
0.0
  0
LTYPE
  5
15
330
5
100
AcDbSymbolTableRecord
100
AcDbLinetypeTableRecord
  2
BYLAYER
 70
     0
  3

 72
    65
 73
     0
 40
0.0
  0
LTYPE
  5
16
330
5
100
AcDbSymbolTableRecord
100
AcDbLinetypeTableRecord
  2
CONTINUOUS
 70
     0
  3
Solid line
 72
    65
 73
     0
 40
0.0
  0
LTYPE
  5
6E
330
5
100
AcDbSymbolTableRecord
100
AcDbLinetypeTableRecord
  2
EXLTYPE0
 70
     0
  3
破線
 72
    65
 73
     2
 40
2.5
 49
1.5
 74
     0
 49
-1.0
 74
     0
  0
LTYPE
  5
6F
330
5
100
AcDbSymbolTableRecord
100
AcDbLinetypeTableRecord
  2
EXLTYPE1
 70
     0
  3
点線
 72
    65
 73
     2
 40
2.0
 49
1.0
 74
     0
 49
-1.0
 74
     0
  0
LTYPE
  5
70
330
5
100
AcDbSymbolTableRecord
100
AcDbLinetypeTableRecord
  2
EXLTYPE2
 70
     0
  3
一点鎖線
 72
    65
 73
     4
 40
13.0
 49
10.0
 74
     0
 49
-1.0
 74
     0
 49
1.0
 74
     0
 49
-1.0
 74
     0
  0
LTYPE
  5
71
330
5
100
AcDbSymbolTableRecord
100
AcDbLinetypeTableRecord
  2
EXLTYPE3
 70
     0
  3
二点鎖線
 72
    65
 73
     6
 40
15.0
 49
10.0
 74
     0
 49
-1.0
 74
     0
 49
1.0
 74
     0
 49
-1.0
 74
     0
 49
1.0
 74
     0
 49
-1.0
 74
     0
  0
LTYPE
  5
72
330
5
100
AcDbSymbolTableRecord
100
AcDbLinetypeTableRecord
  2
EXLTYPE4
 70
     0
  3
三点鎖線
 72
    65
 73
     8
 40
37.0
 49
30.0
 74
     0
 49
-1.0
 74
     0
 49
1.0
 74
     0
 49
-1.0
 74
     0
 49
1.0
 74
     0
 49
-1.0
 74
     0
 49
1.0
 74
     0
 49
-1.0
 74
     0
  0
LTYPE
  5
73
330
5
100
AcDbSymbolTableRecord
100
AcDbLinetypeTableRecord
  2
EXLTYPE5
 70
     0
  3
四点鎖線
 72
    65
 73
    10
 40
39.0
 49
30.0
 74
     0
 49
-1.0
 74
     0
 49
1.0
 74
     0
 49
-1.0
 74
     0
 49
1.0
 74
     0
 49
-1.0
 74
     0
 49
1.0
 74
     0
 49
-1.0
 74
     0
 49
1.0
 74
     0
 49
-1.0
 74
     0
  0
ENDTAB
  0
TABLE
  2
LAYER
  5
2
330
0
100
AcDbSymbolTable
 70
     3
  0
LAYER
  5
10
330
2
100
AcDbSymbolTableRecord
100
AcDbLayerTableRecord
  2
0
 70
     0
 62
     7
  6
CONTINUOUS
  0
LAYER
  5
76
330
2
100
AcDbSymbolTableRecord
100
AcDbLayerTableRecord
  2
DN40_営業図
 70
     0
 62
     7
  6
CONTINUOUS
  0
LAYER
  5
111
330
2
100
AcDbSymbolTableRecord
100
AcDbLayerTableRecord
  2
DEFPOINTS
 70
     0
 62
     7
  6
CONTINUOUS
  0
ENDTAB
  0
TABLE
  2
STYLE
  5
3
330
0
100
AcDbSymbolTable
 70
     4
  0
STYLE
  5
11
330
3
100
AcDbSymbolTableRecord
100
AcDbTextStyleTableRecord
  2
STANDARD
 70
     0
 40
0.0
 41
1.0
 50
0.0
 71
     0
 42
2.5
  3
monotxt
  4
extfont
  0
STYLE
  5
74
330
3
100
AcDbSymbolTableRecord
100
AcDbTextStyleTableRecord
  2
EXCADSTD
 70
     0
 40
0.0
 41
1.0
 50
0.0
 71
     0
 42
2.5
  3
monotxt
  4
extfont
  0
STYLE
  5
75
330
3
100
AcDbSymbolTableRecord
100
AcDbTextStyleTableRecord
  2
EXCADVERT
 70
     4
 40
0.0
 41
1.0
 50
0.0
 71
     0
 42
2.5
  3
monotxt
  4
extfont
  0
STYLE
  5
10F
330
3
100
AcDbSymbolTableRecord
100
AcDbTextStyleTableRecord
  2
EXCADDIM1
 70
     0
 40
0.0
 41
0.84
 50
0.0
 71
     0
 42
2.5
  3
monotxt
  4
extfont
  0
ENDTAB
  0
TABLE
  2
VIEW
  5
6
330
0
100
AcDbSymbolTable
 70
     0
  0
ENDTAB
  0
TABLE
  2
UCS
  5
7
330
0
100
AcDbSymbolTable
 70
     0
  0
ENDTAB
  0
TABLE
  2
APPID
  5
9
330
0
100
AcDbSymbolTable
 70
     2
  0
APPID
  5
12
330
9
100
AcDbSymbolTableRecord
100
AcDbRegAppTableRecord
  2
ACAD
 70
     0
  0
APPID
  5
581
330
9
100
AcDbSymbolTableRecord
100
AcDbRegAppTableRecord
  2
ACAD_MLEADERVER
 70
     0
  0
ENDTAB
  0
TABLE
  2
DIMSTYLE
  5
A
330
0
100
AcDbSymbolTable
 70
     1
  0
DIMSTYLE
105
27
102
{ACAD_REACTORS
330
110
330
11E
330
12B
330
148
330
154
330
160
330
16D
330
179
330
185
330
190
330
19C
330
1A8
330
1B5
330
1C2
330
1CE
330
1DA
330
1E5
330
1F1
330
1FD
102
}
330
A
100
AcDbSymbolTableRecord
100
AcDbDimStyleTableRecord
  2
ISO-25
 70
     0
  3

  4

  5

  6

  7

 40
1.0
 41
2.5
 42
0.625
 43
3.75
 44
1.25
 45
0.0
 46
0.0
 47
0.0
 48
0.0
140
2.5
141
2.5
142
0.0
143
0.03937007874016
144
1.0
145
0.0
146
1.0
147
0.625
 71
     0
 72
     0
 73
     0
 74
     0
 75
     0
 76
     0
 77
     1
 78
     8
170
     0
171
     3
172
     1
173
     0
174
     0
175
     0
176
     0
177
     0
178
     0
270
     2
271
     2
272
     2
273
     2
274
     3
340
11
275
     0
280
     0
281
     0
282
     0
283
     0
284
     8
285
     0
286
     0
287
     5
288
     0
  0
ENDTAB
  0
TABLE
  2
BLOCK_RECORD
  5
1
330
0
100
AcDbSymbolTable
 70
    34
  0
BLOCK_RECORD
  5
1F
330
1
100
AcDbSymbolTableRecord
100
AcDbBlockTableRecord
  2
*MODEL_SPACE
  0
BLOCK_RECORD
  5
1B
330
1
100
AcDbSymbolTableRecord
100
AcDbBlockTableRecord
  2
*PAPER_SPACE
  0
BLOCK_RECORD
  5
77
330
1
100
AcDbSymbolTableRecord
100
AcDbBlockTableRecord
  2
EX_NORM
  0
BLOCK_RECORD
  5
7A
330
1
100
AcDbSymbolTableRecord
100
AcDbBlockTableRecord
  2
EX_BNORM
  0
BLOCK_RECORD
  5
7D
330
1
100
AcDbSymbolTableRecord
100
AcDbBlockTableRecord
  2
EX_BCIR
  0
BLOCK_RECORD
  5
80
330
1
100
AcDbSymbolTableRecord
100
AcDbBlockTableRecord
  2
EX_RCIVIL
  0
BLOCK_RECORD
  5
83
330
1
100
AcDbSymbolTableRecord
100
AcDbBlockTableRecord
  2
EX_SLANT
  0
BLOCK_RECORD
  5
86
330
1
100
AcDbSymbolTableRecord
100
AcDbBlockTableRecord
  2
EX_NONE
  0
BLOCK_RECORD
  5
89
330
1
100
AcDbSymbolTableRecord
100
AcDbBlockTableRecord
  2
EX_CIVIL
  0
BLOCK_RECORD
  5
8C
330
1
100
AcDbSymbolTableRecord
100
AcDbBlockTableRecord
  2
EX_WCIR
  0
BLOCK_RECORD
  5
8F
330
1
100
AcDbSymbolTableRecord
100
AcDbBlockTableRecord
  2
EX_WCIR2
  0
BLOCK_RECORD
  5
92
330
1
100
AcDbSymbolTableRecord
100
AcDbBlockTableRecord
  2
EX_WNORM
  0
BLOCK_RECORD
  5
95
330
1
100
AcDbSymbolTableRecord
100
AcDbBlockTableRecord
  2
EX_NNORM
  0
BLOCK_RECORD
  5
98
330
1
100
AcDbSymbolTableRecord
100
AcDbBlockTableRecord
  2
EX_BBOX
  0
BLOCK_RECORD
  5
9B
330
1
100
AcDbSymbolTableRecord
100
AcDbBlockTableRecord
  2
EX_WBOX
  0
BLOCK_RECORD
  5
9E
330
1
100
AcDbSymbolTableRecord
100
AcDbBlockTableRecord
  2
EX_INTEGRAL
  0
BLOCK_RECORD
  5
112
330
1
100
AcDbSymbolTableRecord
100
AcDbBlockTableRecord
  2
*D15
  0
BLOCK_RECORD
  5
11F
330
1
100
AcDbSymbolTableRecord
100
AcDbBlockTableRecord
  2
*D16
  0
BLOCK_RECORD
  5
12C
330
1
100
AcDbSymbolTableRecord
100
AcDbBlockTableRecord
  2
*D17
  0
BLOCK_RECORD
  5
149
330
1
100
AcDbSymbolTableRecord
100
AcDbBlockTableRecord
  2
*D18
  0
BLOCK_RECORD
  5
155
330
1
100
AcDbSymbolTableRecord
100
AcDbBlockTableRecord
  2
*D19
  0
BLOCK_RECORD
  5
161
330
1
100
AcDbSymbolTableRecord
100
AcDbBlockTableRecord
  2
*D20
  0
BLOCK_RECORD
  5
16E
330
1
100
AcDbSymbolTableRecord
100
AcDbBlockTableRecord
  2
*D21
  0
BLOCK_RECORD
  5
17A
330
1
100
AcDbSymbolTableRecord
100
AcDbBlockTableRecord
  2
*D22
  0
BLOCK_RECORD
  5
186
330
1
100
AcDbSymbolTableRecord
100
AcDbBlockTableRecord
  2
*D23
  0
BLOCK_RECORD
  5
191
330
1
100
AcDbSymbolTableRecord
100
AcDbBlockTableRecord
  2
*D24
  0
BLOCK_RECORD
  5
19D
330
1
100
AcDbSymbolTableRecord
100
AcDbBlockTableRecord
  2
*D25
  0
BLOCK_RECORD
  5
1A9
330
1
100
AcDbSymbolTableRecord
100
AcDbBlockTableRecord
  2
*D26
  0
BLOCK_RECORD
  5
1B6
330
1
100
AcDbSymbolTableRecord
100
AcDbBlockTableRecord
  2
*D27
  0
BLOCK_RECORD
  5
1C3
330
1
100
AcDbSymbolTableRecord
100
AcDbBlockTableRecord
  2
*D28
  0
BLOCK_RECORD
  5
1CF
330
1
100
AcDbSymbolTableRecord
100
AcDbBlockTableRecord
  2
*D29
  0
BLOCK_RECORD
  5
1DB
330
1
100
AcDbSymbolTableRecord
100
AcDbBlockTableRecord
  2
*D30
  0
BLOCK_RECORD
  5
1E6
330
1
100
AcDbSymbolTableRecord
100
AcDbBlockTableRecord
  2
*D31
  0
BLOCK_RECORD
  5
1F2
330
1
100
AcDbSymbolTableRecord
100
AcDbBlockTableRecord
  2
*D32
  0
BLOCK_RECORD
  5
1FE
330
1
100
AcDbSymbolTableRecord
100
AcDbBlockTableRecord
  2
*D33
  0
ENDTAB
  0
ENDSEC
  0
SECTION
  2
BLOCKS
  0
BLOCK
  5
20
330
1F
100
AcDbEntity
  8
0
100
AcDbBlockBegin
  2
*MODEL_SPACE
 70
     0
 10
0.0
 20
0.0
 30
0.0
  3
*MODEL_SPACE
  1

  0
ENDBLK
  5
21
330
1F
100
AcDbEntity
  8
0
100
AcDbBlockEnd
  0
BLOCK
  5
1C
330
1B
100
AcDbEntity
 67
     1
  8
0
100
AcDbBlockBegin
  2
*PAPER_SPACE
 70
     0
 10
0.0
 20
0.0
 30
0.0
  3
*PAPER_SPACE
  1

  0
ENDBLK
  5
1D
330
1B
100
AcDbEntity
 67
     1
  8
0
100
AcDbBlockEnd
  0
BLOCK
  5
78
330
77
100
AcDbEntity
  8
0
100
AcDbBlockBegin
  2
EX_NORM
 70
     0
 10
0.0
 20
0.0
 30
0.0
  3
EX_NORM
  1

  0
LINE
  5
A1
330
77
100
AcDbEntity
  8
0
  6
CONTINUOUS
 62
     0
100
AcDbLine
 10
0.0
 20
0.0
 30
0.0
 11
-1.0
 21
0.0
 31
0.0
  0
LINE
  5
A2
330
77
100
AcDbEntity
  8
0
  6
CONTINUOUS
 62
     0
100
AcDbLine
 10
0.0
 20
0.0
 30
0.0
 11
-1.0
 21
0.166666667
 31
0.0
  0
LINE
  5
A3
330
77
100
AcDbEntity
  8
0
  6
CONTINUOUS
 62
     0
100
AcDbLine
 10
0.0
 20
0.0
 30
0.0
 11
-1.0
 21
-0.166666667
 31
0.0
  0
ENDBLK
  5
79
330
77
100
AcDbEntity
  8
0
100
AcDbBlockEnd
  0
BLOCK
  5
7B
330
7A
100
AcDbEntity
  8
0
100
AcDbBlockBegin
  2
EX_BNORM
 70
     0
 10
0.0
 20
0.0
 30
0.0
  3
EX_BNORM
  1

  0
LINE
  5
A4
330
7A
100
AcDbEntity
  8
0
  6
CONTINUOUS
 62
     0
100
AcDbLine
 10
0.0
 20
0.0
 30
0.0
 11
-1.0
 21
0.0
 31
0.0
  0
LINE
  5
A5
330
7A
100
AcDbEntity
  8
0
  6
CONTINUOUS
 62
     0
100
AcDbLine
 10
0.0
 20
0.0
 30
0.0
 11
-1.0
 21
0.166666667
 31
0.0
  0
LINE
  5
A6
330
7A
100
AcDbEntity
  8
0
  6
CONTINUOUS
 62
     0
100
AcDbLine
 10
0.0
 20
0.0
 30
0.0
 11
-1.0
 21
-0.166666667
 31
0.0
  0
LINE
  5
A7
330
7A
100
AcDbEntity
  8
0
  6
CONTINUOUS
 62
     0
100
AcDbLine
 10
0.0
 20
0.0
 30
0.0
 11
-1.0
 21
0.083333333
 31
0.0
  0
LINE
  5
A8
330
7A
100
AcDbEntity
  8
0
  6
CONTINUOUS
 62
     0
100
AcDbLine
 10
0.0
 20
0.0
 30
0.0
 11
-1.0
 21
-0.083333333
 31
0.0
  0
LINE
  5
A9
330
7A
100
AcDbEntity
  8
0
  6
CONTINUOUS
 62
     0
100
AcDbLine
 10
-1.0
 20
0.166666667
 30
0.0
 11
-1.0
 21
-0.166666667
 31
0.0
  0
ENDBLK
  5
7C
330
7A
100
AcDbEntity
  8
0
100
AcDbBlockEnd
  0
BLOCK
  5
7E
330
7D
100
AcDbEntity
  8
0
100
AcDbBlockBegin
  2
EX_BCIR
 70
     0
 10
0.0
 20
0.0
 30
0.0
  3
EX_BCIR
  1

  0
LINE
  5
AA
330
7D
100
AcDbEntity
  8
0
  6
CONTINUOUS
 62
     0
100
AcDbLine
 10
0.0
 20
0.0
 30
0.0
 11
-1.0
 21
0.0
 31
0.0
  0
CIRCLE
  5
AB
330
7D
100
AcDbEntity
  8
0
  6
CONTINUOUS
 62
     0
100
AcDbCircle
 10
0.0
 20
0.0
 30
0.0
 40
0.5
  0
CIRCLE
  5
AC
330
7D
100
AcDbEntity
  8
0
  6
CONTINUOUS
 62
     0
100
AcDbCircle
 10
0.0
 20
0.0
 30
0.0
 40
0.25
  0
ENDBLK
  5
7F
330
7D
100
AcDbEntity
  8
0
100
AcDbBlockEnd
  0
BLOCK
  5
81
330
80
100
AcDbEntity
  8
0
100
AcDbBlockBegin
  2
EX_RCIVIL
 70
     0
 10
0.0
 20
0.0
 30
0.0
  3
EX_RCIVIL
  1

  0
LINE
  5
AD
330
80
100
AcDbEntity
  8
0
  6
CONTINUOUS
 62
     0
100
AcDbLine
 10
0.0
 20
0.0
 30
0.0
 11
-1.0
 21
0.0
 31
0.0
  0
LINE
  5
AE
330
80
100
AcDbEntity
  8
0
  6
CONTINUOUS
 62
     0
100
AcDbLine
 10
-1.0
 20
-0.25
 30
0.0
 11
0.0
 21
-0.25
 31
0.0
  0
LINE
  5
AF
330
80
100
AcDbEntity
  8
0
  6
CONTINUOUS
 62
     0
100
AcDbLine
 10
-1.0
 20
-0.125
 30
0.0
 11
0.0
 21
-0.125
 31
0.0
  0
ENDBLK
  5
82
330
80
100
AcDbEntity
  8
0
100
AcDbBlockEnd
  0
BLOCK
  5
84
330
83
100
AcDbEntity
  8
0
100
AcDbBlockBegin
  2
EX_SLANT
 70
     0
 10
0.0
 20
0.0
 30
0.0
  3
EX_SLANT
  1

  0
LINE
  5
B0
330
83
100
AcDbEntity
  8
0
  6
CONTINUOUS
 62
     0
100
AcDbLine
 10
0.0
 20
0.0
 30
0.0
 11
-1.0
 21
0.0
 31
0.0
  0
LINE
  5
B1
330
83
100
AcDbEntity
  8
0
  6
CONTINUOUS
 62
     0
100
AcDbLine
 10
0.707106781
 20
0.707106781
 30
0.0
 11
-0.707106781
 21
-0.707106781
 31
0.0
  0
ENDBLK
  5
85
330
83
100
AcDbEntity
  8
0
100
AcDbBlockEnd
  0
BLOCK
  5
87
330
86
100
AcDbEntity
  8
0
100
AcDbBlockBegin
  2
EX_NONE
 70
     0
 10
0.0
 20
0.0
 30
0.0
  3
EX_NONE
  1

  0
LINE
  5
B2
330
86
100
AcDbEntity
  8
0
  6
CONTINUOUS
 62
     0
100
AcDbLine
 10
0.0
 20
0.0
 30
0.0
 11
-1.0
 21
0.0
 31
0.0
  0
ENDBLK
  5
88
330
86
100
AcDbEntity
  8
0
100
AcDbBlockEnd
  0
BLOCK
  5
8A
330
89
100
AcDbEntity
  8
0
100
AcDbBlockBegin
  2
EX_CIVIL
 70
     0
 10
0.0
 20
0.0
 30
0.0
  3
EX_CIVIL
  1

  0
LINE
  5
B3
330
89
100
AcDbEntity
  8
0
  6
CONTINUOUS
 62
     0
100
AcDbLine
 10
0.0
 20
0.0
 30
0.0
 11
-1.0
 21
0.0
 31
0.0
  0
LINE
  5
B4
330
89
100
AcDbEntity
  8
0
  6
CONTINUOUS
 62
     0
100
AcDbLine
 10
-1.0
 20
0.25
 30
0.0
 11
0.0
 21
0.25
 31
0.0
  0
LINE
  5
B5
330
89
100
AcDbEntity
  8
0
  6
CONTINUOUS
 62
     0
100
AcDbLine
 10
-1.0
 20
0.125
 30
0.0
 11
0.0
 21
0.125
 31
0.0
  0
ENDBLK
  5
8B
330
89
100
AcDbEntity
  8
0
100
AcDbBlockEnd
  0
BLOCK
  5
8D
330
8C
100
AcDbEntity
  8
0
100
AcDbBlockBegin
  2
EX_WCIR
 70
     0
 10
0.0
 20
0.0
 30
0.0
  3
EX_WCIR
  1

  0
LINE
  5
B6
330
8C
100
AcDbEntity
  8
0
  6
CONTINUOUS
 62
     0
100
AcDbLine
 10
0.0
 20
0.0
 30
0.0
 11
-1.0
 21
0.0
 31
0.0
  0
CIRCLE
  5
B7
330
8C
100
AcDbEntity
  8
0
  6
CONTINUOUS
 62
     0
100
AcDbCircle
 10
0.0
 20
0.0
 30
0.0
 40
0.5
  0
ENDBLK
  5
8E
330
8C
100
AcDbEntity
  8
0
100
AcDbBlockEnd
  0
BLOCK
  5
90
330
8F
100
AcDbEntity
  8
0
100
AcDbBlockBegin
  2
EX_WCIR2
 70
     0
 10
0.0
 20
0.0
 30
0.0
  3
EX_WCIR2
  1

  0
LINE
  5
B8
330
8F
100
AcDbEntity
  8
0
  6
CONTINUOUS
 62
     0
100
AcDbLine
 10
-0.5
 20
0.0
 30
0.0
 11
-1.0
 21
0.0
 31
0.0
  0
CIRCLE
  5
B9
330
8F
100
AcDbEntity
  8
0
  6
CONTINUOUS
 62
     0
100
AcDbCircle
 10
0.0
 20
0.0
 30
0.0
 40
0.5
  0
ENDBLK
  5
91
330
8F
100
AcDbEntity
  8
0
100
AcDbBlockEnd
  0
BLOCK
  5
93
330
92
100
AcDbEntity
  8
0
100
AcDbBlockBegin
  2
EX_WNORM
 70
     0
 10
0.0
 20
0.0
 30
0.0
  3
EX_WNORM
  1

  0
LINE
  5
BA
330
92
100
AcDbEntity
  8
0
  6
CONTINUOUS
 62
     0
100
AcDbLine
 10
-1.0
 20
0.0
 30
0.0
 11
-1.0
 21
0.0
 31
0.0
  0
LINE
  5
BB
330
92
100
AcDbEntity
  8
0
  6
CONTINUOUS
 62
     0
100
AcDbLine
 10
0.0
 20
0.0
 30
0.0
 11
-1.0
 21
0.166666667
 31
0.0
  0
LINE
  5
BC
330
92
100
AcDbEntity
  8
0
  6
CONTINUOUS
 62
     0
100
AcDbLine
 10
0.0
 20
0.0
 30
0.0
 11
-1.0
 21
-0.166666667
 31
0.0
  0
LINE
  5
BD
330
92
100
AcDbEntity
  8
0
  6
CONTINUOUS
 62
     0
100
AcDbLine
 10
-1.0
 20
0.166666667
 30
0.0
 11
-1.0
 21
-0.166666667
 31
0.0
  0
ENDBLK
  5
94
330
92
100
AcDbEntity
  8
0
100
AcDbBlockEnd
  0
BLOCK
  5
96
330
95
100
AcDbEntity
  8
0
100
AcDbBlockBegin
  2
EX_NNORM
 70
     0
 10
0.0
 20
0.0
 30
0.0
  3
EX_NNORM
  1

  0
LINE
  5
BE
330
95
100
AcDbEntity
  8
0
  6
CONTINUOUS
 62
     0
100
AcDbLine
 10
0.0
 20
0.0
 30
0.0
 11
-1.0
 21
0.0
 31
0.0
  0
LINE
  5
BF
330
95
100
AcDbEntity
  8
0
  6
CONTINUOUS
 62
     0
100
AcDbLine
 10
0.0
 20
0.0
 30
0.0
 11
-1.0
 21
0.166666667
 31
0.0
  0
LINE
  5
C0
330
95
100
AcDbEntity
  8
0
  6
CONTINUOUS
 62
     0
100
AcDbLine
 10
0.0
 20
0.0
 30
0.0
 11
-1.0
 21
-0.166666667
 31
0.0
  0
LINE
  5
C1
330
95
100
AcDbEntity
  8
0
  6
CONTINUOUS
 62
     0
100
AcDbLine
 10
-1.0
 20
0.166666667
 30
0.0
 11
-1.0
 21
-0.166666667
 31
0.0
  0
ENDBLK
  5
97
330
95
100
AcDbEntity
  8
0
100
AcDbBlockEnd
  0
BLOCK
  5
99
330
98
100
AcDbEntity
  8
0
100
AcDbBlockBegin
  2
EX_BBOX
 70
     0
 10
0.0
 20
0.0
 30
0.0
  3
EX_BBOX
  1

  0
LINE
  5
C2
330
98
100
AcDbEntity
  8
0
  6
CONTINUOUS
 62
     0
100
AcDbLine
 10
0.0
 20
0.0
 30
0.0
 11
-1.0
 21
0.0
 31
0.0
  0
LINE
  5
C3
330
98
100
AcDbEntity
  8
0
  6
CONTINUOUS
 62
     0
100
AcDbLine
 10
-0.5
 20
0.5
 30
0.0
 11
0.5
 21
0.5
 31
0.0
  0
LINE
  5
C4
330
98
100
AcDbEntity
  8
0
  6
CONTINUOUS
 62
     0
100
AcDbLine
 10
0.5
 20
0.5
 30
0.0
 11
0.5
 21
-0.5
 31
0.0
  0
LINE
  5
C5
330
98
100
AcDbEntity
  8
0
  6
CONTINUOUS
 62
     0
100
AcDbLine
 10
0.5
 20
-0.5
 30
0.0
 11
-0.5
 21
-0.5
 31
0.0
  0
LINE
  5
C6
330
98
100
AcDbEntity
  8
0
  6
CONTINUOUS
 62
     0
100
AcDbLine
 10
-0.5
 20
-0.5
 30
0.0
 11
-0.5
 21
0.5
 31
0.0
  0
LINE
  5
C7
330
98
100
AcDbEntity
  8
0
  6
CONTINUOUS
 62
     0
100
AcDbLine
 10
-0.25
 20
0.25
 30
0.0
 11
0.25
 21
0.25
 31
0.0
  0
LINE
  5
C8
330
98
100
AcDbEntity
  8
0
  6
CONTINUOUS
 62
     0
100
AcDbLine
 10
0.25
 20
0.25
 30
0.0
 11
0.25
 21
-0.25
 31
0.0
  0
LINE
  5
C9
330
98
100
AcDbEntity
  8
0
  6
CONTINUOUS
 62
     0
100
AcDbLine
 10
0.25
 20
-0.25
 30
0.0
 11
-0.25
 21
-0.25
 31
0.0
  0
LINE
  5
CA
330
98
100
AcDbEntity
  8
0
  6
CONTINUOUS
 62
     0
100
AcDbLine
 10
-0.25
 20
-0.25
 30
0.0
 11
-0.25
 21
0.25
 31
0.0
  0
ENDBLK
  5
9A
330
98
100
AcDbEntity
  8
0
100
AcDbBlockEnd
  0
BLOCK
  5
9C
330
9B
100
AcDbEntity
  8
0
100
AcDbBlockBegin
  2
EX_WBOX
 70
     0
 10
0.0
 20
0.0
 30
0.0
  3
EX_WBOX
  1

  0
LINE
  5
CB
330
9B
100
AcDbEntity
  8
0
  6
CONTINUOUS
 62
     0
100
AcDbLine
 10
-0.5
 20
0.0
 30
0.0
 11
-1.0
 21
0.0
 31
0.0
  0
LINE
  5
CC
330
9B
100
AcDbEntity
  8
0
  6
CONTINUOUS
 62
     0
100
AcDbLine
 10
-0.5
 20
0.5
 30
0.0
 11
0.5
 21
0.5
 31
0.0
  0
LINE
  5
CD
330
9B
100
AcDbEntity
  8
0
  6
CONTINUOUS
 62
     0
100
AcDbLine
 10
0.5
 20
0.5
 30
0.0
 11
0.5
 21
-0.5
 31
0.0
  0
LINE
  5
CE
330
9B
100
AcDbEntity
  8
0
  6
CONTINUOUS
 62
     0
100
AcDbLine
 10
0.5
 20
-0.5
 30
0.0
 11
-0.5
 21
-0.5
 31
0.0
  0
LINE
  5
CF
330
9B
100
AcDbEntity
  8
0
  6
CONTINUOUS
 62
     0
100
AcDbLine
 10
-0.5
 20
-0.5
 30
0.0
 11
-0.5
 21
0.5
 31
0.0
  0
ENDBLK
  5
9D
330
9B
100
AcDbEntity
  8
0
100
AcDbBlockEnd
  0
BLOCK
  5
9F
330
9E
100
AcDbEntity
  8
0
100
AcDbBlockBegin
  2
EX_INTEGRAL
 70
     0
 10
0.0
 20
0.0
 30
0.0
  3
EX_INTEGRAL
  1

  0
LINE
  5
D0
330
9E
100
AcDbEntity
  8
0
  6
CONTINUOUS
 62
     0
100
AcDbLine
 10
0.0
 20
0.0
 30
0.0
 11
-1.0
 21
0.0
 31
0.0
  0
ARC
  5
D1
330
9E
100
AcDbEntity
  8
0
  6
CONTINUOUS
 62
     0
100
AcDbCircle
 10
0.542115
 20
0.164992
 30
0.0
 40
0.56667
100
AcDbArc
 50
73.07249033629006
 51
196.9275130221199
  0
ARC
  5
D2
330
9E
100
AcDbEntity
  8
0
  6
CONTINUOUS
 62
     0
100
AcDbCircle
 10
-0.542115
 20
-0.164992
 30
0.0
 40
0.56667
100
AcDbArc
 50
253.0724869220464
 51
16.9275130559125
  0
ENDBLK
  5
A0
330
9E
100
AcDbEntity
  8
0
100
AcDbBlockEnd
  0
BLOCK
  5
113
330
112
100
AcDbEntity
  8
0
100
AcDbBlockBegin
  2
*D15
 70
     1
 10
0.0
 20
0.0
 30
0.0
  3
*D15
  1

  0
LINE
  5
115
330
112
100
AcDbEntity
  8
DN40_営業図
  6
CONTINUOUS
 62
     1
100
AcDbLine
 10
509.394379
 20
681.148315
 30
0.0
 11
584.233398
 21
681.148315
 31
0.0
  0
LINE
  5
116
330
112
100
AcDbEntity
  8
DN40_営業図
  6
CONTINUOUS
 62
     1
100
AcDbLine
 10
509.39444
 20
166.148315
 30
0.0
 11
584.233398
 21
166.148315
 31
0.0
  0
LINE
  5
117
330
112
100
AcDbEntity
  8
DN40_営業図
  6
CONTINUOUS
 62
     1
100
AcDbLine
 10
581.233398
 20
675.148315
 30
0.0
 11
581.233398
 21
172.148315
 31
0.0
  0
INSERT
  5
118
330
112
100
AcDbEntity
  8
DN40_営業図
 62
     1
100
AcDbBlockReference
  2
EX_BNORM
 10
581.233398
 20
681.148315
 30
0.0
 41
6.0
 42
6.0
 43
6.0
 50
90.0
  0
INSERT
  5
119
330
112
100
AcDbEntity
  8
DN40_営業図
 62
     1
100
AcDbBlockReference
  2
EX_BNORM
 10
581.233398
 20
166.148315
 30
0.0
 41
6.0
 42
6.0
 43
6.0
 50
270.0
  0
MTEXT
  5
11A
330
112
100
AcDbEntity
  8
DN40_営業図
 62
     1
100
AcDbMText
 10
576.233398
 20
423.648315
 30
0.0
 40
6.2362208
 41
0.0
 71
     5
 72
     1
  1
485
  7
EXCADDIM1
 11
-6.049014748177263E-16
 21
1.0
 31
0.0
  0
POINT
  5
11B
330
112
100
AcDbEntity
  8
DEFPOINTS
 62
     0
100
AcDbPoint
 10
506.394379
 20
681.148315
 30
0.0
  0
POINT
  5
11C
330
112
100
AcDbEntity
  8
DEFPOINTS
 62
     0
100
AcDbPoint
 10
506.39444
 20
166.148315
 30
0.0
  0
POINT
  5
11D
330
112
100
AcDbEntity
  8
DEFPOINTS
 62
     0
100
AcDbPoint
 10
581.233398
 20
166.148315
 30
0.0
  0
ENDBLK
  5
114
330
112
100
AcDbEntity
  8
0
100
AcDbBlockEnd
  0
BLOCK
  5
120
330
11F
100
AcDbEntity
  8
0
100
AcDbBlockBegin
  2
*D16
 70
     1
 10
0.0
 20
0.0
 30
0.0
  3
*D16
  1

  0
LINE
  5
122
330
11F
100
AcDbEntity
  8
DN40_営業図
  6
CONTINUOUS
 62
     1
100
AcDbLine
 10
509.394379
 20
681.148315
 30
0.0
 11
546.511871
 21
681.148315
 31
0.0
  0
LINE
  5
123
330
11F
100
AcDbEntity
  8
DN40_営業図
  6
CONTINUOUS
 62
     1
100
AcDbLine
 10
509.394379
 20
656.148315
 30
0.0
 11
546.511871
 21
656.148315
 31
0.0
  0
LINE
  5
124
330
11F
100
AcDbEntity
  8
DN40_営業図
  6
CONTINUOUS
 62
     1
100
AcDbLine
 10
543.511871
 20
675.148315
 30
0.0
 11
543.511871
 21
662.148315
 31
0.0
  0
INSERT
  5
125
330
11F
100
AcDbEntity
  8
DN40_営業図
 62
     1
100
AcDbBlockReference
  2
EX_BNORM
 10
543.511871
 20
681.148315
 30
0.0
 41
6.0
 42
6.0
 43
6.0
 50
90.0
  0
INSERT
  5
126
330
11F
100
AcDbEntity
  8
DN40_営業図
 62
     1
100
AcDbBlockReference
  2
EX_BNORM
 10
543.511871
 20
656.148315
 30
0.0
 41
6.0
 42
6.0
 43
6.0
 50
270.0
  0
MTEXT
  5
127
330
11F
100
AcDbEntity
  8
DN40_営業図
 62
     1
100
AcDbMText
 10
538.511871
 20
668.648315
 30
0.0
 40
6.2362208
 41
0.0
 71
     5
 72
     1
  1
25
  7
EXCADDIM1
 11
-6.049014748177263E-16
 21
1.0
 31
0.0
  0
POINT
  5
128
330
11F
100
AcDbEntity
  8
DEFPOINTS
 62
     0
100
AcDbPoint
 10
506.394379
 20
681.148315
 30
0.0
  0
POINT
  5
129
330
11F
100
AcDbEntity
  8
DEFPOINTS
 62
     0
100
AcDbPoint
 10
506.394379
 20
656.148315
 30
0.0
  0
POINT
  5
12A
330
11F
100
AcDbEntity
  8
DEFPOINTS
 62
     0
100
AcDbPoint
 10
543.511871
 20
656.148315
 30
0.0
  0
ENDBLK
  5
121
330
11F
100
AcDbEntity
  8
0
100
AcDbBlockEnd
  0
BLOCK
  5
12D
330
12C
100
AcDbEntity
  8
0
100
AcDbBlockBegin
  2
*D17
 70
     1
 10
0.0
 20
0.0
 30
0.0
  3
*D17
  1

  0
LINE
  5
12F
330
12C
100
AcDbEntity
  8
DN40_営業図
  6
CONTINUOUS
 62
     1
100
AcDbLine
 10
509.394379
 20
191.148315
 30
0.0
 11
546.511871
 21
191.148315
 31
0.0
  0
LINE
  5
130
330
12C
100
AcDbEntity
  8
DN40_営業図
  6
CONTINUOUS
 62
     1
100
AcDbLine
 10
509.394379
 20
166.148315
 30
0.0
 11
546.511871
 21
166.148315
 31
0.0
  0
LINE
  5
131
330
12C
100
AcDbEntity
  8
DN40_営業図
  6
CONTINUOUS
 62
     1
100
AcDbLine
 10
543.511871
 20
185.148315
 30
0.0
 11
543.511871
 21
172.148315
 31
0.0
  0
INSERT
  5
132
330
12C
100
AcDbEntity
  8
DN40_営業図
 62
     1
100
AcDbBlockReference
  2
EX_BNORM
 10
543.511871
 20
191.148315
 30
0.0
 41
6.0
 42
6.0
 43
6.0
 50
90.0
  0
INSERT
  5
133
330
12C
100
AcDbEntity
  8
DN40_営業図
 62
     1
100
AcDbBlockReference
  2
EX_BNORM
 10
543.511871
 20
166.148315
 30
0.0
 41
6.0
 42
6.0
 43
6.0
 50
270.0
  0
MTEXT
  5
134
330
12C
100
AcDbEntity
  8
DN40_営業図
 62
     1
100
AcDbMText
 10
538.511871
 20
178.648315
 30
0.0
 40
6.2362208
 41
0.0
 71
     5
 72
     1
  1
25
  7
EXCADDIM1
 11
-6.049014748177263E-16
 21
1.0
 31
0.0
  0
POINT
  5
135
330
12C
100
AcDbEntity
  8
DEFPOINTS
 62
     0
100
AcDbPoint
 10
506.394379
 20
191.148315
 30
0.0
  0
POINT
  5
136
330
12C
100
AcDbEntity
  8
DEFPOINTS
 62
     0
100
AcDbPoint
 10
506.394379
 20
166.148315
 30
0.0
  0
POINT
  5
137
330
12C
100
AcDbEntity
  8
DEFPOINTS
 62
     0
100
AcDbPoint
 10
543.511871
 20
166.148315
 30
0.0
  0
ENDBLK
  5
12E
330
12C
100
AcDbEntity
  8
0
100
AcDbBlockEnd
  0
BLOCK
  5
14A
330
149
100
AcDbEntity
  8
0
100
AcDbBlockBegin
  2
*D18
 70
     1
 10
0.0
 20
0.0
 30
0.0
  3
*D18
  1

  0
ARC
  5
14C
330
149
100
AcDbEntity
  8
DN40_営業図
  6
CONTINUOUS
 62
     1
100
AcDbCircle
 10
866.158691
 20
495.406921
 30
0.0
 40
84.02722812954
100
AcDbArc
 50
154.0920919439089
 51
175.907900800087
  0
INSERT
  5
14D
330
149
100
AcDbEntity
  8
DN40_営業図
 62
     1
100
AcDbBlockReference
  2
EX_BNORM
 10
793.3889821508814
 20
537.4205442804108
 30
0.0
 41
6.0
 42
6.0
 43
6.0
 50
62.04604234395244
  0
INSERT
  5
14E
330
149
100
AcDbEntity
  8
DN40_営業図
 62
     1
100
AcDbBlockReference
  2
EX_BNORM
 10
782.1314628704599
 20
495.406921
 30
0.0
 41
6.0
 42
6.0
 43
6.0
 50
267.9539504000435
  0
MTEXT
  5
14F
330
149
100
AcDbEntity
  8
DN40_営業図
 62
     1
100
AcDbMText
 10
780.1649935657988
 20
518.4488686177771
 30
0.0
 40
6.2362208
 41
0.0
 71
     5
 72
     1
  1
30%%d
  7
EXCADDIM1
 11
0.2588191062655035
 21
0.9659258099004944
 31
0.0
  0
POINT
  5
150
330
149
100
AcDbEntity
  8
DEFPOINTS
 62
     0
100
AcDbPoint
 10
866.158691
 20
495.406921
 30
0.0
  0
POINT
  5
151
330
149
100
AcDbEntity
  8
DEFPOINTS
 62
     0
100
AcDbPoint
 10
793.3889821509
 20
537.4205442804
 30
0.0
  0
POINT
  5
152
330
149
100
AcDbEntity
  8
DEFPOINTS
 62
     0
100
AcDbPoint
 10
782.1314628705001
 20
495.406921
 30
0.0
  0
POINT
  5
153
330
149
100
AcDbEntity
  8
DEFPOINTS
 62
     0
100
AcDbPoint
 10
787.1989272079379
 20
524.1459322744948
 30
0.0
  0
ENDBLK
  5
14B
330
149
100
AcDbEntity
  8
0
100
AcDbBlockEnd
  0
BLOCK
  5
156
330
155
100
AcDbEntity
  8
0
100
AcDbBlockBegin
  2
*D19
 70
     1
 10
0.0
 20
0.0
 30
0.0
  3
*D19
  1

  0
ARC
  5
158
330
155
100
AcDbEntity
  8
DN40_営業図
  6
CONTINUOUS
 62
     1
100
AcDbCircle
 10
866.158691
 20
495.406921
 30
0.0
 40
84.02722812954006
100
AcDbArc
 50
4.092099199912957
 51
25.90790805609104
  0
INSERT
  5
159
330
155
100
AcDbEntity
  8
DN40_営業図
 62
     1
100
AcDbBlockReference
  2
EX_BNORM
 10
950.18591912954
 20
495.406921
 30
0.0
 41
6.0
 42
6.0
 43
6.0
 50
272.0460495999565
  0
INSERT
  5
15A
330
155
100
AcDbEntity
  8
DN40_営業図
 62
     1
100
AcDbBlockReference
  2
EX_BNORM
 10
938.9283998491186
 20
537.4205442804107
 30
0.0
 41
6.0
 42
6.0
 43
6.0
 50
117.9539576560475
  0
MTEXT
  5
15B
330
155
100
AcDbEntity
  8
DN40_営業図
 62
     1
100
AcDbMText
 10
952.1523884341834
 20
518.4488686177723
 30
0.0
 40
6.2362208
 41
0.0
 71
     5
 72
     1
  1
30%%d
  7
EXCADDIM1
 11
0.2588191062655033
 21
-0.9659258099004945
 31
0.0
  0
POINT
  5
15C
330
155
100
AcDbEntity
  8
DEFPOINTS
 62
     0
100
AcDbPoint
 10
866.158691
 20
495.406921
 30
0.0
  0
POINT
  5
15D
330
155
100
AcDbEntity
  8
DEFPOINTS
 62
     0
100
AcDbPoint
 10
950.1859191295
 20
495.406921
 30
0.0
  0
POINT
  5
15E
330
155
100
AcDbEntity
  8
DEFPOINTS
 62
     0
100
AcDbPoint
 10
938.9283998491001
 20
537.4205442804
 30
0.0
  0
POINT
  5
15F
330
155
100
AcDbEntity
  8
DEFPOINTS
 62
     0
100
AcDbPoint
 10
948.9093561101487
 20
509.9980995323115
 30
0.0
  0
ENDBLK
  5
157
330
155
100
AcDbEntity
  8
0
100
AcDbBlockEnd
  0
BLOCK
  5
162
330
161
100
AcDbEntity
  8
0
100
AcDbBlockBegin
  2
*D20
 70
     1
 10
0.0
 20
0.0
 30
0.0
  3
*D20
  1

  0
LINE
  5
164
330
161
100
AcDbEntity
  8
DN40_営業図
  6
CONTINUOUS
 62
     1
100
AcDbLine
 10
690.658691
 20
322.906921
 30
0.0
 11
650.9
 21
322.906921
 31
0.0
  0
LINE
  5
165
330
161
100
AcDbEntity
  8
DN40_営業図
  6
CONTINUOUS
 62
     1
100
AcDbLine
 10
681.108948
 20
350.406921
 30
0.0
 11
650.9
 21
350.406921
 31
0.0
  0
LINE
  5
166
330
161
100
AcDbEntity
  8
DN40_営業図
  6
CONTINUOUS
 62
     1
100
AcDbLine
 10
653.9
 20
328.906921
 30
0.0
 11
653.9
 21
344.406921
 31
0.0
  0
INSERT
  5
167
330
161
100
AcDbEntity
  8
DN40_営業図
 62
     1
100
AcDbBlockReference
  2
EX_BNORM
 10
653.9
 20
322.906921
 30
0.0
 41
6.0
 42
6.0
 43
6.0
 50
270.0
  0
INSERT
  5
168
330
161
100
AcDbEntity
  8
DN40_営業図
 62
     1
100
AcDbBlockReference
  2
EX_BNORM
 10
653.9
 20
350.406921
 30
0.0
 41
6.0
 42
6.0
 43
6.0
 50
90.0
  0
MTEXT
  5
169
330
161
100
AcDbEntity
  8
DN40_営業図
 62
     1
100
AcDbMText
 10
648.9
 20
336.656921
 30
0.0
 40
6.2362208
 41
0.0
 71
     5
 72
     1
  1
27.5
  7
EXCADDIM1
 11
0.0
 21
1.0
 31
0.0
  0
POINT
  5
16A
330
161
100
AcDbEntity
  8
DEFPOINTS
 62
     0
100
AcDbPoint
 10
693.658691
 20
322.906921
 30
0.0
  0
POINT
  5
16B
330
161
100
AcDbEntity
  8
DEFPOINTS
 62
     0
100
AcDbPoint
 10
684.108948
 20
350.406921
 30
0.0
  0
POINT
  5
16C
330
161
100
AcDbEntity
  8
DEFPOINTS
 62
     0
100
AcDbPoint
 10
653.9
 20
350.406921
 30
0.0
  0
ENDBLK
  5
163
330
161
100
AcDbEntity
  8
0
100
AcDbBlockEnd
  0
BLOCK
  5
16F
330
16E
100
AcDbEntity
  8
0
100
AcDbBlockBegin
  2
*D21
 70
     1
 10
0.0
 20
0.0
 30
0.0
  3
*D21
  1

  0
LINE
  5
171
330
16E
100
AcDbEntity
  8
DN40_営業図
  6
CONTINUOUS
 62
     1
100
AcDbLine
 10
681.108948
 20
640.406921
 30
0.0
 11
650.9
 21
640.406921
 31
0.0
  0
LINE
  5
172
330
16E
100
AcDbEntity
  8
DN40_営業図
  6
CONTINUOUS
 62
     1
100
AcDbLine
 10
653.9
 20
356.4069210000001
 30
0.0
 11
653.9
 21
634.406921
 31
0.0
  0
INSERT
  5
173
330
16E
100
AcDbEntity
  8
DN40_営業図
 62
     1
100
AcDbBlockReference
  2
EX_BNORM
 10
653.9
 20
350.4069210000001
 30
0.0
 41
6.0
 42
6.0
 43
6.0
 50
270.0
  0
INSERT
  5
174
330
16E
100
AcDbEntity
  8
DN40_営業図
 62
     1
100
AcDbBlockReference
  2
EX_BNORM
 10
653.9
 20
640.406921
 30
0.0
 41
6.0
 42
6.0
 43
6.0
 50
90.0
  0
MTEXT
  5
175
330
16E
100
AcDbEntity
  8
DN40_営業図
 62
     1
100
AcDbMText
 10
648.9
 20
495.406921
 30
0.0
 40
6.2362208
 41
0.0
 71
     5
 72
     1
  1
290
  7
EXCADDIM1
 11
0.0
 21
1.0
 31
0.0
  0
POINT
  5
176
330
16E
100
AcDbEntity
  8
DEFPOINTS
 62
     0
100
AcDbPoint
 10
684.108948
 20
350.406921
 30
0.0
  0
POINT
  5
177
330
16E
100
AcDbEntity
  8
DEFPOINTS
 62
     0
100
AcDbPoint
 10
684.108948
 20
640.406921
 30
0.0
  0
POINT
  5
178
330
16E
100
AcDbEntity
  8
DEFPOINTS
 62
     0
100
AcDbPoint
 10
653.9
 20
640.406921
 30
0.0
  0
ENDBLK
  5
170
330
16E
100
AcDbEntity
  8
0
100
AcDbBlockEnd
  0
BLOCK
  5
17B
330
17A
100
AcDbEntity
  8
0
100
AcDbBlockBegin
  2
*D22
 70
     1
 10
0.0
 20
0.0
 30
0.0
  3
*D22
  1

  0
LINE
  5
17D
330
17A
100
AcDbEntity
  8
DN40_営業図
  6
CONTINUOUS
 62
     1
100
AcDbLine
 10
690.658691
 20
667.906921
 30
0.0
 11
650.9
 21
667.906921
 31
0.0
  0
LINE
  5
17E
330
17A
100
AcDbEntity
  8
DN40_営業図
  6
CONTINUOUS
 62
     1
100
AcDbLine
 10
653.9
 20
646.406921
 30
0.0
 11
653.9
 21
661.906921
 31
0.0
  0
INSERT
  5
17F
330
17A
100
AcDbEntity
  8
DN40_営業図
 62
     1
100
AcDbBlockReference
  2
EX_BNORM
 10
653.9
 20
640.406921
 30
0.0
 41
6.0
 42
6.0
 43
6.0
 50
270.0
  0
INSERT
  5
180
330
17A
100
AcDbEntity
  8
DN40_営業図
 62
     1
100
AcDbBlockReference
  2
EX_BNORM
 10
653.9
 20
667.906921
 30
0.0
 41
6.0
 42
6.0
 43
6.0
 50
90.0
  0
MTEXT
  5
181
330
17A
100
AcDbEntity
  8
DN40_営業図
 62
     1
100
AcDbMText
 10
648.9
 20
654.156921
 30
0.0
 40
6.2362208
 41
0.0
 71
     5
 72
     1
  1
27.5
  7
EXCADDIM1
 11
0.0
 21
1.0
 31
0.0
  0
POINT
  5
182
330
17A
100
AcDbEntity
  8
DEFPOINTS
 62
     0
100
AcDbPoint
 10
684.108948
 20
640.406921
 30
0.0
  0
POINT
  5
183
330
17A
100
AcDbEntity
  8
DEFPOINTS
 62
     0
100
AcDbPoint
 10
693.658691
 20
667.906921
 30
0.0
  0
POINT
  5
184
330
17A
100
AcDbEntity
  8
DEFPOINTS
 62
     0
100
AcDbPoint
 10
653.9
 20
667.906921
 30
0.0
  0
ENDBLK
  5
17C
330
17A
100
AcDbEntity
  8
0
100
AcDbBlockEnd
  0
BLOCK
  5
187
330
186
100
AcDbEntity
  8
0
100
AcDbBlockBegin
  2
*D23
 70
     1
 10
0.0
 20
0.0
 30
0.0
  3
*D23
  1

  0
LINE
  5
189
330
186
100
AcDbEntity
  8
DN40_営業図
  6
CONTINUOUS
 62
     1
100
AcDbLine
 10
1069.9
 20
328.906921
 30
0.0
 11
1069.9
 21
364.406921
 31
0.0
  0
INSERT
  5
18A
330
186
100
AcDbEntity
  8
DN40_営業図
 62
     1
100
AcDbBlockReference
  2
EX_BNORM
 10
1069.9
 20
322.906921
 30
0.0
 41
6.0
 42
6.0
 43
6.0
 50
270.0
  0
INSERT
  5
18B
330
186
100
AcDbEntity
  8
DN40_営業図
 62
     1
100
AcDbBlockReference
  2
EX_BNORM
 10
1069.9
 20
370.406921
 30
0.0
 41
6.0
 42
6.0
 43
6.0
 50
90.0
  0
MTEXT
  5
18C
330
186
100
AcDbEntity
  8
DN40_営業図
 62
     1
100
AcDbMText
 10
1064.9
 20
346.656921
 30
0.0
 40
6.2362208
 41
0.0
 71
     5
 72
     1
  1
47.5
  7
EXCADDIM1
 11
0.0
 21
1.0
 31
0.0
  0
POINT
  5
18D
330
186
100
AcDbEntity
  8
DEFPOINTS
 62
     0
100
AcDbPoint
 10
1038.658691
 20
322.906921
 30
0.0
  0
POINT
  5
18E
330
186
100
AcDbEntity
  8
DEFPOINTS
 62
     0
100
AcDbPoint
 10
1008.998047
 20
370.406921
 30
0.0
  0
POINT
  5
18F
330
186
100
AcDbEntity
  8
DEFPOINTS
 62
     0
100
AcDbPoint
 10
1069.9
 20
370.406921
 30
0.0
  0
ENDBLK
  5
188
330
186
100
AcDbEntity
  8
0
100
AcDbBlockEnd
  0
BLOCK
  5
192
330
191
100
AcDbEntity
  8
0
100
AcDbBlockBegin
  2
*D24
 70
     1
 10
0.0
 20
0.0
 30
0.0
  3
*D24
  1

  0
LINE
  5
194
330
191
100
AcDbEntity
  8
DN40_営業図
  6
CONTINUOUS
 62
     1
100
AcDbLine
 10
1011.998047
 20
370.406921
 30
0.0
 11
1072.9
 21
370.406921
 31
0.0
  0
LINE
  5
195
330
191
100
AcDbEntity
  8
DN40_営業図
  6
CONTINUOUS
 62
     1
100
AcDbLine
 10
1069.9
 20
376.406921
 30
0.0
 11
1069.9
 21
614.406921
 31
0.0
  0
INSERT
  5
196
330
191
100
AcDbEntity
  8
DN40_営業図
 62
     1
100
AcDbBlockReference
  2
EX_BNORM
 10
1069.9
 20
370.406921
 30
0.0
 41
6.0
 42
6.0
 43
6.0
 50
270.0
  0
INSERT
  5
197
330
191
100
AcDbEntity
  8
DN40_営業図
 62
     1
100
AcDbBlockReference
  2
EX_BNORM
 10
1069.9
 20
620.406921
 30
0.0
 41
6.0
 42
6.0
 43
6.0
 50
90.0
  0
MTEXT
  5
198
330
191
100
AcDbEntity
  8
DN40_営業図
 62
     1
100
AcDbMText
 10
1064.9
 20
495.406921
 30
0.0
 40
6.2362208
 41
0.0
 71
     5
 72
     1
  1
250
  7
EXCADDIM1
 11
0.0
 21
1.0
 31
0.0
  0
POINT
  5
199
330
191
100
AcDbEntity
  8
DEFPOINTS
 62
     0
100
AcDbPoint
 10
1008.998047
 20
370.406921
 30
0.0
  0
POINT
  5
19A
330
191
100
AcDbEntity
  8
DEFPOINTS
 62
     0
100
AcDbPoint
 10
1008.998047
 20
620.406921
 30
0.0
  0
POINT
  5
19B
330
191
100
AcDbEntity
  8
DEFPOINTS
 62
     0
100
AcDbPoint
 10
1069.9
 20
620.406921
 30
0.0
  0
ENDBLK
  5
193
330
191
100
AcDbEntity
  8
0
100
AcDbBlockEnd
  0
BLOCK
  5
19E
330
19D
100
AcDbEntity
  8
0
100
AcDbBlockBegin
  2
*D25
 70
     1
 10
0.0
 20
0.0
 30
0.0
  3
*D25
  1

  0
LINE
  5
1A0
330
19D
100
AcDbEntity
  8
DN40_営業図
  6
CONTINUOUS
 62
     1
100
AcDbLine
 10
1011.998047
 20
620.406921
 30
0.0
 11
1072.9
 21
620.406921
 31
0.0
  0
LINE
  5
1A1
330
19D
100
AcDbEntity
  8
DN40_営業図
  6
CONTINUOUS
 62
     1
100
AcDbLine
 10
1069.9
 20
626.406921
 30
0.0
 11
1069.9
 21
661.906921
 31
0.0
  0
INSERT
  5
1A2
330
19D
100
AcDbEntity
  8
DN40_営業図
 62
     1
100
AcDbBlockReference
  2
EX_BNORM
 10
1069.9
 20
620.406921
 30
0.0
 41
6.0
 42
6.0
 43
6.0
 50
270.0
  0
INSERT
  5
1A3
330
19D
100
AcDbEntity
  8
DN40_営業図
 62
     1
100
AcDbBlockReference
  2
EX_BNORM
 10
1069.9
 20
667.906921
 30
0.0
 41
6.0
 42
6.0
 43
6.0
 50
90.0
  0
MTEXT
  5
1A4
330
19D
100
AcDbEntity
  8
DN40_営業図
 62
     1
100
AcDbMText
 10
1064.9
 20
644.156921
 30
0.0
 40
6.2362208
 41
0.0
 71
     5
 72
     1
  1
47.5
  7
EXCADDIM1
 11
0.0
 21
1.0
 31
0.0
  0
POINT
  5
1A5
330
19D
100
AcDbEntity
  8
DEFPOINTS
 62
     0
100
AcDbPoint
 10
1008.998047
 20
620.406921
 30
0.0
  0
POINT
  5
1A6
330
19D
100
AcDbEntity
  8
DEFPOINTS
 62
     0
100
AcDbPoint
 10
1038.658691
 20
667.906921
 30
0.0
  0
POINT
  5
1A7
330
19D
100
AcDbEntity
  8
DEFPOINTS
 62
     0
100
AcDbPoint
 10
1069.9
 20
667.906921
 30
0.0
  0
ENDBLK
  5
19F
330
19D
100
AcDbEntity
  8
0
100
AcDbBlockEnd
  0
BLOCK
  5
1AA
330
1A9
100
AcDbEntity
  8
0
100
AcDbBlockBegin
  2
*D26
 70
     1
 10
0.0
 20
0.0
 30
0.0
  3
*D26
  1

  0
LINE
  5
1AC
330
1A9
100
AcDbEntity
  8
DN40_営業図
  6
CONTINUOUS
 62
     1
100
AcDbLine
 10
1041.658691
 20
322.906921
 30
0.0
 11
1092.9
 21
322.906921
 31
0.0
  0
LINE
  5
1AD
330
1A9
100
AcDbEntity
  8
DN40_営業図
  6
CONTINUOUS
 62
     1
100
AcDbLine
 10
1041.658691
 20
667.906921
 30
0.0
 11
1092.9
 21
667.906921
 31
0.0
  0
LINE
  5
1AE
330
1A9
100
AcDbEntity
  8
DN40_営業図
  6
CONTINUOUS
 62
     1
100
AcDbLine
 10
1089.9
 20
328.906921
 30
0.0
 11
1089.9
 21
661.906921
 31
0.0
  0
INSERT
  5
1AF
330
1A9
100
AcDbEntity
  8
DN40_営業図
 62
     1
100
AcDbBlockReference
  2
EX_BNORM
 10
1089.9
 20
322.906921
 30
0.0
 41
6.0
 42
6.0
 43
6.0
 50
270.0
  0
INSERT
  5
1B0
330
1A9
100
AcDbEntity
  8
DN40_営業図
 62
     1
100
AcDbBlockReference
  2
EX_BNORM
 10
1089.9
 20
667.906921
 30
0.0
 41
6.0
 42
6.0
 43
6.0
 50
90.0
  0
MTEXT
  5
1B1
330
1A9
100
AcDbEntity
  8
DN40_営業図
 62
     1
100
AcDbMText
 10
1084.9
 20
495.406921
 30
0.0
 40
6.2362208
 41
0.0
 71
     5
 72
     1
  1
345
  7
EXCADDIM1
 11
0.0
 21
1.0
 31
0.0
  0
POINT
  5
1B2
330
1A9
100
AcDbEntity
  8
DEFPOINTS
 62
     0
100
AcDbPoint
 10
1038.658691
 20
322.906921
 30
0.0
  0
POINT
  5
1B3
330
1A9
100
AcDbEntity
  8
DEFPOINTS
 62
     0
100
AcDbPoint
 10
1038.658691
 20
667.906921
 30
0.0
  0
POINT
  5
1B4
330
1A9
100
AcDbEntity
  8
DEFPOINTS
 62
     0
100
AcDbPoint
 10
1089.9
 20
667.906921
 30
0.0
  0
ENDBLK
  5
1AB
330
1A9
100
AcDbEntity
  8
0
100
AcDbBlockEnd
  0
BLOCK
  5
1B7
330
1B6
100
AcDbEntity
  8
0
100
AcDbBlockBegin
  2
*D27
 70
     1
 10
0.0
 20
0.0
 30
0.0
  3
*D27
  1

  0
LINE
  5
1B9
330
1B6
100
AcDbEntity
  8
DN40_営業図
  6
CONTINUOUS
 62
     1
100
AcDbLine
 10
693.658691
 20
670.906921
 30
0.0
 11
693.658691
 21
705.0
 31
0.0
  0
LINE
  5
1BA
330
1B6
100
AcDbEntity
  8
DN40_営業図
  6
CONTINUOUS
 62
     1
100
AcDbLine
 10
721.158691
 20
682.844177
 30
0.0
 11
721.158691
 21
705.0
 31
0.0
  0
LINE
  5
1BB
330
1B6
100
AcDbEntity
  8
DN40_営業図
  6
CONTINUOUS
 62
     1
100
AcDbLine
 10
699.658691
 20
702.0
 30
0.0
 11
715.158691
 21
702.0
 31
0.0
  0
INSERT
  5
1BC
330
1B6
100
AcDbEntity
  8
DN40_営業図
 62
     1
100
AcDbBlockReference
  2
EX_BNORM
 10
693.658691
 20
702.0
 30
0.0
 41
6.0
 42
6.0
 43
6.0
 50
180.0
  0
INSERT
  5
1BD
330
1B6
100
AcDbEntity
  8
DN40_営業図
 62
     1
100
AcDbBlockReference
  2
EX_BNORM
 10
721.158691
 20
702.0
 30
0.0
 41
6.0
 42
6.0
 43
6.0
  0
MTEXT
  5
1BE
330
1B6
100
AcDbEntity
  8
DN40_営業図
 62
     1
100
AcDbMText
 10
707.408691
 20
707.0
 30
0.0
 40
6.2362208
 41
0.0
 71
     5
 72
     1
  1
27.5
  7
EXCADDIM1
  0
POINT
  5
1BF
330
1B6
100
AcDbEntity
  8
DEFPOINTS
 62
     0
100
AcDbPoint
 10
693.658691
 20
667.906921
 30
0.0
  0
POINT
  5
1C0
330
1B6
100
AcDbEntity
  8
DEFPOINTS
 62
     0
100
AcDbPoint
 10
721.158691
 20
679.844177
 30
0.0
  0
POINT
  5
1C1
330
1B6
100
AcDbEntity
  8
DEFPOINTS
 62
     0
100
AcDbPoint
 10
721.158691
 20
702.0
 30
0.0
  0
ENDBLK
  5
1B8
330
1B6
100
AcDbEntity
  8
0
100
AcDbBlockEnd
  0
BLOCK
  5
1C4
330
1C3
100
AcDbEntity
  8
0
100
AcDbBlockBegin
  2
*D28
 70
     1
 10
0.0
 20
0.0
 30
0.0
  3
*D28
  1

  0
LINE
  5
1C6
330
1C3
100
AcDbEntity
  8
DN40_営業図
  6
CONTINUOUS
 62
     1
100
AcDbLine
 10
1011.158691
 20
682.844177
 30
0.0
 11
1011.158691
 21
705.0
 31
0.0
  0
LINE
  5
1C7
330
1C3
100
AcDbEntity
  8
DN40_営業図
  6
CONTINUOUS
 62
     1
100
AcDbLine
 10
727.158691
 20
702.0
 30
0.0
 11
1005.158691
 21
702.0
 31
0.0
  0
INSERT
  5
1C8
330
1C3
100
AcDbEntity
  8
DN40_営業図
 62
     1
100
AcDbBlockReference
  2
EX_BNORM
 10
721.158691
 20
702.0
 30
0.0
 41
6.0
 42
6.0
 43
6.0
 50
180.0
  0
INSERT
  5
1C9
330
1C3
100
AcDbEntity
  8
DN40_営業図
 62
     1
100
AcDbBlockReference
  2
EX_BNORM
 10
1011.158691
 20
702.0
 30
0.0
 41
6.0
 42
6.0
 43
6.0
  0
MTEXT
  5
1CA
330
1C3
100
AcDbEntity
  8
DN40_営業図
 62
     1
100
AcDbMText
 10
866.158691
 20
707.0
 30
0.0
 40
6.2362208
 41
0.0
 71
     5
 72
     1
  1
290
  7
EXCADDIM1
  0
POINT
  5
1CB
330
1C3
100
AcDbEntity
  8
DEFPOINTS
 62
     0
100
AcDbPoint
 10
721.158691
 20
679.844177
 30
0.0
  0
POINT
  5
1CC
330
1C3
100
AcDbEntity
  8
DEFPOINTS
 62
     0
100
AcDbPoint
 10
1011.158691
 20
679.844177
 30
0.0
  0
POINT
  5
1CD
330
1C3
100
AcDbEntity
  8
DEFPOINTS
 62
     0
100
AcDbPoint
 10
1011.158691
 20
702.0
 30
0.0
  0
ENDBLK
  5
1C5
330
1C3
100
AcDbEntity
  8
0
100
AcDbBlockEnd
  0
BLOCK
  5
1D0
330
1CF
100
AcDbEntity
  8
0
100
AcDbBlockBegin
  2
*D29
 70
     1
 10
0.0
 20
0.0
 30
0.0
  3
*D29
  1

  0
LINE
  5
1D2
330
1CF
100
AcDbEntity
  8
DN40_営業図
  6
CONTINUOUS
 62
     1
100
AcDbLine
 10
1038.658691
 20
670.906921
 30
0.0
 11
1038.658691
 21
705.0
 31
0.0
  0
LINE
  5
1D3
330
1CF
100
AcDbEntity
  8
DN40_営業図
  6
CONTINUOUS
 62
     1
100
AcDbLine
 10
1017.158691
 20
702.0
 30
0.0
 11
1032.658691
 21
702.0
 31
0.0
  0
INSERT
  5
1D4
330
1CF
100
AcDbEntity
  8
DN40_営業図
 62
     1
100
AcDbBlockReference
  2
EX_BNORM
 10
1011.158691
 20
702.0
 30
0.0
 41
6.0
 42
6.0
 43
6.0
 50
180.0
  0
INSERT
  5
1D5
330
1CF
100
AcDbEntity
  8
DN40_営業図
 62
     1
100
AcDbBlockReference
  2
EX_BNORM
 10
1038.658691
 20
702.0
 30
0.0
 41
6.0
 42
6.0
 43
6.0
  0
MTEXT
  5
1D6
330
1CF
100
AcDbEntity
  8
DN40_営業図
 62
     1
100
AcDbMText
 10
1024.908691
 20
707.0
 30
0.0
 40
6.2362208
 41
0.0
 71
     5
 72
     1
  1
27.5
  7
EXCADDIM1
  0
POINT
  5
1D7
330
1CF
100
AcDbEntity
  8
DEFPOINTS
 62
     0
100
AcDbPoint
 10
1011.158691
 20
679.844177
 30
0.0
  0
POINT
  5
1D8
330
1CF
100
AcDbEntity
  8
DEFPOINTS
 62
     0
100
AcDbPoint
 10
1038.658691
 20
667.906921
 30
0.0
  0
POINT
  5
1D9
330
1CF
100
AcDbEntity
  8
DEFPOINTS
 62
     0
100
AcDbPoint
 10
1038.658691
 20
702.0
 30
0.0
  0
ENDBLK
  5
1D1
330
1CF
100
AcDbEntity
  8
0
100
AcDbBlockEnd
  0
BLOCK
  5
1DC
330
1DB
100
AcDbEntity
  8
0
100
AcDbBlockBegin
  2
*D30
 70
     1
 10
0.0
 20
0.0
 30
0.0
  3
*D30
  1

  0
LINE
  5
1DE
330
1DB
100
AcDbEntity
  8
DN40_営業図
  6
CONTINUOUS
 62
     1
100
AcDbLine
 10
699.658691
 20
288.0
 30
0.0
 11
735.158691
 21
288.0
 31
0.0
  0
INSERT
  5
1DF
330
1DB
100
AcDbEntity
  8
DN40_営業図
 62
     1
100
AcDbBlockReference
  2
EX_BNORM
 10
693.658691
 20
288.0
 30
0.0
 41
6.0
 42
6.0
 43
6.0
 50
180.0
  0
INSERT
  5
1E0
330
1DB
100
AcDbEntity
  8
DN40_営業図
 62
     1
100
AcDbBlockReference
  2
EX_BNORM
 10
741.158691
 20
288.0
 30
0.0
 41
6.0
 42
6.0
 43
6.0
  0
MTEXT
  5
1E1
330
1DB
100
AcDbEntity
  8
DN40_営業図
 62
     1
100
AcDbMText
 10
717.408691
 20
293.0
 30
0.0
 40
6.2362208
 41
0.0
 71
     5
 72
     1
  1
47.5
  7
EXCADDIM1
  0
POINT
  5
1E2
330
1DB
100
AcDbEntity
  8
DEFPOINTS
 62
     0
100
AcDbPoint
 10
693.658691
 20
322.906921
 30
0.0
  0
POINT
  5
1E3
330
1DB
100
AcDbEntity
  8
DEFPOINTS
 62
     0
100
AcDbPoint
 10
741.158691
 20
349.700623
 30
0.0
  0
POINT
  5
1E4
330
1DB
100
AcDbEntity
  8
DEFPOINTS
 62
     0
100
AcDbPoint
 10
741.158691
 20
288.0
 30
0.0
  0
ENDBLK
  5
1DD
330
1DB
100
AcDbEntity
  8
0
100
AcDbBlockEnd
  0
BLOCK
  5
1E7
330
1E6
100
AcDbEntity
  8
0
100
AcDbBlockBegin
  2
*D31
 70
     1
 10
0.0
 20
0.0
 30
0.0
  3
*D31
  1

  0
LINE
  5
1E9
330
1E6
100
AcDbEntity
  8
DN40_営業図
  6
CONTINUOUS
 62
     1
100
AcDbLine
 10
741.158691
 20
346.700623
 30
0.0
 11
741.158691
 21
285.0
 31
0.0
  0
LINE
  5
1EA
330
1E6
100
AcDbEntity
  8
DN40_営業図
  6
CONTINUOUS
 62
     1
100
AcDbLine
 10
747.158691
 20
288.0
 30
0.0
 11
985.158691
 21
288.0
 31
0.0
  0
INSERT
  5
1EB
330
1E6
100
AcDbEntity
  8
DN40_営業図
 62
     1
100
AcDbBlockReference
  2
EX_BNORM
 10
741.158691
 20
288.0
 30
0.0
 41
6.0
 42
6.0
 43
6.0
 50
180.0
  0
INSERT
  5
1EC
330
1E6
100
AcDbEntity
  8
DN40_営業図
 62
     1
100
AcDbBlockReference
  2
EX_BNORM
 10
991.158691
 20
288.0
 30
0.0
 41
6.0
 42
6.0
 43
6.0
  0
MTEXT
  5
1ED
330
1E6
100
AcDbEntity
  8
DN40_営業図
 62
     1
100
AcDbMText
 10
866.158691
 20
293.0
 30
0.0
 40
6.2362208
 41
0.0
 71
     5
 72
     1
  1
250
  7
EXCADDIM1
  0
POINT
  5
1EE
330
1E6
100
AcDbEntity
  8
DEFPOINTS
 62
     0
100
AcDbPoint
 10
741.158691
 20
349.700623
 30
0.0
  0
POINT
  5
1EF
330
1E6
100
AcDbEntity
  8
DEFPOINTS
 62
     0
100
AcDbPoint
 10
991.158691
 20
349.700623
 30
0.0
  0
POINT
  5
1F0
330
1E6
100
AcDbEntity
  8
DEFPOINTS
 62
     0
100
AcDbPoint
 10
991.158691
 20
288.0
 30
0.0
  0
ENDBLK
  5
1E8
330
1E6
100
AcDbEntity
  8
0
100
AcDbBlockEnd
  0
BLOCK
  5
1F3
330
1F2
100
AcDbEntity
  8
0
100
AcDbBlockBegin
  2
*D32
 70
     1
 10
0.0
 20
0.0
 30
0.0
  3
*D32
  1

  0
LINE
  5
1F5
330
1F2
100
AcDbEntity
  8
DN40_営業図
  6
CONTINUOUS
 62
     1
100
AcDbLine
 10
991.158691
 20
346.700623
 30
0.0
 11
991.158691
 21
285.0
 31
0.0
  0
LINE
  5
1F6
330
1F2
100
AcDbEntity
  8
DN40_営業図
  6
CONTINUOUS
 62
     1
100
AcDbLine
 10
997.158691
 20
288.0
 30
0.0
 11
1032.658691
 21
288.0
 31
0.0
  0
INSERT
  5
1F7
330
1F2
100
AcDbEntity
  8
DN40_営業図
 62
     1
100
AcDbBlockReference
  2
EX_BNORM
 10
991.158691
 20
288.0
 30
0.0
 41
6.0
 42
6.0
 43
6.0
 50
180.0
  0
INSERT
  5
1F8
330
1F2
100
AcDbEntity
  8
DN40_営業図
 62
     1
100
AcDbBlockReference
  2
EX_BNORM
 10
1038.658691
 20
288.0
 30
0.0
 41
6.0
 42
6.0
 43
6.0
  0
MTEXT
  5
1F9
330
1F2
100
AcDbEntity
  8
DN40_営業図
 62
     1
100
AcDbMText
 10
1014.908691
 20
293.0
 30
0.0
 40
6.2362208
 41
0.0
 71
     5
 72
     1
  1
47.5
  7
EXCADDIM1
  0
POINT
  5
1FA
330
1F2
100
AcDbEntity
  8
DEFPOINTS
 62
     0
100
AcDbPoint
 10
991.158691
 20
349.700623
 30
0.0
  0
POINT
  5
1FB
330
1F2
100
AcDbEntity
  8
DEFPOINTS
 62
     0
100
AcDbPoint
 10
1038.658691
 20
322.906921
 30
0.0
  0
POINT
  5
1FC
330
1F2
100
AcDbEntity
  8
DEFPOINTS
 62
     0
100
AcDbPoint
 10
1038.658691
 20
288.0
 30
0.0
  0
ENDBLK
  5
1F4
330
1F2
100
AcDbEntity
  8
0
100
AcDbBlockEnd
  0
BLOCK
  5
1FF
330
1FE
100
AcDbEntity
  8
0
100
AcDbBlockBegin
  2
*D33
 70
     1
 10
0.0
 20
0.0
 30
0.0
  3
*D33
  1

  0
LINE
  5
201
330
1FE
100
AcDbEntity
  8
DN40_営業図
  6
CONTINUOUS
 62
     1
100
AcDbLine
 10
693.658691
 20
319.906921
 30
0.0
 11
693.658691
 21
263.0
 31
0.0
  0
LINE
  5
202
330
1FE
100
AcDbEntity
  8
DN40_営業図
  6
CONTINUOUS
 62
     1
100
AcDbLine
 10
1038.658691
 20
319.906921
 30
0.0
 11
1038.658691
 21
263.0
 31
0.0
  0
LINE
  5
203
330
1FE
100
AcDbEntity
  8
DN40_営業図
  6
CONTINUOUS
 62
     1
100
AcDbLine
 10
699.658691
 20
266.0
 30
0.0
 11
1032.658691
 21
266.0
 31
0.0
  0
INSERT
  5
204
330
1FE
100
AcDbEntity
  8
DN40_営業図
 62
     1
100
AcDbBlockReference
  2
EX_BNORM
 10
693.658691
 20
266.0
 30
0.0
 41
6.0
 42
6.0
 43
6.0
 50
180.0
  0
INSERT
  5
205
330
1FE
100
AcDbEntity
  8
DN40_営業図
 62
     1
100
AcDbBlockReference
  2
EX_BNORM
 10
1038.658691
 20
266.0
 30
0.0
 41
6.0
 42
6.0
 43
6.0
  0
MTEXT
  5
206
330
1FE
100
AcDbEntity
  8
DN40_営業図
 62
     1
100
AcDbMText
 10
866.1586910000001
 20
271.0
 30
0.0
 40
6.2362208
 41
0.0
 71
     5
 72
     1
  1
345
  7
EXCADDIM1
  0
POINT
  5
207
330
1FE
100
AcDbEntity
  8
DEFPOINTS
 62
     0
100
AcDbPoint
 10
693.658691
 20
322.906921
 30
0.0
  0
POINT
  5
208
330
1FE
100
AcDbEntity
  8
DEFPOINTS
 62
     0
100
AcDbPoint
 10
1038.658691
 20
322.906921
 30
0.0
  0
POINT
  5
209
330
1FE
100
AcDbEntity
  8
DEFPOINTS
 62
     0
100
AcDbPoint
 10
1038.658691
 20
266.0
 30
0.0
  0
ENDBLK
  5
200
330
1FE
100
AcDbEntity
  8
0
100
AcDbBlockEnd
  0
ENDSEC
  0
SECTION
  2
ENTITIES
  0
LINE
  5
D3
330
1F
100
AcDbEntity
  8
DN40_営業図
  6
EXLTYPE2
 62
     1
100
AcDbLine
 10
684.108948
 20
495.406921
 30
0.0
 11
1049.239807
 21
495.406921
 31
0.0
  0
LINE
  5
D4
330
1F
100
AcDbEntity
  8
DN40_営業図
  6
EXLTYPE2
 62
     1
100
AcDbLine
 10
866.158691
 20
679.844177
 30
0.0
 11
866.158691
 21
307.777252
 31
0.0
  0
LINE
  5
D5
330
1F
100
AcDbEntity
  8
DN40_営業図
  6
EXLTYPE0
 62
     2
100
AcDbLine
 10
856.658691
 20
632.578369
 30
0.0
 11
856.658691
 21
662.906921
 31
0.0
  0
LINE
  5
D6
330
1F
100
AcDbEntity
  8
DN40_営業図
  6
EXLTYPE0
 62
     2
100
AcDbLine
 10
875.658691
 20
632.578369
 30
0.0
 11
875.658691
 21
662.906921
 31
0.0
  0
LINE
  5
D7
330
1F
100
AcDbEntity
  8
DN40_営業図
  6
EXLTYPE0
 62
     2
100
AcDbLine
 10
856.658691
 20
662.906921
 30
0.0
 11
875.658691
 21
662.906921
 31
0.0
  0
LINE
  5
D8
330
1F
100
AcDbEntity
  8
DN40_営業図
  6
EXLTYPE0
 62
     2
100
AcDbLine
 10
728.987305
 20
485.906921
 30
0.0
 11
698.658752
 21
485.906921
 31
0.0
  0
LINE
  5
D9
330
1F
100
AcDbEntity
  8
DN40_営業図
  6
EXLTYPE0
 62
     2
100
AcDbLine
 10
728.987244
 20
504.906921
 30
0.0
 11
698.658691
 21
504.906921
 31
0.0
  0
LINE
  5
DA
330
1F
100
AcDbEntity
  8
DN40_営業図
  6
EXLTYPE0
 62
     2
100
AcDbLine
 10
698.658752
 20
485.906921
 30
0.0
 11
698.658691
 21
504.906921
 31
0.0
  0
LINE
  5
DB
330
1F
100
AcDbEntity
  8
DN40_営業図
  6
EXLTYPE0
 62
     2
100
AcDbLine
 10
875.658691
 20
358.235504
 30
0.0
 11
875.658691
 21
327.906952
 31
0.0
  0
LINE
  5
DC
330
1F
100
AcDbEntity
  8
DN40_営業図
  6
EXLTYPE0
 62
     2
100
AcDbLine
 10
856.658691
 20
358.235504
 30
0.0
 11
856.658691
 21
327.906952
 31
0.0
  0
LINE
  5
DD
330
1F
100
AcDbEntity
  8
DN40_営業図
  6
EXLTYPE0
 62
     2
100
AcDbLine
 10
875.658691
 20
327.906952
 30
0.0
 11
856.658691
 21
327.906952
 31
0.0
  0
LINE
  5
DE
330
1F
100
AcDbEntity
  8
DN40_営業図
  6
EXLTYPE0
 62
     2
100
AcDbLine
 10
1003.330078
 20
504.906921
 30
0.0
 11
1033.65863
 21
504.906921
 31
0.0
  0
LINE
  5
DF
330
1F
100
AcDbEntity
  8
DN40_営業図
  6
EXLTYPE0
 62
     2
100
AcDbLine
 10
1003.330139
 20
485.906921
 30
0.0
 11
1033.658691
 21
485.906921
 31
0.0
  0
LINE
  5
E0
330
1F
100
AcDbEntity
  8
DN40_営業図
  6
EXLTYPE0
 62
     2
100
AcDbLine
 10
1033.65863
 20
504.906921
 30
0.0
 11
1033.658691
 21
485.906921
 31
0.0
  0
ARC
  5
E1
330
1F
100
AcDbEntity
  8
DN40_営業図
  6
EXLTYPE0
 62
     2
100
AcDbCircle
 10
866.158691
 20
495.406921
 30
0.0
 40
159.25
100
AcDbArc
 50
273.4199862030006
 51
356.5799973208004
  0
ARC
  5
E2
330
1F
100
AcDbEntity
  8
DN40_営業図
  6
EXLTYPE0
 62
     2
100
AcDbCircle
 10
866.158691
 20
495.406921
 30
0.0
 40
159.25
100
AcDbArc
 50
183.420004927
 51
266.5800160447002
  0
CIRCLE
  5
E3
330
1F
100
AcDbEntity
  8
DN40_営業図
  6
EXLTYPE0
 62
     2
100
AcDbCircle
 10
866.158752
 20
495.406952
 30
0.0
 40
137.499893
  0
CIRCLE
  5
E4
330
1F
100
AcDbEntity
  8
DN40_営業図
  6
EXLTYPE0
 62
     2
100
AcDbCircle
 10
866.158752
 20
495.406952
 30
0.0
 40
154.0
  0
LINE
  5
E5
330
1F
100
AcDbEntity
  8
DN40_営業図
  6
EXLTYPE2
 62
     1
100
AcDbLine
 10
708.821838
 20
586.245422
 30
0.0
 11
866.158813
 21
495.406921
 31
0.0
  0
LINE
  5
E6
330
1F
100
AcDbEntity
  8
DN40_営業図
  6
EXLTYPE0
 62
     2
100
AcDbLine
 10
740.179993
 20
555.917847
 30
0.0
 11
750.76532
 21
574.252258
 31
0.0
  0
LINE
  5
E7
330
1F
100
AcDbEntity
  8
DN40_営業図
  6
EXLTYPE0
 62
     2
100
AcDbLine
 10
731.519714
 20
560.917847
 30
0.0
 11
742.105102
 21
579.252319
 31
0.0
  0
LINE
  5
E8
330
1F
100
AcDbEntity
  8
DN40_営業図
  6
EXLTYPE0
 62
     2
100
AcDbLine
 10
750.76532
 20
574.252258
 30
0.0
 11
742.105102
 21
579.252319
 31
0.0
  0
LINE
  5
E9
330
1F
100
AcDbEntity
  8
DN40_営業図
  6
EXLTYPE0
 62
     2
100
AcDbLine
 10
740.179993
 20
555.917847
 30
0.0
 11
731.519714
 21
560.917847
 31
0.0
  0
LINE
  5
EA
330
1F
100
AcDbEntity
  8
DN40_営業図
  6
EXLTYPE0
 62
     2
100
AcDbLine
 10
740.178406
 20
577.915161
 30
0.0
 11
731.714355
 21
563.254944
 31
0.0
  0
LINE
  5
EB
330
1F
100
AcDbEntity
  8
DN40_営業図
  6
EXLTYPE0
 62
     2
100
AcDbLine
 10
717.66333
 20
568.917847
 30
0.0
 11
728.248657
 21
587.252258
 31
0.0
  0
LINE
  5
EC
330
1F
100
AcDbEntity
  8
DN40_営業図
  6
EXLTYPE0
 62
     2
100
AcDbLine
 10
739.401916
 20
580.812927
 30
0.0
 11
728.248657
 21
587.252258
 31
0.0
  0
LINE
  5
ED
330
1F
100
AcDbEntity
  8
DN40_営業図
  6
EXLTYPE0
 62
     2
100
AcDbLine
 10
728.81665
 20
562.478516
 30
0.0
 11
717.66333
 21
568.917847
 31
0.0
  0
LINE
  5
EE
330
1F
100
AcDbEntity
  8
DN40_営業図
  6
EXLTYPE0
 62
     2
100
AcDbLine
 10
739.45874
 20
574.66864
 30
0.0
 11
748.119018
 21
569.66864
 31
0.0
  0
LINE
  5
EF
330
1F
100
AcDbEntity
  8
DN40_営業図
  6
EXLTYPE0
 62
     2
100
AcDbLine
 10
738.592712
 20
575.168701
 30
0.0
 11
725.602356
 21
582.66864
 31
0.0
  0
LINE
  5
F0
330
1F
100
AcDbEntity
  8
DN40_営業図
  6
EXLTYPE0
 62
     2
100
AcDbLine
 10
734.166015
 20
565.501404
 30
0.0
 11
742.826294
 21
560.501404
 31
0.0
  0
LINE
  5
F1
330
1F
100
AcDbEntity
  8
DN40_営業図
  6
EXLTYPE0
 62
     2
100
AcDbLine
 10
733.299988
 20
566.001404
 30
0.0
 11
720.309631
 21
573.501404
 31
0.0
  0
LINE
  5
F2
330
1F
100
AcDbEntity
  8
DN40_営業図
  6
EXLTYPE0
 62
     2
100
AcDbLine
 10
728.81665
 20
562.478516
 30
0.0
 11
731.714355
 21
563.254944
 31
0.0
  0
LINE
  5
F3
330
1F
100
AcDbEntity
  8
DN40_営業図
  6
EXLTYPE0
 62
     2
100
AcDbLine
 10
739.401916
 20
580.812927
 30
0.0
 11
740.178406
 21
577.915161
 31
0.0
  0
LINE
  5
F4
330
1F
100
AcDbEntity
  8
DN40_営業図
  6
EXLTYPE0
 62
     2
100
AcDbLine
 10
740.178406
 20
577.915161
 30
0.0
 11
741.044433
 21
577.415161
 31
0.0
  0
LINE
  5
F5
330
1F
100
AcDbEntity
  8
DN40_営業図
  6
EXLTYPE0
 62
     2
100
AcDbLine
 10
731.714355
 20
563.254944
 30
0.0
 11
732.580383
 21
562.754944
 31
0.0
  0
LINE
  5
F6
330
1F
100
AcDbEntity
  8
DN40_営業図
  6
EXLTYPE0
 62
     2
100
AcDbLine
 10
743.05249
 20
556.652893
 30
0.0
 11
741.179382
 21
557.648865
 31
0.0
  0
LINE
  5
F7
330
1F
100
AcDbEntity
  8
DN40_営業図
  6
EXLTYPE0
 62
     2
100
AcDbLine
 10
743.410828
 20
557.36792
 30
0.0
 11
741.554809
 21
558.354858
 31
0.0
  0
LINE
  5
F8
330
1F
100
AcDbEntity
  8
DN40_営業図
  6
EXLTYPE0
 62
     2
100
AcDbLine
 10
751.125
 20
570.729309
 30
0.0
 11
749.342285
 21
571.843262
 31
0.0
  0
LINE
  5
F9
330
1F
100
AcDbEntity
  8
DN40_営業図
  6
EXLTYPE0
 62
     2
100
AcDbLine
 10
751.565002
 20
571.397095
 30
0.0
 11
749.765991
 21
572.521301
 31
0.0
  0
ARC
  5
FA
330
1F
100
AcDbEntity
  8
DN40_営業図
  6
EXLTYPE0
 62
     2
100
AcDbCircle
 10
866.158691
 20
495.406921
 30
0.0
 40
159.25
100
AcDbArc
 50
93.41996635516996
 51
146.1887490331
  0
ARC
  5
FB
330
1F
100
AcDbEntity
  8
DN40_営業図
  6
EXLTYPE0
 62
     2
100
AcDbCircle
 10
866.158691
 20
495.406921
 30
0.0
 40
159.25
100
AcDbArc
 50
153.8112649480001
 51
176.5800347687001
  0
LINE
  5
FC
330
1F
100
AcDbEntity
  8
DN40_営業図
  6
EXLTYPE2
 62
     1
100
AcDbLine
 10
1023.32312
 20
586.145813
 30
0.0
 11
866.158752
 21
495.406891
 31
0.0
  0
LINE
  5
FD
330
1F
100
AcDbEntity
  8
DN40_営業図
  6
EXLTYPE0
 62
     2
100
AcDbLine
 10
992.137573
 20
555.917969
 30
0.0
 11
981.552185
 21
574.25238
 31
0.0
  0
LINE
  5
FE
330
1F
100
AcDbEntity
  8
DN40_営業図
  6
EXLTYPE0
 62
     2
100
AcDbLine
 10
1000.797851
 20
560.917969
 30
0.0
 11
990.212463
 21
579.252441
 31
0.0
  0
LINE
  5
FF
330
1F
100
AcDbEntity
  8
DN40_営業図
  6
EXLTYPE0
 62
     2
100
AcDbLine
 10
981.552185
 20
574.25238
 30
0.0
 11
990.212463
 21
579.252441
 31
0.0
  0
LINE
  5
100
330
1F
100
AcDbEntity
  8
DN40_営業図
  6
EXLTYPE0
 62
     2
100
AcDbLine
 10
992.137573
 20
555.917969
 30
0.0
 11
1000.797851
 21
560.917969
 31
0.0
  0
LINE
  5
101
330
1F
100
AcDbEntity
  8
DN40_営業図
  6
EXLTYPE0
 62
     2
100
AcDbLine
 10
992.858826
 20
574.668762
 30
0.0
 11
984.198547
 21
569.668762
 31
0.0
  0
LINE
  5
102
330
1F
100
AcDbEntity
  8
DN40_営業図
  6
EXLTYPE0
 62
     2
100
AcDbLine
 10
998.15155
 20
565.501526
 30
0.0
 11
989.491272
 21
560.501526
 31
0.0
  0
LINE
  5
103
330
1F
100
AcDbEntity
  8
DN40_営業図
  6
EXLTYPE0
 62
     2
100
AcDbLine
 10
980.752502
 20
571.397156
 30
0.0
 11
982.551575
 21
572.521423
 31
0.0
  0
LINE
  5
104
330
1F
100
AcDbEntity
  8
DN40_営業図
  6
EXLTYPE0
 62
     2
100
AcDbLine
 10
981.192505
 20
570.72937
 30
0.0
 11
982.975281
 21
571.843323
 31
0.0
  0
LINE
  5
105
330
1F
100
AcDbEntity
  8
DN40_営業図
  6
EXLTYPE0
 62
     2
100
AcDbLine
 10
989.265076
 20
556.653015
 30
0.0
 11
991.138183
 21
557.648987
 31
0.0
  0
LINE
  5
106
330
1F
100
AcDbEntity
  8
DN40_営業図
  6
EXLTYPE0
 62
     2
100
AcDbLine
 10
988.906738
 20
557.368042
 30
0.0
 11
990.762817
 21
558.354919
 31
0.0
  0
ARC
  5
107
330
1F
100
AcDbEntity
  8
DN40_営業図
  6
EXLTYPE0
 62
     2
100
AcDbCircle
 10
866.158691
 20
495.406921
 30
0.0
 40
159.25
100
AcDbArc
 50
3.419985079139837
 51
26.18875489983996
  0
ARC
  5
108
330
1F
100
AcDbEntity
  8
DN40_営業図
  6
EXLTYPE0
 62
     2
100
AcDbCircle
 10
866.158691
 20
495.406921
 30
0.0
 40
159.25
100
AcDbArc
 50
33.81127081469997
 51
86.57999619690003
  0
LEADER
  5
109
330
1F
100
AcDbEntity
  8
DN40_営業図
  6
CONTINUOUS
 62
     1
100
AcDbLeader
  3
ISO-25
 76
     3
 10
713.441772
 20
650.240295
 30
0.0
 10
666.921631
 20
730.815552
 30
0.0
 10
723.6
 20
730.815552
 30
0.0
1001
ACAD
1000
DSTYLE
1002
{
1070
     5
1000
EX_BNORM
1070
    41
1040
6.0
1070
   341
1005
7A
1002
}
  0
TEXT
  5
10A
330
1F
100
AcDbEntity
  8
DN40_営業図
  6
CONTINUOUS
 62
     1
100
AcDbText
 10
667.2
 20
733.1708664
 30
0.0
 40
6.2362208
  1
８－φ２５
 41
0.8888888421997786
  7
EXCADSTD
 72
     5
 11
705.9200000000001
 21
733.1708664
 31
0.0
100
AcDbText
  0
TEXT
  5
10B
330
1F
100
AcDbEntity
  8
DN40_営業図
  6
CONTINUOUS
 62
     1
100
AcDbText
 10
709.45769
 20
733.1708664
 30
0.0
 40
6.2362208
  1
キリ
 41
0.8020400667425189
  7
EXCADSTD
 72
     5
 11
724.17769
 21
733.1708664
 31
0.0
100
AcDbText
  0
LINE
  5
10C
330
1F
100
AcDbEntity
  8
DN40_営業図
  6
EXLTYPE2
 62
     1
100
AcDbLine
 10
333.894409
 20
147.478332
 30
0.0
 11
333.894409
 21
696.0
 31
0.0
  0
LINE
  5
10D
330
1F
100
AcDbEntity
  8
DN40_営業図
  6
EXLTYPE2
 62
     1
100
AcDbLine
 10
183.040283
 20
526.148315
 30
0.0
 11
154.202453
 21
526.148315
 31
0.0
  0
LINE
  5
10E
330
1F
100
AcDbEntity
  8
DN40_営業図
  6
EXLTYPE2
 62
     1
100
AcDbLine
 10
480.716583
 20
526.148315
 30
0.0
 11
513.586395
 21
526.148315
 31
0.0
  0
DIMENSION
  5
110
330
1F
100
AcDbEntity
  8
DN40_営業図
  6
CONTINUOUS
 62
     1
100
AcDbDimension
  2
*D15
 10
581.233398
 20
166.148315
 30
0.0
 11
576.233398
 21
423.648315
 31
0.0
 70
   160
  1
485
 53
90.00000000000004
  3
ISO-25
100
AcDbAlignedDimension
 13
506.394379
 23
681.148315
 33
0.0
 14
506.39444
 24
166.148315
 34
0.0
 50
90.0
100
AcDbRotatedDimension
1001
ACAD
1000
DSTYLE
1002
{
1070
   270
1070
     2
1070
     6
1000
EX_BNORM
1070
     7
1000
EX_BNORM
1070
    41
1040
6.0
1070
    42
1040
3.0
1070
    44
1040
3.0
1070
    73
1070
     0
1070
    74
1070
     0
1070
    75
1070
     0
1070
    76
1070
     0
1070
    77
1070
     1
1070
    78
1070
     0
1070
   140
1040
6.2362208
1070
   147
1040
0.0
1070
   173
1070
     1
1070
   176
1070
     1
1070
   177
1070
     1
1070
   178
1070
     1
1070
   271
1070
     0
1070
   277
1070
     2
1070
   279
1070
     2
1070
   280
1070
     0
1070
   287
1070
     5
1070
   340
1005
10F
1002
}
  0
DIMENSION
  5
11E
330
1F
100
AcDbEntity
  8
DN40_営業図
  6
CONTINUOUS
 62
     1
100
AcDbDimension
  2
*D16
 10
543.511871
 20
656.148315
 30
0.0
 11
538.511871
 21
668.648315
 31
0.0
 70
   160
 53
90.00000000000004
  3
ISO-25
100
AcDbAlignedDimension
 13
506.394379
 23
681.148315
 33
0.0
 14
506.394379
 24
656.148315
 34
0.0
 50
90.0
100
AcDbRotatedDimension
1001
ACAD
1000
DSTYLE
1002
{
1070
   270
1070
     2
1070
     6
1000
EX_BNORM
1070
     7
1000
EX_BNORM
1070
    41
1040
6.0
1070
    42
1040
3.0
1070
    44
1040
3.0
1070
    73
1070
     0
1070
    74
1070
     0
1070
    75
1070
     0
1070
    76
1070
     0
1070
    77
1070
     1
1070
    78
1070
     0
1070
   140
1040
6.2362208
1070
   147
1040
0.0
1070
   173
1070
     1
1070
   176
1070
     1
1070
   177
1070
     1
1070
   178
1070
     1
1070
   271
1070
     0
1070
   277
1070
     2
1070
   279
1070
     2
1070
   280
1070
     0
1070
   287
1070
     5
1070
   340
1005
10F
1002
}
  0
DIMENSION
  5
12B
330
1F
100
AcDbEntity
  8
DN40_営業図
  6
CONTINUOUS
 62
     1
100
AcDbDimension
  2
*D17
 10
543.511871
 20
166.148315
 30
0.0
 11
538.511871
 21
178.648315
 31
0.0
 70
   160
 53
90.00000000000004
  3
ISO-25
100
AcDbAlignedDimension
 13
506.394379
 23
191.148315
 33
0.0
 14
506.394379
 24
166.148315
 34
0.0
 50
90.0
100
AcDbRotatedDimension
1001
ACAD
1000
DSTYLE
1002
{
1070
   270
1070
     2
1070
     6
1000
EX_BNORM
1070
     7
1000
EX_BNORM
1070
    41
1040
6.0
1070
    42
1040
3.0
1070
    44
1040
3.0
1070
    73
1070
     0
1070
    74
1070
     0
1070
    75
1070
     0
1070
    76
1070
     0
1070
    77
1070
     1
1070
    78
1070
     0
1070
   140
1040
6.2362208
1070
   147
1040
0.0
1070
   173
1070
     1
1070
   176
1070
     1
1070
   177
1070
     1
1070
   178
1070
     1
1070
   271
1070
     0
1070
   277
1070
     2
1070
   279
1070
     2
1070
   280
1070
     0
1070
   287
1070
     5
1070
   340
1005
10F
1002
}
  0
LINE
  5
138
330
1F
100
AcDbEntity
  8
DN40_営業図
  6
CONTINUOUS
 62
     1
100
AcDbLine
 10
196.394379
 20
628.870056
 30
0.0
 11
194.510254
 21
628.935852
 31
0.0
  0
LINE
  5
139
330
1F
100
AcDbEntity
  8
DN40_営業図
  6
CONTINUOUS
 62
     1
100
AcDbLine
 10
196.394379
 20
613.426575
 30
0.0
 11
194.510254
 21
613.360779
 31
0.0
  0
LINE
  5
13A
330
1F
100
AcDbEntity
  8
DN40_営業図
  6
CONTINUOUS
 62
     1
100
AcDbLine
 10
471.394409
 20
628.870056
 30
0.0
 11
473.278564
 21
628.935852
 31
0.0
  0
LINE
  5
13B
330
1F
100
AcDbEntity
  8
DN40_営業図
  6
CONTINUOUS
 62
     1
100
AcDbLine
 10
471.394409
 20
613.426575
 30
0.0
 11
473.278564
 21
613.360779
 31
0.0
  0
LINE
  5
13C
330
1F
100
AcDbEntity
  8
DN40_営業図
  6
EXLTYPE2
 62
     1
100
AcDbLine
 10
465.044403
 20
621.148315
 30
0.0
 11
504.467682
 21
621.148315
 31
0.0
  0
LINE
  5
13D
330
1F
100
AcDbEntity
  8
DN40_営業図
  6
EXLTYPE2
 62
     1
100
AcDbLine
 10
161.394409
 20
621.148315
 30
0.0
 11
202.744415
 21
621.148315
 31
0.0
  0
LINE
  5
13E
330
1F
100
AcDbEntity
  8
DN40_営業図
  6
CONTINUOUS
 62
     1
100
AcDbLine
 10
466.394379
 20
576.148315
 30
0.0
 11
466.394379
 21
586.148254
 31
0.0
  0
LINE
  5
13F
330
1F
100
AcDbEntity
  8
DN40_営業図
  6
CONTINUOUS
 62
     1
100
AcDbLine
 10
201.394379
 20
576.148315
 30
0.0
 11
201.394379
 21
586.148254
 31
0.0
  0
LINE
  5
140
330
1F
100
AcDbEntity
  8
DN40_営業図
  6
EXLTYPE2
 62
     1
100
AcDbLine
 10
350.399933
 20
526.148315
 30
0.0
 11
316.736999
 21
526.148315
 31
0.0
  0
LINE
  5
141
330
1F
100
AcDbEntity
  8
DN40_営業図
  6
CONTINUOUS
 62
     1
100
AcDbLine
 10
201.394379
 20
461.148285
 30
0.0
 11
201.394379
 21
476.148285
 31
0.0
  0
LINE
  5
142
330
1F
100
AcDbEntity
  8
DN40_営業図
  6
CONTINUOUS
 62
     1
100
AcDbLine
 10
466.394379
 20
461.148285
 30
0.0
 11
466.394379
 21
476.148285
 31
0.0
  0
TEXT
  5
143
330
1F
100
AcDbEntity
  8
DN40_営業図
  6
CONTINUOUS
 62
     1
100
AcDbText
 10
578.2672686000001
 20
442.4006653499537
 30
0.0
 40
6.2362208
  1
ストローク１５０
 50
89.99998127603004
 41
0.9361792059115398
  7
EXCADSTD
 72
     5
 11
578.2672890965778
 21
505.1206653499504
 31
0.0
100
AcDbText
  0
TEXT
  5
144
330
1F
100
AcDbEntity
  8
DN40_営業図
  6
CONTINUOUS
 62
     1
100
AcDbText
 10
76.4
 20
720.0062996
 30
0.0
 40
9.3543312
  1
加圧側
 41
0.7044145653268822
  7
EXCADSTD
 72
     5
 11
110.48
 21
720.0062996
 31
0.0
100
AcDbText
  0
TEXT
  5
145
330
1F
100
AcDbEntity
  8
DN40_営業図
  6
CONTINUOUS
 62
     1
100
AcDbText
 10
554.9
 20
719.7062996000001
 30
0.0
 40
9.3543312
  1
戻り側
 41
0.7695885365168228
  7
EXCADSTD
 72
     5
 11
588.98
 21
719.7062996000001
 31
0.0
100
AcDbText
  0
TEXT
  5
146
330
1F
100
AcDbEntity
  8
DN40_営業図
  6
CONTINUOUS
 62
     1
100
AcDbText
 10
602.9634787291001
 20
531.9158039192
 30
0.0
 40
9.3543312
  1
加圧側
 41
0.7044145653268831
  7
EXCADSTD
 72
     5
 11
637.0434787291001
 21
531.9158039192
 31
0.0
100
AcDbText
  0
TEXT
  5
147
330
1F
100
AcDbEntity
  8
DN40_営業図
  6
CONTINUOUS
 62
     1
100
AcDbText
 10
1099.4
 20
529.7296685682
 30
0.0
 40
9.3543312
  1
戻り側
 41
0.7695885365168202
  7
EXCADSTD
 72
     5
 11
1133.48
 21
529.7296685682
 31
0.0
100
AcDbText
  0
DIMENSION
  5
148
330
1F
100
AcDbEntity
  8
DN40_営業図
  6
CONTINUOUS
 62
     1
100
AcDbDimension
  2
*D18
 10
787.1989272079379
 20
524.1459322744948
 30
0.0
 11
780.1649935657988
 21
518.4488686177771
 31
0.0
 70
   165
  3
ISO-25
100
AcDb3PointAngularDimension
 13
793.3889821509
 23
537.4205442804
 33
0.0
 14
782.1314628705001
 24
495.406921
 34
0.0
 15
866.158691
 25
495.406921
 35
0.0
1001
ACAD
1000
DSTYLE
1002
{
1070
   270
1070
     2
1070
     6
1000
EX_BNORM
1070
     7
1000
EX_BNORM
1070
    41
1040
6.0
1070
    42
1040
0.0
1070
    44
1040
0.0
1070
    73
1070
     0
1070
    74
1070
     0
1070
    75
1070
     1
1070
    76
1070
     1
1070
    77
1070
     1
1070
    78
1070
     0
1070
    79
1070
     0
1070
   140
1040
6.2362208
1070
   147
1040
0.0
1070
   173
1070
     1
1070
   176
1070
     1
1070
   177
1070
     1
1070
   178
1070
     1
1070
   179
1070
     0
1070
   271
1070
     0
1070
   277
1070
     2
1070
   279
1070
     2
1070
   280
1070
     0
1070
   287
1070
     5
1070
   340
1005
10F
1002
}
  0
DIMENSION
  5
154
330
1F
100
AcDbEntity
  8
DN40_営業図
  6
CONTINUOUS
 62
     1
100
AcDbDimension
  2
*D19
 10
948.9093561101487
 20
509.9980995323115
 30
0.0
 11
952.1523884341834
 21
518.4488686177723
 31
0.0
 70
   165
  3
ISO-25
100
AcDb3PointAngularDimension
 13
950.1859191295
 23
495.406921
 33
0.0
 14
938.9283998491001
 24
537.4205442804
 34
0.0
 15
866.158691
 25
495.406921
 35
0.0
1001
ACAD
1000
DSTYLE
1002
{
1070
   270
1070
     2
1070
     6
1000
EX_BNORM
1070
     7
1000
EX_BNORM
1070
    41
1040
6.0
1070
    42
1040
0.0
1070
    44
1040
0.0
1070
    73
1070
     0
1070
    74
1070
     0
1070
    75
1070
     1
1070
    76
1070
     1
1070
    77
1070
     1
1070
    78
1070
     0
1070
    79
1070
     0
1070
   140
1040
6.2362208
1070
   147
1040
0.0
1070
   173
1070
     1
1070
   176
1070
     1
1070
   177
1070
     1
1070
   178
1070
     1
1070
   179
1070
     0
1070
   271
1070
     0
1070
   277
1070
     2
1070
   279
1070
     2
1070
   280
1070
     0
1070
   287
1070
     5
1070
   340
1005
10F
1002
}
  0
DIMENSION
  5
160
330
1F
100
AcDbEntity
  8
DN40_営業図
  6
CONTINUOUS
 62
     1
100
AcDbDimension
  2
*D20
 10
653.9
 20
350.406921
 30
0.0
 11
648.9
 21
336.656921
 31
0.0
 70
   160
  1
27.5
  3
ISO-25
100
AcDbAlignedDimension
 13
693.658691
 23
322.906921
 33
0.0
 14
684.108948
 24
350.406921
 34
0.0
 50
90.0
100
AcDbRotatedDimension
1001
ACAD
1000
DSTYLE
1002
{
1070
   270
1070
     2
1070
     6
1000
EX_BNORM
1070
     7
1000
EX_BNORM
1070
    41
1040
6.0
1070
    42
1040
3.0
1070
    44
1040
3.0
1070
    73
1070
     0
1070
    74
1070
     0
1070
    75
1070
     0
1070
    76
1070
     0
1070
    77
1070
     1
1070
    78
1070
     0
1070
   140
1040
6.2362208
1070
   147
1040
0.0
1070
   173
1070
     1
1070
   176
1070
     1
1070
   177
1070
     1
1070
   178
1070
     1
1070
   271
1070
     0
1070
   277
1070
     2
1070
   279
1070
     2
1070
   280
1070
     0
1070
   287
1070
     5
1070
   340
1005
10F
1002
}
  0
DIMENSION
  5
16D
330
1F
100
AcDbEntity
  8
DN40_営業図
  6
CONTINUOUS
 62
     1
100
AcDbDimension
  2
*D21
 10
653.9
 20
640.406921
 30
0.0
 11
648.9
 21
495.406921
 31
0.0
 70
   160
  3
ISO-25
100
AcDbAlignedDimension
 13
684.108948
 23
350.406921
 33
0.0
 14
684.108948
 24
640.406921
 34
0.0
 50
90.0
100
AcDbRotatedDimension
1001
ACAD
1000
DSTYLE
1002
{
1070
   270
1070
     2
1070
     6
1000
EX_BNORM
1070
     7
1000
EX_BNORM
1070
    41
1040
6.0
1070
    42
1040
3.0
1070
    44
1040
3.0
1070
    73
1070
     0
1070
    74
1070
     0
1070
    75
1070
     1
1070
    76
1070
     0
1070
    77
1070
     1
1070
    78
1070
     0
1070
   140
1040
6.2362208
1070
   147
1040
0.0
1070
   173
1070
     1
1070
   176
1070
     1
1070
   177
1070
     1
1070
   178
1070
     1
1070
   271
1070
     0
1070
   277
1070
     2
1070
   279
1070
     2
1070
   280
1070
     0
1070
   287
1070
     5
1070
   340
1005
10F
1002
}
  0
DIMENSION
  5
179
330
1F
100
AcDbEntity
  8
DN40_営業図
  6
CONTINUOUS
 62
     1
100
AcDbDimension
  2
*D22
 10
653.9
 20
667.906921
 30
0.0
 11
648.9
 21
654.156921
 31
0.0
 70
   160
  1
27.5
  3
ISO-25
100
AcDbAlignedDimension
 13
684.108948
 23
640.406921
 33
0.0
 14
693.658691
 24
667.906921
 34
0.0
 50
90.0
100
AcDbRotatedDimension
1001
ACAD
1000
DSTYLE
1002
{
1070
   270
1070
     2
1070
     6
1000
EX_BNORM
1070
     7
1000
EX_BNORM
1070
    41
1040
6.0
1070
    42
1040
3.0
1070
    44
1040
3.0
1070
    73
1070
     0
1070
    74
1070
     0
1070
    75
1070
     1
1070
    76
1070
     0
1070
    77
1070
     1
1070
    78
1070
     0
1070
   140
1040
6.2362208
1070
   147
1040
0.0
1070
   173
1070
     1
1070
   176
1070
     1
1070
   177
1070
     1
1070
   178
1070
     1
1070
   271
1070
     0
1070
   277
1070
     2
1070
   279
1070
     2
1070
   280
1070
     0
1070
   287
1070
     5
1070
   340
1005
10F
1002
}
  0
DIMENSION
  5
185
330
1F
100
AcDbEntity
  8
DN40_営業図
  6
CONTINUOUS
 62
     1
100
AcDbDimension
  2
*D23
 10
1069.9
 20
370.406921
 30
0.0
 11
1064.9
 21
346.656921
 31
0.0
 70
   160
  1
47.5
  3
ISO-25
100
AcDbAlignedDimension
 13
1038.658691
 23
322.906921
 33
0.0
 14
1008.998047
 24
370.406921
 34
0.0
 50
90.0
100
AcDbRotatedDimension
1001
ACAD
1000
DSTYLE
1002
{
1070
   270
1070
     2
1070
     6
1000
EX_BNORM
1070
     7
1000
EX_BNORM
1070
    41
1040
6.0
1070
    42
1040
0.0
1070
    44
1040
0.0
1070
    73
1070
     0
1070
    74
1070
     0
1070
    75
1070
     1
1070
    76
1070
     1
1070
    77
1070
     1
1070
    78
1070
     0
1070
   140
1040
6.2362208
1070
   147
1040
0.0
1070
   173
1070
     1
1070
   176
1070
     1
1070
   177
1070
     1
1070
   178
1070
     1
1070
   271
1070
     0
1070
   277
1070
     2
1070
   279
1070
     2
1070
   280
1070
     0
1070
   287
1070
     5
1070
   340
1005
10F
1002
}
  0
DIMENSION
  5
190
330
1F
100
AcDbEntity
  8
DN40_営業図
  6
CONTINUOUS
 62
     1
100
AcDbDimension
  2
*D24
 10
1069.9
 20
620.406921
 30
0.0
 11
1064.9
 21
495.406921
 31
0.0
 70
   160
  3
ISO-25
100
AcDbAlignedDimension
 13
1008.998047
 23
370.406921
 33
0.0
 14
1008.998047
 24
620.406921
 34
0.0
 50
90.0
100
AcDbRotatedDimension
1001
ACAD
1000
DSTYLE
1002
{
1070
   270
1070
     2
1070
     6
1000
EX_BNORM
1070
     7
1000
EX_BNORM
1070
    41
1040
6.0
1070
    42
1040
3.0
1070
    44
1040
3.0
1070
    73
1070
     0
1070
    74
1070
     0
1070
    75
1070
     0
1070
    76
1070
     1
1070
    77
1070
     1
1070
    78
1070
     0
1070
   140
1040
6.2362208
1070
   147
1040
0.0
1070
   173
1070
     1
1070
   176
1070
     1
1070
   177
1070
     1
1070
   178
1070
     1
1070
   271
1070
     0
1070
   277
1070
     2
1070
   279
1070
     2
1070
   280
1070
     0
1070
   287
1070
     5
1070
   340
1005
10F
1002
}
  0
DIMENSION
  5
19C
330
1F
100
AcDbEntity
  8
DN40_営業図
  6
CONTINUOUS
 62
     1
100
AcDbDimension
  2
*D25
 10
1069.9
 20
667.906921
 30
0.0
 11
1064.9
 21
644.156921
 31
0.0
 70
   160
  1
47.5
  3
ISO-25
100
AcDbAlignedDimension
 13
1008.998047
 23
620.406921
 33
0.0
 14
1038.658691
 24
667.906921
 34
0.0
 50
90.0
100
AcDbRotatedDimension
1001
ACAD
1000
DSTYLE
1002
{
1070
   270
1070
     2
1070
     6
1000
EX_BNORM
1070
     7
1000
EX_BNORM
1070
    41
1040
6.0
1070
    42
1040
3.0
1070
    44
1040
3.0
1070
    73
1070
     0
1070
    74
1070
     0
1070
    75
1070
     0
1070
    76
1070
     1
1070
    77
1070
     1
1070
    78
1070
     0
1070
   140
1040
6.2362208
1070
   147
1040
0.0
1070
   173
1070
     1
1070
   176
1070
     1
1070
   177
1070
     1
1070
   178
1070
     1
1070
   271
1070
     0
1070
   277
1070
     2
1070
   279
1070
     2
1070
   280
1070
     0
1070
   287
1070
     5
1070
   340
1005
10F
1002
}
  0
DIMENSION
  5
1A8
330
1F
100
AcDbEntity
  8
DN40_営業図
  6
CONTINUOUS
 62
     1
100
AcDbDimension
  2
*D26
 10
1089.9
 20
667.906921
 30
0.0
 11
1084.9
 21
495.406921
 31
0.0
 70
   160
  3
ISO-25
100
AcDbAlignedDimension
 13
1038.658691
 23
322.906921
 33
0.0
 14
1038.658691
 24
667.906921
 34
0.0
 50
90.0
100
AcDbRotatedDimension
1001
ACAD
1000
DSTYLE
1002
{
1070
   270
1070
     2
1070
     6
1000
EX_BNORM
1070
     7
1000
EX_BNORM
1070
    41
1040
6.0
1070
    42
1040
3.0
1070
    44
1040
3.0
1070
    73
1070
     0
1070
    74
1070
     0
1070
    75
1070
     0
1070
    76
1070
     0
1070
    77
1070
     1
1070
    78
1070
     0
1070
   140
1040
6.2362208
1070
   147
1040
0.0
1070
   173
1070
     1
1070
   176
1070
     1
1070
   177
1070
     1
1070
   178
1070
     1
1070
   271
1070
     0
1070
   277
1070
     2
1070
   279
1070
     2
1070
   280
1070
     0
1070
   287
1070
     5
1070
   340
1005
10F
1002
}
  0
DIMENSION
  5
1B5
330
1F
100
AcDbEntity
  8
DN40_営業図
  6
CONTINUOUS
 62
     1
100
AcDbDimension
  2
*D27
 10
721.158691
 20
702.0
 30
0.0
 11
707.408691
 21
707.0
 31
0.0
 70
   160
  1
27.5
  3
ISO-25
100
AcDbAlignedDimension
 13
693.658691
 23
667.906921
 33
0.0
 14
721.158691
 24
679.844177
 34
0.0
100
AcDbRotatedDimension
1001
ACAD
1000
DSTYLE
1002
{
1070
   270
1070
     2
1070
     6
1000
EX_BNORM
1070
     7
1000
EX_BNORM
1070
    41
1040
6.0
1070
    42
1040
3.0
1070
    44
1040
3.0
1070
    73
1070
     0
1070
    74
1070
     0
1070
    75
1070
     0
1070
    76
1070
     0
1070
    77
1070
     1
1070
    78
1070
     0
1070
   140
1040
6.2362208
1070
   147
1040
0.0
1070
   173
1070
     1
1070
   176
1070
     1
1070
   177
1070
     1
1070
   178
1070
     1
1070
   271
1070
     0
1070
   277
1070
     2
1070
   279
1070
     2
1070
   280
1070
     0
1070
   287
1070
     5
1070
   340
1005
10F
1002
}
  0
DIMENSION
  5
1C2
330
1F
100
AcDbEntity
  8
DN40_営業図
  6
CONTINUOUS
 62
     1
100
AcDbDimension
  2
*D28
 10
1011.158691
 20
702.0
 30
0.0
 11
866.158691
 21
707.0
 31
0.0
 70
   160
  3
ISO-25
100
AcDbAlignedDimension
 13
721.158691
 23
679.844177
 33
0.0
 14
1011.158691
 24
679.844177
 34
0.0
100
AcDbRotatedDimension
1001
ACAD
1000
DSTYLE
1002
{
1070
   270
1070
     2
1070
     6
1000
EX_BNORM
1070
     7
1000
EX_BNORM
1070
    41
1040
6.0
1070
    42
1040
3.0
1070
    44
1040
3.0
1070
    73
1070
     0
1070
    74
1070
     0
1070
    75
1070
     1
1070
    76
1070
     0
1070
    77
1070
     1
1070
    78
1070
     0
1070
   140
1040
6.2362208
1070
   147
1040
0.0
1070
   173
1070
     1
1070
   176
1070
     1
1070
   177
1070
     1
1070
   178
1070
     1
1070
   271
1070
     0
1070
   277
1070
     2
1070
   279
1070
     2
1070
   280
1070
     0
1070
   287
1070
     5
1070
   340
1005
10F
1002
}
  0
DIMENSION
  5
1CE
330
1F
100
AcDbEntity
  8
DN40_営業図
  6
CONTINUOUS
 62
     1
100
AcDbDimension
  2
*D29
 10
1038.658691
 20
702.0
 30
0.0
 11
1024.908691
 21
707.0
 31
0.0
 70
   160
  1
27.5
  3
ISO-25
100
AcDbAlignedDimension
 13
1011.158691
 23
679.844177
 33
0.0
 14
1038.658691
 24
667.906921
 34
0.0
100
AcDbRotatedDimension
1001
ACAD
1000
DSTYLE
1002
{
1070
   270
1070
     2
1070
     6
1000
EX_BNORM
1070
     7
1000
EX_BNORM
1070
    41
1040
6.0
1070
    42
1040
3.0
1070
    44
1040
3.0
1070
    73
1070
     0
1070
    74
1070
     0
1070
    75
1070
     1
1070
    76
1070
     0
1070
    77
1070
     1
1070
    78
1070
     0
1070
   140
1040
6.2362208
1070
   147
1040
0.0
1070
   173
1070
     1
1070
   176
1070
     1
1070
   177
1070
     1
1070
   178
1070
     1
1070
   271
1070
     0
1070
   277
1070
     2
1070
   279
1070
     2
1070
   280
1070
     0
1070
   287
1070
     5
1070
   340
1005
10F
1002
}
  0
DIMENSION
  5
1DA
330
1F
100
AcDbEntity
  8
DN40_営業図
  6
CONTINUOUS
 62
     1
100
AcDbDimension
  2
*D30
 10
741.158691
 20
288.0
 30
0.0
 11
717.408691
 21
293.0
 31
0.0
 70
   160
  1
47.5
  3
ISO-25
100
AcDbAlignedDimension
 13
693.658691
 23
322.906921
 33
0.0
 14
741.158691
 24
349.700623
 34
0.0
100
AcDbRotatedDimension
1001
ACAD
1000
DSTYLE
1002
{
1070
   270
1070
     2
1070
     6
1000
EX_BNORM
1070
     7
1000
EX_BNORM
1070
    41
1040
6.0
1070
    42
1040
0.0
1070
    44
1040
0.0
1070
    73
1070
     0
1070
    74
1070
     0
1070
    75
1070
     1
1070
    76
1070
     1
1070
    77
1070
     1
1070
    78
1070
     0
1070
   140
1040
6.2362208
1070
   147
1040
0.0
1070
   173
1070
     1
1070
   176
1070
     1
1070
   177
1070
     1
1070
   178
1070
     1
1070
   271
1070
     0
1070
   277
1070
     2
1070
   279
1070
     2
1070
   280
1070
     0
1070
   287
1070
     5
1070
   340
1005
10F
1002
}
  0
DIMENSION
  5
1E5
330
1F
100
AcDbEntity
  8
DN40_営業図
  6
CONTINUOUS
 62
     1
100
AcDbDimension
  2
*D31
 10
991.158691
 20
288.0
 30
0.0
 11
866.158691
 21
293.0
 31
0.0
 70
   160
  3
ISO-25
100
AcDbAlignedDimension
 13
741.158691
 23
349.700623
 33
0.0
 14
991.158691
 24
349.700623
 34
0.0
100
AcDbRotatedDimension
1001
ACAD
1000
DSTYLE
1002
{
1070
   270
1070
     2
1070
     6
1000
EX_BNORM
1070
     7
1000
EX_BNORM
1070
    41
1040
6.0
1070
    42
1040
3.0
1070
    44
1040
3.0
1070
    73
1070
     0
1070
    74
1070
     0
1070
    75
1070
     0
1070
    76
1070
     1
1070
    77
1070
     1
1070
    78
1070
     0
1070
   140
1040
6.2362208
1070
   147
1040
0.0
1070
   173
1070
     1
1070
   176
1070
     1
1070
   177
1070
     1
1070
   178
1070
     1
1070
   271
1070
     0
1070
   277
1070
     2
1070
   279
1070
     2
1070
   280
1070
     0
1070
   287
1070
     5
1070
   340
1005
10F
1002
}
  0
DIMENSION
  5
1F1
330
1F
100
AcDbEntity
  8
DN40_営業図
  6
CONTINUOUS
 62
     1
100
AcDbDimension
  2
*D32
 10
1038.658691
 20
288.0
 30
0.0
 11
1014.908691
 21
293.0
 31
0.0
 70
   160
  1
47.5
  3
ISO-25
100
AcDbAlignedDimension
 13
991.158691
 23
349.700623
 33
0.0
 14
1038.658691
 24
322.906921
 34
0.0
100
AcDbRotatedDimension
1001
ACAD
1000
DSTYLE
1002
{
1070
   270
1070
     2
1070
     6
1000
EX_BNORM
1070
     7
1000
EX_BNORM
1070
    41
1040
6.0
1070
    42
1040
3.0
1070
    44
1040
3.0
1070
    73
1070
     0
1070
    74
1070
     0
1070
    75
1070
     0
1070
    76
1070
     1
1070
    77
1070
     1
1070
    78
1070
     0
1070
   140
1040
6.2362208
1070
   147
1040
0.0
1070
   173
1070
     1
1070
   176
1070
     1
1070
   177
1070
     1
1070
   178
1070
     1
1070
   271
1070
     0
1070
   277
1070
     2
1070
   279
1070
     2
1070
   280
1070
     0
1070
   287
1070
     5
1070
   340
1005
10F
1002
}
  0
DIMENSION
  5
1FD
330
1F
100
AcDbEntity
  8
DN40_営業図
  6
CONTINUOUS
 62
     1
100
AcDbDimension
  2
*D33
 10
1038.658691
 20
266.0
 30
0.0
 11
866.1586910000001
 21
271.0
 31
0.0
 70
   160
  3
ISO-25
100
AcDbAlignedDimension
 13
693.658691
 23
322.906921
 33
0.0
 14
1038.658691
 24
322.906921
 34
0.0
100
AcDbRotatedDimension
1001
ACAD
1000
DSTYLE
1002
{
1070
   270
1070
     2
1070
     6
1000
EX_BNORM
1070
     7
1000
EX_BNORM
1070
    41
1040
6.0
1070
    42
1040
3.0
1070
    44
1040
3.0
1070
    73
1070
     0
1070
    74
1070
     0
1070
    75
1070
     0
1070
    76
1070
     0
1070
    77
1070
     1
1070
    78
1070
     0
1070
   140
1040
6.2362208
1070
   147
1040
0.0
1070
   173
1070
     1
1070
   176
1070
     1
1070
   177
1070
     1
1070
   178
1070
     1
1070
   271
1070
     0
1070
   277
1070
     2
1070
   279
1070
     2
1070
   280
1070
     0
1070
   287
1070
     5
1070
   340
1005
10F
1002
}
  0
LEADER
  5
20A
330
1F
100
AcDbEntity
  8
DN40_営業図
  6
CONTINUOUS
 62
     1
100
AcDbLeader
  3
ISO-25
 76
     3
 10
1009.361592075
 20
578.0851182669
 30
0.0
 10
1098.517601836
 20
526.6108720318
 30
0.0
 10
1135.8
 20
526.6108720318
 30
0.0
1001
ACAD
1000
DSTYLE
1002
{
1070
     5
1000
EX_BNORM
1070
    41
1040
6.0
1070
   341
1005
7A
1002
}
  0
LEADER
  5
20B
330
1F
100
AcDbEntity
  8
DN40_営業図
  6
CONTINUOUS
 62
     1
100
AcDbLeader
  3
ISO-25
 76
     3
 10
722.9559999771001
 20
578.0850637187
 30
0.0
 10
638.8528452011
 20
529.5280846691
 30
0.0
 10
602.4
 20
529.5280846691
 30
0.0
1001
ACAD
1000
DSTYLE
1002
{
1070
     5
1000
EX_BNORM
1070
    41
1040
6.0
1070
   341
1005
7A
1002
}
  0
LEADER
  5
20C
330
1F
100
AcDbEntity
  8
DN40_営業図
  6
CONTINUOUS
 62
     1
100
AcDbLeader
  3
ISO-25
 76
     3
 10
499.250671
 20
621.148315
 30
0.0
 10
554.9693143249
 20
717.6558361675
 30
0.0
 10
590.2
 20
717.6558361675
 30
0.0
1001
ACAD
1000
DSTYLE
1002
{
1070
     5
1000
EX_BNORM
1070
    41
1040
6.0
1070
   341
1005
7A
1002
}
  0
LEADER
  5
20D
330
1F
100
AcDbEntity
  8
DN40_営業図
  6
CONTINUOUS
 62
     1
100
AcDbLeader
  3
ISO-25
 76
     3
 10
168.538147
 20
621.148315
 30
0.0
 10
112.8195036751
 20
717.6558361675
 30
0.0
 10
77.588818
 20
717.6558361675
 30
0.0
1001
ACAD
1000
DSTYLE
1002
{
1070
     5
1000
EX_BNORM
1070
    41
1040
6.0
1070
   341
1005
7A
1002
}
  0
TEXT
  5
20E
330
1F
100
AcDbEntity
  8
DN40_営業図
  6
CONTINUOUS
 62
     6
100
AcDbText
 10
907.2
 20
24.9708664
 30
0.0
 40
6.2362208
  1
ＤＮ４０ 復動式ユニバ－サルジャッキ
 41
0.8192487203836932
  7
EXCADSTD
 72
     5
 11
1045.92
 21
24.9708664
 31
0.0
100
AcDbText
  0
TEXT
  5
20F
330
1F
100
AcDbEntity
  8
DN40_営業図
  6
CONTINUOUS
 62
     6
100
AcDbText
 10
764.4362180000002
 20
154.0963458
 30
0.0
 40
12.4724416
  1
油  圧  力  押し ２０００ＫＮ（２００ＴＯＮ）
 41
0.9053636928380321
  7
EXCADSTD
 72
     5
 11
1121.876218
 21
154.0963458
 31
0.0
100
AcDbText
  0
TEXT
  5
210
330
1F
100
AcDbEntity
  8
DN40_営業図
  6
CONTINUOUS
 62
     6
100
AcDbText
 10
765.5701380000002
 20
138.0963458
 30
0.0
 40
12.4724416
  1
            戻し     ５０ＫＮ（    ５ＴＯＮ）
 41
0.7962391520560318
  7
EXCADSTD
 72
     5
 11
1121.876218
 21
138.0963458
 31
0.0
100
AcDbText
  0
TEXT
  5
211
330
1F
100
AcDbEntity
  8
DN40_営業図
  6
CONTINUOUS
 62
     6
100
AcDbText
 10
764.4362180000002
 20
122.0963458
 30
0.0
 40
12.4724416
  1
ストローク         １５０ｍｍ
 41
0.7981844322261384
  7
EXCADSTD
 72
     5
 11
993.8762180000001
 21
122.0963458
 31
0.0
100
AcDbText
  0
TEXT
  5
212
330
1F
100
AcDbEntity
  8
DN40_営業図
  6
CONTINUOUS
 62
     6
100
AcDbText
 10
764.4362180000002
 20
106.0963458
 30
0.0
 40
12.4724416
  1
ネ ジ 耐 力      ３５００ＫＮ（３５０ＴＯＮ）
 41
0.8940657120201868
  7
EXCADSTD
 72
     5
 11
1121.876218
 21
106.0963458
 31
0.0
100
AcDbText
  0
TEXT
  5
213
330
1F
100
AcDbEntity
  8
DN40_営業図
  6
CONTINUOUS
 62
     6
100
AcDbText
 10
764.4362180000002
 20
90.09634579999997
 30
0.0
 40
12.4724416
  1
重      量         ２９０ｋｇ
 41
0.762486803014002
  7
EXCADSTD
 72
     5
 11
993.8762180000001
 21
90.09634579999997
 31
0.0
100
AcDbText
  0
LINE
  5
214
330
1F
100
AcDbEntity
  8
DN40_営業図
  6
CONTINUOUS
 62
   134
100
AcDbLine
 10
24.0
 20
40.0
 30
0.0
 11
1164.0
 21
40.0
 31
0.0
  0
LINE
  5
215
330
1F
100
AcDbEntity
  8
DN40_営業図
  6
CONTINUOUS
 62
    94
100
AcDbLine
 10
24.0
 20
20.0
 30
0.0
 11
1164.0
 21
20.0
 31
0.0
  0
LINE
  5
216
330
1F
100
AcDbEntity
  8
DN40_営業図
  6
CONTINUOUS
 62
   134
100
AcDbLine
 10
24.0
 20
820.0
 30
0.0
 11
24.0
 21
20.0
 31
0.0
  0
LINE
  5
217
330
1F
100
AcDbEntity
  8
DN40_営業図
  6
CONTINUOUS
 62
   134
100
AcDbLine
 10
1164.0
 20
20.0
 30
0.0
 11
1164.0
 21
820.0
 31
0.0
  0
LINE
  5
218
330
1F
100
AcDbEntity
  8
DN40_営業図
  6
CONTINUOUS
 62
   134
100
AcDbLine
 10
1164.0
 20
820.0
 30
0.0
 11
24.0
 21
820.0
 31
0.0
  0
LINE
  5
219
330
1F
100
AcDbEntity
  8
DN40_営業図
  6
CONTINUOUS
 62
    54
100
AcDbLine
 10
1122.0
 20
40.0
 30
0.0
 11
1122.0
 21
20.0
 31
0.0
  0
LINE
  5
21A
330
1F
100
AcDbEntity
  8
DN40_営業図
  6
CONTINUOUS
 62
    54
100
AcDbLine
 10
1112.0
 20
40.0
 30
0.0
 11
1112.0
 21
20.0
 31
0.0
  0
LINE
  5
21B
330
1F
100
AcDbEntity
  8
DN40_営業図
  6
CONTINUOUS
 62
    54
100
AcDbLine
 10
1072.0
 20
40.0
 30
0.0
 11
1072.0
 21
20.0
 31
0.0
  0
LINE
  5
21C
330
1F
100
AcDbEntity
  8
DN40_営業図
  6
CONTINUOUS
 62
    54
100
AcDbLine
 10
1062.0
 20
40.0
 30
0.0
 11
1062.0
 21
20.0
 31
0.0
  0
LINE
  5
21D
330
1F
100
AcDbEntity
  8
DN40_営業図
  6
CONTINUOUS
 62
    54
100
AcDbLine
 10
902.0
 20
40.0
 30
0.0
 11
902.0
 21
20.0
 31
0.0
  0
LINE
  5
21E
330
1F
100
AcDbEntity
  8
DN40_営業図
  6
CONTINUOUS
 62
    54
100
AcDbLine
 10
892.0
 20
40.0
 30
0.0
 11
892.0
 21
20.0
 31
0.0
  0
LINE
  5
21F
330
1F
100
AcDbEntity
  8
DN40_営業図
  6
CONTINUOUS
 62
   134
100
AcDbLine
 10
802.0
 20
40.0
 30
0.0
 11
802.0
 21
20.0
 31
0.0
  0
LINE
  5
220
330
1F
100
AcDbEntity
  8
DN40_営業図
  6
CONTINUOUS
 62
   134
100
AcDbLine
 10
622.0
 20
40.0
 30
0.0
 11
622.0
 21
20.0
 31
0.0
  0
TEXT
  5
221
330
1F
100
AcDbEntity
  8
DN40_営業図
  6
CONTINUOUS
 62
    54
100
AcDbText
 10
1117.0
 20
38.00000000000001
 30
0.0
 40
11.04972375690608
  1
図面
  7
EXCADVERT
 72
     3
 11
1117.0
 21
22.00000000000001
 31
0.0
100
AcDbText
  0
TEXT
  5
222
330
1F
100
AcDbEntity
  8
DN40_営業図
  6
CONTINUOUS
 62
    54
100
AcDbText
 10
1067.2
 20
38.00000000000001
 30
0.0
 40
10.2827763496144
  1
尺度
  7
EXCADVERT
 72
     3
 11
1067.2
 21
22.00000000000001
 31
0.0
100
AcDbText
  0
TEXT
  5
223
330
1F
100
AcDbEntity
  8
DN40_営業図
  6
CONTINUOUS
 62
    54
100
AcDbText
 10
896.8
 20
38.00000000000001
 30
0.0
 40
10.32924467398321
  1
名称
  7
EXCADVERT
 72
     3
 11
896.8
 21
22.00000000000001
 31
0.0
100
AcDbText
  0
TEXT
  5
224
330
1F
100
AcDbEntity
  8
DN40_営業図
  6
CONTINUOUS
 62
    54
100
AcDbText
 10
888.0000000000001
 20
34.00000000000001
 30
0.0
 40
6.153846153846153
  1
日
  7
EXCADVERT
 72
     3
 11
888.0000000000001
 21
26.00000000000001
 31
0.0
100
AcDbText
  0
TEXT
  5
225
330
1F
100
AcDbEntity
  8
DN40_営業図
  6
CONTINUOUS
 62
    54
100
AcDbText
 10
860.0000000000001
 20
34.00000000000001
 30
0.0
 40
5.423728813559322
  1
月
  7
EXCADVERT
 72
     3
 11
860.0000000000001
 21
26.00000000000001
 31
0.0
100
AcDbText
  0
TEXT
  5
226
330
1F
100
AcDbEntity
  8
DN40_営業図
  6
CONTINUOUS
 62
    54
100
AcDbText
 10
832.2
 20
34.00000000000001
 30
0.0
 40
5.235602094240837
  1
年
  7
EXCADVERT
 72
     3
 11
832.2
 21
26.00000000000001
 31
0.0
100
AcDbText
  0
TEXT
  5
227
330
1F
100
AcDbEntity
  8
DN40_営業図
  6
CONTINUOUS
 62
    54
100
AcDbText
 10
675.3000000000003
 20
26.33858300000001
 30
0.0
 40
7.795275999999999
  1
大 和 建 工 株 式 会 社
 41
0.6977778186480043
  7
EXCADSTD
 72
     5
 11
788.7000000000003
 21
26.33858300000001
 31
0.0
100
AcDbText
  0
LINE
  5
228
330
1F
100
AcDbEntity
  8
DN40_営業図
  6
CONTINUOUS
 62
    54
100
AcDbLine
 10
634.4
 20
38.50000000000001
 30
0.0
 11
637.3999999999994
 21
38.50000000000001
 31
0.0
  0
LINE
  5
229
330
1F
100
AcDbEntity
  8
DN40_営業図
  6
CONTINUOUS
 62
    54
100
AcDbLine
 10
634.4
 20
21.50000000000001
 30
0.0
 11
637.3999999999994
 21
21.50000000000001
 31
0.0
  0
LINE
  5
22A
330
1F
100
AcDbEntity
  8
DN40_営業図
  6
CONTINUOUS
 62
    54
100
AcDbLine
 10
634.4
 20
21.50000000000001
 30
0.0
 11
634.4
 21
38.50000000000001
 31
0.0
  0
LINE
  5
22B
330
1F
100
AcDbEntity
  8
DN40_営業図
  6
CONTINUOUS
 62
    54
100
AcDbLine
 10
636.4000000000002
 20
36.49999999999999
 30
0.0
 11
636.4000000000002
 21
23.50000000000004
 31
0.0
  0
LINE
  5
22C
330
1F
100
AcDbEntity
  8
DN40_営業図
  6
CONTINUOUS
 62
    54
100
AcDbLine
 10
639.3999999999997
 20
36.49999999999999
 30
0.0
 11
639.3999999999997
 21
23.50000000000004
 31
0.0
  0
LINE
  5
22D
330
1F
100
AcDbEntity
  8
DN40_営業図
  6
CONTINUOUS
 62
    54
100
AcDbLine
 10
637.3999999999994
 20
35.49999999999999
 30
0.0
 11
637.3999999999994
 21
24.50000000000004
 31
0.0
  0
LINE
  5
22E
330
1F
100
AcDbEntity
  8
DN40_営業図
  6
CONTINUOUS
 62
    54
100
AcDbLine
 10
640.3999999999997
 20
36.49999999999999
 30
0.0
 11
640.3999999999997
 21
21.50000000000001
 31
0.0
  0
LINE
  5
22F
330
1F
100
AcDbEntity
  8
DN40_営業図
  6
CONTINUOUS
 62
    54
100
AcDbLine
 10
645.3999999999997
 20
36.49999999999999
 30
0.0
 11
645.3999999999997
 21
21.50000000000001
 31
0.0
  0
LINE
  5
230
330
1F
100
AcDbEntity
  8
DN40_営業図
  6
CONTINUOUS
 62
    54
100
AcDbLine
 10
642.3999999999994
 20
35.99999999999977
 30
0.0
 11
642.3999999999994
 21
26.50000000000228
 31
0.0
  0
LINE
  5
231
330
1F
100
AcDbEntity
  8
DN40_営業図
  6
CONTINUOUS
 62
    54
100
AcDbLine
 10
643.3999999999997
 20
35.99999999999977
 30
0.0
 11
643.3999999999997
 21
26.50000000000228
 31
0.0
  0
LINE
  5
232
330
1F
100
AcDbEntity
  8
DN40_営業図
  6
CONTINUOUS
 62
    54
100
AcDbLine
 10
646.3999999999997
 20
38.50000000000001
 30
0.0
 11
646.3999999999997
 21
21.50000000000001
 31
0.0
  0
LINE
  5
233
330
1F
100
AcDbEntity
  8
DN40_営業図
  6
CONTINUOUS
 62
    54
100
AcDbLine
 10
648.3999999999997
 20
38.50000000000001
 30
0.0
 11
648.3999999999997
 21
21.50000000000001
 31
0.0
  0
LINE
  5
234
330
1F
100
AcDbEntity
  8
DN40_営業図
  6
CONTINUOUS
 62
    54
100
AcDbLine
 10
649.3999999999997
 20
38.50000000000001
 30
0.0
 11
649.3999999999997
 21
23.50000000000004
 31
0.0
  0
LINE
  5
235
330
1F
100
AcDbEntity
  8
DN40_営業図
  6
CONTINUOUS
 62
    54
100
AcDbLine
 10
651.3999999999997
 20
38.50000000000001
 30
0.0
 11
651.3999999999997
 21
24.00000000000002
 31
0.0
  0
LINE
  5
236
330
1F
100
AcDbEntity
  8
DN40_営業図
  6
CONTINUOUS
 62
    54
100
AcDbLine
 10
652.3999999999997
 20
38.50000000000001
 30
0.0
 11
652.3999999999997
 21
24.00000000000002
 31
0.0
  0
LINE
  5
237
330
1F
100
AcDbEntity
  8
DN40_営業図
  6
CONTINUOUS
 62
    54
100
AcDbLine
 10
654.3999999999997
 20
38.50000000000001
 30
0.0
 11
654.3999999999997
 21
24.00000000000002
 31
0.0
  0
LINE
  5
238
330
1F
100
AcDbEntity
  8
DN40_営業図
  6
CONTINUOUS
 62
    54
100
AcDbLine
 10
655.3999999999997
 20
38.50000000000001
 30
0.0
 11
655.3999999999997
 21
24.00000000000002
 31
0.0
  0
LINE
  5
239
330
1F
100
AcDbEntity
  8
DN40_営業図
  6
CONTINUOUS
 62
    54
100
AcDbLine
 10
657.3999999999997
 20
38.50000000000001
 30
0.0
 11
657.3999999999997
 21
23.50000000000002
 31
0.0
  0
LINE
  5
23A
330
1F
100
AcDbEntity
  8
DN40_営業図
  6
CONTINUOUS
 62
    54
100
AcDbLine
 10
658.3999999999997
 20
36.49999999999999
 30
0.0
 11
658.3999999999997
 21
21.50000000000001
 31
0.0
  0
LINE
  5
23B
330
1F
100
AcDbEntity
  8
DN40_営業図
  6
CONTINUOUS
 62
    54
100
AcDbLine
 10
660.3999999999997
 20
35.99999999999977
 30
0.0
 11
660.3999999999997
 21
26.50000000000228
 31
0.0
  0
LINE
  5
23C
330
1F
100
AcDbEntity
  8
DN40_営業図
  6
CONTINUOUS
 62
    54
100
AcDbLine
 10
661.3999999999997
 20
35.99999999999977
 30
0.0
 11
661.3999999999997
 21
26.50000000000228
 31
0.0
  0
LINE
  5
23D
330
1F
100
AcDbEntity
  8
DN40_営業図
  6
CONTINUOUS
 62
    54
100
AcDbLine
 10
663.3999999999997
 20
36.49999999999999
 30
0.0
 11
663.3999999999997
 21
21.50000000000001
 31
0.0
  0
ARC
  5
23E
330
1F
100
AcDbEntity
  8
DN40_営業図
  6
CONTINUOUS
 62
    54
100
AcDbCircle
 10
637.3999999999994
 20
36.49999999999999
 30
0.0
 40
2.000000000000342
100
AcDbArc
 50
0.0
 51
89.99999999999997
  0
ARC
  5
23F
330
1F
100
AcDbEntity
  8
DN40_営業図
  6
CONTINUOUS
 62
    54
100
AcDbCircle
 10
636.3999999999994
 20
35.49999999999999
 30
0.0
 40
1.0
100
AcDbArc
 50
0.0
 51
89.99999999999997
  0
ARC
  5
240
330
1F
100
AcDbEntity
  8
DN40_営業図
  6
CONTINUOUS
 62
    54
100
AcDbCircle
 10
642.3999999999994
 20
36.49999999999999
 30
0.0
 40
2.000000000000014
100
AcDbArc
 50
89.99999999999997
 51
180.0
  0
ARC
  5
241
330
1F
100
AcDbEntity
  8
DN40_営業図
  6
CONTINUOUS
 62
    54
100
AcDbCircle
 10
643.3999999999997
 20
36.49999999999999
 30
0.0
 40
2.0
100
AcDbArc
 50
0.0
 51
89.99999999999997
  0
ARC
  5
242
330
1F
100
AcDbEntity
  8
DN40_営業図
  6
CONTINUOUS
 62
    54
100
AcDbCircle
 10
642.8999999999996
 20
35.99999999999977
 30
0.0
 40
0.500000000000228
100
AcDbArc
 50
0.0
 51
180.0
  0
LINE
  5
243
330
1F
100
AcDbEntity
  8
DN40_営業図
  6
CONTINUOUS
 62
    54
100
AcDbLine
 10
642.3999999999994
 20
24.50000000000004
 30
0.0
 11
643.3999999999997
 21
24.50000000000004
 31
0.0
  0
LINE
  5
244
330
1F
100
AcDbEntity
  8
DN40_営業図
  6
CONTINUOUS
 62
    54
100
AcDbLine
 10
642.3999999999994
 20
26.50000000000228
 30
0.0
 11
643.3999999999997
 21
26.50000000000228
 31
0.0
  0
ARC
  5
245
330
1F
100
AcDbEntity
  8
DN40_営業図
  6
CONTINUOUS
 62
    54
100
AcDbCircle
 10
651.3999999999997
 20
23.50000000000004
 30
0.0
 40
2.0
100
AcDbArc
 50
180.0
 51
270.0000000000002
  0
ARC
  5
246
330
1F
100
AcDbEntity
  8
DN40_営業図
  6
CONTINUOUS
 62
    54
100
AcDbCircle
 10
655.3999999999997
 20
23.50000000000004
 30
0.0
 40
2.000000000000028
100
AcDbArc
 50
270.0000000000002
 51
0.0
  0
ARC
  5
247
330
1F
100
AcDbEntity
  8
DN40_営業図
  6
CONTINUOUS
 62
    54
100
AcDbCircle
 10
654.8999999999997
 20
24.00000000000002
 30
0.0
 40
0.5
100
AcDbArc
 50
180.0
 51
0.0
  0
ARC
  5
248
330
1F
100
AcDbEntity
  8
DN40_営業図
  6
CONTINUOUS
 62
    54
100
AcDbCircle
 10
651.8999999999997
 20
24.00000000000002
 30
0.0
 40
0.5
100
AcDbArc
 50
180.0
 51
0.0
  0
ARC
  5
249
330
1F
100
AcDbEntity
  8
DN40_営業図
  6
CONTINUOUS
 62
    54
100
AcDbCircle
 10
654.8999999999997
 20
23.50000000000004
 30
0.0
 40
2.000000000000028
100
AcDbArc
 50
221.4096221092719
 51
270.0000000000002
  0
ARC
  5
24A
330
1F
100
AcDbEntity
  8
DN40_営業図
  6
CONTINUOUS
 62
    54
100
AcDbCircle
 10
651.8999999999997
 20
23.50000000000004
 30
0.0
 40
2.000000000000028
100
AcDbArc
 50
270.0000000000002
 51
318.5903778907281
  0
ARC
  5
24B
330
1F
100
AcDbEntity
  8
DN40_営業図
  6
CONTINUOUS
 62
    54
100
AcDbCircle
 10
636.3999999999994
 20
24.50000000000002
 30
0.0
 40
1.0
100
AcDbArc
 50
270.0000000000002
 51
0.0
  0
ARC
  5
24C
330
1F
100
AcDbEntity
  8
DN40_営業図
  6
CONTINUOUS
 62
    54
100
AcDbCircle
 10
637.3999999999994
 20
23.50000000000002
 30
0.0
 40
2.000000000000342
100
AcDbArc
 50
270.0000000000002
 51
0.0
  0
ARC
  5
24D
330
1F
100
AcDbEntity
  8
DN40_営業図
  6
CONTINUOUS
 62
    54
100
AcDbCircle
 10
660.3999999999994
 20
36.49999999999999
 30
0.0
 40
2.000000000000014
100
AcDbArc
 50
89.99999999999997
 51
180.0
  0
ARC
  5
24E
330
1F
100
AcDbEntity
  8
DN40_営業図
  6
CONTINUOUS
 62
    54
100
AcDbCircle
 10
661.3999999999997
 20
36.49999999999999
 30
0.0
 40
2.0
100
AcDbArc
 50
0.0
 51
89.99999999999997
  0
ARC
  5
24F
330
1F
100
AcDbEntity
  8
DN40_営業図
  6
CONTINUOUS
 62
    54
100
AcDbCircle
 10
660.8999999999996
 20
35.99999999999977
 30
0.0
 40
0.500000000000228
100
AcDbArc
 50
0.0
 51
180.0
  0
LINE
  5
250
330
1F
100
AcDbEntity
  8
DN40_営業図
  6
CONTINUOUS
 62
    54
100
AcDbLine
 10
660.3999999999994
 20
24.50000000000004
 30
0.0
 11
661.3999999999997
 21
24.50000000000004
 31
0.0
  0
LINE
  5
251
330
1F
100
AcDbEntity
  8
DN40_営業図
  6
CONTINUOUS
 62
    54
100
AcDbLine
 10
660.3999999999994
 20
26.50000000000228
 30
0.0
 11
661.3999999999997
 21
26.50000000000228
 31
0.0
  0
LINE
  5
252
330
1F
100
AcDbEntity
  8
DN40_営業図
  6
CONTINUOUS
 62
    54
100
AcDbLine
 10
642.3999999999994
 20
38.50000000000001
 30
0.0
 11
643.3999999999997
 21
38.50000000000001
 31
0.0
  0
LINE
  5
253
330
1F
100
AcDbEntity
  8
DN40_営業図
  6
CONTINUOUS
 62
    54
100
AcDbLine
 10
642.3999999999994
 20
24.50000000000004
 30
0.0
 11
642.3999999999994
 21
21.50000000000001
 31
0.0
  0
LINE
  5
254
330
1F
100
AcDbEntity
  8
DN40_営業図
  6
CONTINUOUS
 62
    54
100
AcDbLine
 10
643.3999999999997
 20
24.50000000000004
 30
0.0
 11
643.3999999999997
 21
21.50000000000001
 31
0.0
  0
LINE
  5
255
330
1F
100
AcDbEntity
  8
DN40_営業図
  6
CONTINUOUS
 62
    54
100
AcDbLine
 10
640.3999999999997
 20
21.50000000000001
 30
0.0
 11
642.3999999999994
 21
21.50000000000001
 31
0.0
  0
LINE
  5
256
330
1F
100
AcDbEntity
  8
DN40_営業図
  6
CONTINUOUS
 62
    54
100
AcDbLine
 10
643.3999999999997
 20
21.50000000000001
 30
0.0
 11
645.3999999999997
 21
21.50000000000001
 31
0.0
  0
LINE
  5
257
330
1F
100
AcDbEntity
  8
DN40_営業図
  6
CONTINUOUS
 62
    54
100
AcDbLine
 10
646.3999999999997
 20
21.50000000000001
 30
0.0
 11
648.3999999999997
 21
21.50000000000001
 31
0.0
  0
LINE
  5
258
330
1F
100
AcDbEntity
  8
DN40_営業図
  6
CONTINUOUS
 62
    54
100
AcDbLine
 10
646.3999999999997
 20
38.50000000000001
 30
0.0
 11
648.3999999999997
 21
38.50000000000001
 31
0.0
  0
LINE
  5
259
330
1F
100
AcDbEntity
  8
DN40_営業図
  6
CONTINUOUS
 62
    54
100
AcDbLine
 10
649.3999999999997
 20
38.50000000000001
 30
0.0
 11
651.3999999999997
 21
38.50000000000001
 31
0.0
  0
LINE
  5
25A
330
1F
100
AcDbEntity
  8
DN40_営業図
  6
CONTINUOUS
 62
    54
100
AcDbLine
 10
652.3999999999997
 20
38.50000000000001
 30
0.0
 11
654.3999999999997
 21
38.50000000000001
 31
0.0
  0
LINE
  5
25B
330
1F
100
AcDbEntity
  8
DN40_営業図
  6
CONTINUOUS
 62
    54
100
AcDbLine
 10
655.3999999999997
 20
38.50000000000001
 30
0.0
 11
657.3999999999997
 21
38.50000000000001
 31
0.0
  0
LINE
  5
25C
330
1F
100
AcDbEntity
  8
DN40_営業図
  6
CONTINUOUS
 62
    54
100
AcDbLine
 10
660.3999999999994
 20
38.50000000000001
 30
0.0
 11
661.3999999999997
 21
38.50000000000001
 31
0.0
  0
LINE
  5
25D
330
1F
100
AcDbEntity
  8
DN40_営業図
  6
CONTINUOUS
 62
    54
100
AcDbLine
 10
651.3999999999997
 20
21.50000000000001
 30
0.0
 11
651.8999999999997
 21
21.50000000000001
 31
0.0
  0
LINE
  5
25E
330
1F
100
AcDbEntity
  8
DN40_営業図
  6
CONTINUOUS
 62
    54
100
AcDbLine
 10
654.8999999999997
 20
21.50000000000001
 30
0.0
 11
655.3999999999997
 21
21.50000000000001
 31
0.0
  0
LINE
  5
25F
330
1F
100
AcDbEntity
  8
DN40_営業図
  6
CONTINUOUS
 62
    54
100
AcDbLine
 10
658.3999999999997
 20
21.50000000000001
 30
0.0
 11
660.3999999999997
 21
21.50000000000001
 31
0.0
  0
LINE
  5
260
330
1F
100
AcDbEntity
  8
DN40_営業図
  6
CONTINUOUS
 62
    54
100
AcDbLine
 10
661.3999999999997
 20
21.50000000000001
 30
0.0
 11
663.3999999999997
 21
21.50000000000001
 31
0.0
  0
LINE
  5
261
330
1F
100
AcDbEntity
  8
DN40_営業図
  6
CONTINUOUS
 62
    54
100
AcDbLine
 10
660.3999999999997
 20
24.50000000000004
 30
0.0
 11
660.3999999999997
 21
21.50000000000001
 31
0.0
  0
LINE
  5
262
330
1F
100
AcDbEntity
  8
DN40_営業図
  6
CONTINUOUS
 62
    54
100
AcDbLine
 10
661.3999999999997
 20
24.50000000000004
 30
0.0
 11
661.3999999999997
 21
21.50000000000001
 31
0.0
  0
LINE
  5
263
330
1F
100
AcDbEntity
  8
DN40_営業図
  6
CONTINUOUS
 62
    54
100
AcDbLine
 10
634.400000000001
 20
38.47056274847817
 30
0.0
 11
634.4294372515242
 21
38.50000000000134
 31
0.0
  0
LINE
  5
264
330
1F
100
AcDbEntity
  8
DN40_営業図
  6
CONTINUOUS
 62
    54
100
AcDbLine
 10
634.3999999999999
 20
37.90487732352793
 30
0.0
 11
634.9951226764744
 21
38.50000000000237
 31
0.0
  0
LINE
  5
265
330
1F
100
AcDbEntity
  8
DN40_営業図
  6
CONTINUOUS
 62
    54
100
AcDbLine
 10
634.4000000000015
 20
37.3391918985802
 30
0.0
 11
635.560808101422
 21
38.50000000000083
 31
0.0
  0
LINE
  5
266
330
1F
100
AcDbEntity
  8
DN40_営業図
  6
CONTINUOUS
 62
    54
100
AcDbLine
 10
634.400000000003
 20
36.77350647363259
 30
0.0
 11
636.1264935263698
 21
38.49999999999935
 31
0.0
  0
LINE
  5
267
330
1F
100
AcDbEntity
  8
DN40_営業図
  6
CONTINUOUS
 62
    54
100
AcDbLine
 10
634.3999999999994
 20
36.20782104867974
 30
0.0
 11
636.6921789513226
 21
38.50000000000293
 31
0.0
  0
LINE
  5
268
330
1F
100
AcDbEntity
  8
DN40_営業図
  6
CONTINUOUS
 62
    54
100
AcDbLine
 10
634.3999999999983
 20
35.64213562372951
 30
0.0
 11
637.2578643762702
 21
38.5000000000014
 31
0.0
  0
LINE
  5
269
330
1F
100
AcDbEntity
  8
DN40_営業図
  6
CONTINUOUS
 62
    54
100
AcDbLine
 10
634.3999999999999
 20
35.07645019878183
 30
0.0
 11
637.7859559738233
 21
38.46240617260523
 31
0.0
  0
LINE
  5
26A
330
1F
100
AcDbEntity
  8
DN40_営業図
  6
CONTINUOUS
 62
    54
100
AcDbLine
 10
634.4000000000015
 20
34.51076477383416
 30
0.0
 11
638.2154463843474
 21
38.32621115818015
 31
0.0
  0
LINE
  5
26B
330
1F
100
AcDbEntity
  8
DN40_営業図
  6
CONTINUOUS
 62
    54
100
AcDbLine
 10
634.4000000000003
 20
33.94507934888393
 30
0.0
 11
636.4000000000002
 21
35.94507934888379
 31
0.0
  0
LINE
  5
26C
330
1F
100
AcDbEntity
  8
DN40_営業図
  6
CONTINUOUS
 62
    54
100
AcDbLine
 10
634.3999999999993
 20
33.37939392393364
 30
0.0
 11
636.4000000000002
 21
35.37939392393448
 31
0.0
  0
LINE
  5
26D
330
1F
100
AcDbEntity
  8
DN40_営業図
  6
CONTINUOUS
 62
    54
100
AcDbLine
 10
634.4000000000008
 20
32.81370849898597
 30
0.0
 11
636.4000000000002
 21
34.81370849898541
 31
0.0
  0
LINE
  5
26E
330
1F
100
AcDbEntity
  8
DN40_営業図
  6
CONTINUOUS
 62
    54
100
AcDbLine
 10
634.3999999999997
 20
32.24802307403568
 30
0.0
 11
636.4000000000002
 21
34.24802307403611
 31
0.0
  0
LINE
  5
26F
330
1F
100
AcDbEntity
  8
DN40_営業図
  6
CONTINUOUS
 62
    54
100
AcDbLine
 10
634.4000000000013
 20
31.68233764908806
 30
0.0
 11
636.4000000000002
 21
33.68233764908698
 31
0.0
  0
LINE
  5
270
330
1F
100
AcDbEntity
  8
DN40_営業図
  6
CONTINUOUS
 62
    54
100
AcDbLine
 10
634.4000000000003
 20
31.11665222413777
 30
0.0
 11
636.4000000000002
 21
33.11665222413772
 31
0.0
  0
LINE
  5
271
330
1F
100
AcDbEntity
  8
DN40_営業図
  6
CONTINUOUS
 62
    54
100
AcDbLine
 10
634.4000000000018
 20
30.5509667991901
 30
0.0
 11
636.4000000000002
 21
32.55096679918856
 31
0.0
  0
LINE
  5
272
330
1F
100
AcDbEntity
  8
DN40_営業図
  6
CONTINUOUS
 62
    54
100
AcDbLine
 10
634.4000000000008
 20
29.98528137423981
 30
0.0
 11
636.4000000000002
 21
31.98528137423926
 31
0.0
  0
LINE
  5
273
330
1F
100
AcDbEntity
  8
DN40_営業図
  6
CONTINUOUS
 62
    54
100
AcDbLine
 10
634.3999999999997
 20
29.41959594928964
 30
0.0
 11
636.4000000000002
 21
31.41959594929012
 31
0.0
  0
LINE
  5
274
330
1F
100
AcDbEntity
  8
DN40_営業図
  6
CONTINUOUS
 62
    54
100
AcDbLine
 10
634.4000000000012
 20
28.85391052434191
 30
0.0
 11
636.4000000000002
 21
30.85391052434088
 31
0.0
  0
LINE
  5
275
330
1F
100
AcDbEntity
  8
DN40_営業図
  6
CONTINUOUS
 62
    54
100
AcDbLine
 10
634.4000000000027
 20
28.28822509939423
 30
0.0
 11
636.4000000000002
 21
30.28822509939175
 31
0.0
  0
LINE
  5
276
330
1F
100
AcDbEntity
  8
DN40_営業図
  6
CONTINUOUS
 62
    54
100
AcDbLine
 10
634.4000000000017
 20
27.722539674444
 30
0.0
 11
636.4000000000002
 21
29.72253967444254
 31
0.0
  0
LINE
  5
277
330
1F
100
AcDbEntity
  8
DN40_営業図
  6
CONTINUOUS
 62
    54
100
AcDbLine
 10
634.4000000000033
 20
27.15685424949633
 30
0.0
 11
636.4000000000002
 21
29.15685424949329
 31
0.0
  0
LINE
  5
278
330
1F
100
AcDbEntity
  8
DN40_営業図
  6
CONTINUOUS
 62
    54
100
AcDbLine
 10
634.3999999999996
 20
26.59116882454348
 30
0.0
 11
636.4000000000002
 21
28.59116882454403
 31
0.0
  0
LINE
  5
279
330
1F
100
AcDbEntity
  8
DN40_営業図
  6
CONTINUOUS
 62
    54
100
AcDbLine
 10
634.4000000000011
 20
26.02548339959581
 30
0.0
 11
636.4000000000002
 21
28.02548339959487
 31
0.0
  0
LINE
  5
27A
330
1F
100
AcDbEntity
  8
DN40_営業図
  6
CONTINUOUS
 62
    54
100
AcDbLine
 10
634.4000000000001
 20
25.45979797464552
 30
0.0
 11
636.4000000000002
 21
27.45979797464566
 31
0.0
  0
LINE
  5
27B
330
1F
100
AcDbEntity
  8
DN40_営業図
  6
CONTINUOUS
 62
    54
100
AcDbLine
 10
634.4000000000017
 20
24.8941125496979
 30
0.0
 11
636.4000000000002
 21
26.89411254969645
 31
0.0
  0
LINE
  5
27C
330
1F
100
AcDbEntity
  8
DN40_営業図
  6
CONTINUOUS
 62
    54
100
AcDbLine
 10
634.4000000000032
 20
24.32842712475017
 30
0.0
 11
636.4000000000002
 21
26.32842712474729
 31
0.0
  0
LINE
  5
27D
330
1F
100
AcDbEntity
  8
DN40_営業図
  6
CONTINUOUS
 62
    54
100
AcDbLine
 10
634.3999999999995
 20
23.76274169979738
 30
0.0
 11
636.4000000000002
 21
25.76274169979806
 31
0.0
  0
LINE
  5
27E
330
1F
100
AcDbEntity
  8
DN40_営業図
  6
CONTINUOUS
 62
    54
100
AcDbLine
 10
634.400000000001
 20
23.19705627484965
 30
0.0
 11
636.4000000000002
 21
25.19705627484878
 31
0.0
  0
LINE
  5
27F
330
1F
100
AcDbEntity
  8
DN40_営業図
  6
CONTINUOUS
 62
    54
100
AcDbLine
 10
634.4000000000026
 20
22.63137084990203
 30
0.0
 11
636.4000000000002
 21
24.63137084989965
 31
0.0
  0
LINE
  5
280
330
1F
100
AcDbEntity
  8
DN40_営業図
  6
CONTINUOUS
 62
    54
100
AcDbLine
 10
634.4000000000016
 20
22.0656854249518
 30
0.0
 11
636.4000000000002
 21
24.06568542495048
 31
0.0
  0
LINE
  5
281
330
1F
100
AcDbEntity
  8
DN40_営業図
  6
CONTINUOUS
 62
    54
100
AcDbLine
 10
634.3999999999979
 20
21.49999999999896
 30
0.0
 11
636.4000000000002
 21
23.50000000000127
 31
0.0
  0
LINE
  5
282
330
1F
100
AcDbEntity
  8
DN40_営業図
  6
CONTINUOUS
 62
    54
100
AcDbLine
 10
634.9656854249482
 20
21.50000000000004
 30
0.0
 11
639.3999999999978
 21
25.93431457504958
 31
0.0
  0
LINE
  5
283
330
1F
100
AcDbEntity
  8
DN40_営業図
  6
CONTINUOUS
 62
    54
100
AcDbLine
 10
635.5313708498959
 20
21.49999999999844
 30
0.0
 11
639.3999999999992
 21
25.36862915010185
 31
0.0
  0
LINE
  5
284
330
1F
100
AcDbEntity
  8
DN40_営業図
  6
CONTINUOUS
 62
    54
100
AcDbLine
 10
636.0970562748462
 20
21.49999999999952
 30
0.0
 11
639.4000000000008
 21
24.80294372515423
 31
0.0
  0
LINE
  5
285
330
1F
100
AcDbEntity
  8
DN40_営業図
  6
CONTINUOUS
 62
    54
100
AcDbLine
 10
636.6627416997937
 20
21.49999999999799
 30
0.0
 11
639.3999999999997
 21
24.23725830020394
 31
0.0
  0
LINE
  5
286
330
1F
100
AcDbEntity
  8
DN40_営業図
  6
CONTINUOUS
 62
    54
100
AcDbLine
 10
637.2284271247415
 20
21.49999999999645
 30
0.0
 11
639.4000000000012
 21
23.67157287525627
 31
0.0
  0
LINE
  5
287
330
1F
100
AcDbEntity
  8
DN40_営業図
  6
CONTINUOUS
 62
    54
100
AcDbLine
 10
637.8440248844993
 20
21.54991233480511
 30
0.0
 11
639.3500876651951
 21
23.05597511550096
 31
0.0
  0
LINE
  5
288
330
1F
100
AcDbEntity
  8
DN40_営業図
  6
CONTINUOUS
 62
    54
100
AcDbLine
 10
634.9656854249492
 20
21.49999999999992
 30
0.0
 11
634.3999999999978
 21
22.06568542495123
 31
0.0
  0
LINE
  5
289
330
1F
100
AcDbEntity
  8
DN40_営業図
  6
CONTINUOUS
 62
    54
100
AcDbLine
 10
635.5313708498995
 20
21.49999999999896
 30
0.0
 11
634.3999999999994
 21
22.63137084989896
 31
0.0
  0
LINE
  5
28A
330
1F
100
AcDbEntity
  8
DN40_営業図
  6
CONTINUOUS
 62
    54
100
AcDbLine
 10
636.0970562748471
 20
21.50000000000043
 30
0.0
 11
634.400000000001
 21
23.19705627484658
 31
0.0
  0
LINE
  5
28B
330
1F
100
AcDbEntity
  8
DN40_営業図
  6
CONTINUOUS
 62
    54
100
AcDbLine
 10
636.6627416997974
 20
21.49999999999941
 30
0.0
 11
634.3999999999999
 21
23.76274169979687
 31
0.0
  0
LINE
  5
28C
330
1F
100
AcDbEntity
  8
DN40_営業図
  6
CONTINUOUS
 62
    54
100
AcDbLine
 10
637.2284271247477
 20
21.49999999999833
 30
0.0
 11
634.4000000000015
 21
24.32842712474454
 31
0.0
  0
LINE
  5
28D
330
1F
100
AcDbEntity
  8
DN40_営業図
  6
CONTINUOUS
 62
    54
100
AcDbLine
 10
637.7612218018405
 20
21.53289074785474
 30
0.0
 11
634.3999999999978
 21
24.89411254969739
 31
0.0
  0
LINE
  5
28E
330
1F
100
AcDbEntity
  8
DN40_営業図
  6
CONTINUOUS
 62
    54
100
AcDbLine
 10
638.1950016208127
 20
21.66479635383158
 30
0.0
 11
634.3999999999994
 21
25.45979797464506
 31
0.0
  0
LINE
  5
28F
330
1F
100
AcDbEntity
  8
DN40_営業図
  6
CONTINUOUS
 62
    54
100
AcDbLine
 10
638.5569111654613
 20
21.86857223413231
 30
0.0
 11
636.828856178685
 21
23.59662722090867
 31
0.0
  0
LINE
  5
290
330
1F
100
AcDbEntity
  8
DN40_営業図
  6
CONTINUOUS
 62
    54
100
AcDbLine
 10
638.8590631214695
 20
22.13210570307329
 30
0.0
 11
637.1512203391894
 21
23.83994848535342
 31
0.0
  0
LINE
  5
291
330
1F
100
AcDbEntity
  8
DN40_営業図
  6
CONTINUOUS
 62
    54
100
AcDbLine
 10
639.1039763327823
 20
22.45287791670965
 30
0.0
 11
637.3546344576083
 21
24.20221979188366
 31
0.0
  0
LINE
  5
292
330
1F
100
AcDbEntity
  8
DN40_営業図
  6
CONTINUOUS
 62
    54
100
AcDbLine
 10
639.2865538001514
 20
22.83598587428978
 30
0.0
 11
637.3999999999994
 21
24.72253967444185
 31
0.0
  0
LINE
  5
293
330
1F
100
AcDbEntity
  8
DN40_営業図
  6
CONTINUOUS
 62
    54
100
AcDbLine
 10
639.3898144929615
 20
23.29841060642887
 30
0.0
 11
637.3999999999994
 21
25.28822509939088
 31
0.0
  0
LINE
  5
294
330
1F
100
AcDbEntity
  8
DN40_営業図
  6
CONTINUOUS
 62
    54
100
AcDbLine
 10
639.3999999999991
 20
23.85391052434054
 30
0.0
 11
637.3999999999994
 21
25.85391052434017
 31
0.0
  0
LINE
  5
295
330
1F
100
AcDbEntity
  8
DN40_営業図
  6
CONTINUOUS
 62
    54
100
AcDbLine
 10
639.4000000000005
 20
24.41959594928822
 30
0.0
 11
637.3999999999994
 21
26.41959594928935
 31
0.0
  0
LINE
  5
296
330
1F
100
AcDbEntity
  8
DN40_営業図
  6
CONTINUOUS
 62
    54
100
AcDbLine
 10
639.4000000000021
 20
24.98528137423595
 30
0.0
 11
637.3999999999994
 21
26.98528137423865
 31
0.0
  0
LINE
  5
297
330
1F
100
AcDbEntity
  8
DN40_営業図
  6
CONTINUOUS
 62
    54
100
AcDbLine
 10
639.400000000001
 20
25.55096679918612
 30
0.0
 11
637.3999999999994
 21
27.55096679918768
 31
0.0
  0
LINE
  5
298
330
1F
100
AcDbEntity
  8
DN40_営業図
  6
CONTINUOUS
 62
    54
100
AcDbLine
 10
639.4000000000001
 20
26.11665222413641
 30
0.0
 11
637.3999999999994
 21
28.11665222413706
 31
0.0
  0
LINE
  5
299
330
1F
100
AcDbEntity
  8
DN40_営業図
  6
CONTINUOUS
 62
    54
100
AcDbLine
 10
639.399999999999
 20
26.68233764908664
 30
0.0
 11
637.3999999999994
 21
28.68233764908627
 31
0.0
  0
LINE
  5
29A
330
1F
100
AcDbEntity
  8
DN40_営業図
  6
CONTINUOUS
 62
    54
100
AcDbLine
 10
639.4000000000005
 20
27.24802307403437
 30
0.0
 11
637.3999999999994
 21
29.24802307403548
 31
0.0
  0
LINE
  5
29B
330
1F
100
AcDbEntity
  8
DN40_営業図
  6
CONTINUOUS
 62
    54
100
AcDbLine
 10
639.400000000002
 20
27.81370849898199
 30
0.0
 11
637.3999999999994
 21
29.81370849898455
 31
0.0
  0
LINE
  5
29C
330
1F
100
AcDbEntity
  8
DN40_営業図
  6
CONTINUOUS
 62
    54
100
AcDbLine
 10
639.400000000001
 20
28.37939392393228
 30
0.0
 11
637.3999999999994
 21
30.37939392393385
 31
0.0
  0
LINE
  5
29D
330
1F
100
AcDbEntity
  8
DN40_営業図
  6
CONTINUOUS
 62
    54
100
AcDbLine
 10
639.3999999999999
 20
28.94507934888251
 30
0.0
 11
637.3999999999994
 21
30.94507934888296
 31
0.0
  0
LINE
  5
29E
330
1F
100
AcDbEntity
  8
DN40_営業図
  6
CONTINUOUS
 62
    54
100
AcDbLine
 10
639.4000000000015
 20
29.51076477383024
 30
0.0
 11
637.3999999999994
 21
31.5107647738323
 31
0.0
  0
LINE
  5
29F
330
1F
100
AcDbEntity
  8
DN40_営業図
  6
CONTINUOUS
 62
    54
100
AcDbLine
 10
639.4000000000004
 20
30.07645019878047
 30
0.0
 11
637.3999999999994
 21
32.07645019878149
 31
0.0
  0
LINE
  5
2A0
330
1F
100
AcDbEntity
  8
DN40_営業図
  6
CONTINUOUS
 62
    54
100
AcDbLine
 10
639.4000000000019
 20
30.64213562372814
 30
0.0
 11
637.3999999999994
 21
32.64213562373066
 31
0.0
  0
LINE
  5
2A1
330
1F
100
AcDbEntity
  8
DN40_営業図
  6
CONTINUOUS
 62
    54
100
AcDbLine
 10
639.4000000000009
 20
31.20782104867838
 30
0.0
 11
637.3999999999994
 21
33.2078210486799
 31
0.0
  0
LINE
  5
2A2
330
1F
100
AcDbEntity
  8
DN40_営業図
  6
CONTINUOUS
 62
    54
100
AcDbLine
 10
639.3999999999999
 20
31.77350647362866
 30
0.0
 11
637.3999999999994
 21
33.77350647362912
 31
0.0
  0
LINE
  5
2A3
330
1F
100
AcDbEntity
  8
DN40_営業図
  6
CONTINUOUS
 62
    54
100
AcDbLine
 10
639.4000000000015
 20
32.33919189857628
 30
0.0
 11
637.3999999999994
 21
34.3391918985783
 31
0.0
  0
LINE
  5
2A4
330
1F
100
AcDbEntity
  8
DN40_営業図
  6
CONTINUOUS
 62
    54
100
AcDbLine
 10
639.4000000000003
 20
32.90487732352657
 30
0.0
 11
637.3999999999994
 21
34.90487732352754
 31
0.0
  0
LINE
  5
2A5
330
1F
100
AcDbEntity
  8
DN40_営業図
  6
CONTINUOUS
 62
    54
100
AcDbLine
 10
639.4000000000019
 20
33.47056274847424
 30
0.0
 11
637.3999999999994
 21
35.4705627484768
 31
0.0
  0
LINE
  5
2A6
330
1F
100
AcDbEntity
  8
DN40_営業図
  6
CONTINUOUS
 62
    54
100
AcDbLine
 10
639.4000000000008
 20
34.03624817342448
 30
0.0
 11
634.9362481734229
 21
38.50000000000231
 31
0.0
  0
LINE
  5
2A7
330
1F
100
AcDbEntity
  8
DN40_営業図
  6
CONTINUOUS
 62
    54
100
AcDbLine
 10
639.3999999999999
 20
34.60193359837476
 30
0.0
 11
635.5019335983732
 21
38.50000000000129
 31
0.0
  0
LINE
  5
2A8
330
1F
100
AcDbEntity
  8
DN40_営業図
  6
CONTINUOUS
 62
    54
100
AcDbLine
 10
639.4000000000012
 20
35.16761902332238
 30
0.0
 11
636.0676190233235
 21
38.50000000000021
 31
0.0
  0
LINE
  5
2A9
330
1F
100
AcDbEntity
  8
DN40_営業図
  6
CONTINUOUS
 62
    54
100
AcDbLine
 10
639.4000000000003
 20
35.73330444827267
 30
0.0
 11
636.6333044482712
 21
38.5000000000018
 31
0.0
  0
LINE
  5
2AA
330
1F
100
AcDbEntity
  8
DN40_営業図
  6
CONTINUOUS
 62
    54
100
AcDbLine
 10
639.4000000000018
 20
36.29898987322034
 30
0.0
 11
637.1989898732213
 21
38.50000000000072
 31
0.0
  0
LINE
  5
2AB
330
1F
100
AcDbEntity
  8
DN40_営業図
  6
CONTINUOUS
 62
    54
100
AcDbLine
 10
639.3582742982785
 20
36.90640099989279
 30
0.0
 11
637.8064009998964
 21
38.45827429827492
 31
0.0
  0
LINE
  5
2AC
330
1F
100
AcDbEntity
  8
DN40_営業図
  6
CONTINUOUS
 62
    54
100
AcDbLine
 10
636.4000000000002
 20
36.47056274847591
 30
0.0
 11
634.3999999999985
 21
38.47056274847765
 31
0.0
  0
LINE
  5
2AD
330
1F
100
AcDbEntity
  8
DN40_営業図
  6
CONTINUOUS
 62
    54
100
AcDbLine
 10
637.164833763838
 20
36.14422768777232
 30
0.0
 11
638.8732303339689
 21
37.85262425790317
 31
0.0
  0
LINE
  5
2AE
330
1F
100
AcDbEntity
  8
DN40_営業図
  6
CONTINUOUS
 62
    54
100
AcDbLine
 10
637.3614102520827
 20
35.7751187510679
 30
0.0
 11
639.1150972780435
 21
37.52880577702874
 31
0.0
  0
LINE
  5
2AF
330
1F
100
AcDbEntity
  8
DN40_営業図
  6
CONTINUOUS
 62
    54
100
AcDbLine
 10
636.4000000000002
 20
35.33919189857749
 30
0.0
 11
634.4000000000005
 21
37.33919189857713
 31
0.0
  0
LINE
  5
2B0
330
1F
100
AcDbEntity
  8
DN40_営業図
  6
CONTINUOUS
 62
    54
100
AcDbLine
 10
637.3999999999994
 20
34.68233764908612
 30
0.0
 11
639.3923559303744
 21
36.67469357946116
 31
0.0
  0
LINE
  5
2B1
330
1F
100
AcDbEntity
  8
DN40_営業図
  6
CONTINUOUS
 62
    54
100
AcDbLine
 10
636.4000000000002
 20
34.20782104867907
 30
0.0
 11
634.4000000000001
 21
36.20782104867923
 31
0.0
  0
LINE
  5
2B2
330
1F
100
AcDbEntity
  8
DN40_営業図
  6
CONTINUOUS
 62
    54
100
AcDbLine
 10
637.3999999999994
 20
34.11665222413691
 30
0.0
 11
639.4000000000011
 21
36.11665222413863
 31
0.0
  0
LINE
  5
2B3
330
1F
100
AcDbEntity
  8
DN40_営業図
  6
CONTINUOUS
 62
    54
100
AcDbLine
 10
637.3999999999994
 20
33.55096679918768
 30
0.0
 11
639.4000000000001
 21
35.55096679918839
 31
0.0
  0
LINE
  5
2B4
330
1F
100
AcDbEntity
  8
DN40_営業図
  6
CONTINUOUS
 62
    54
100
AcDbLine
 10
636.4000000000002
 20
33.07645019878067
 30
0.0
 11
634.399999999997
 21
35.07645019878388
 31
0.0
  0
LINE
  5
2B5
330
1F
100
AcDbEntity
  8
DN40_営業図
  6
CONTINUOUS
 62
    54
100
AcDbLine
 10
636.4000000000002
 20
32.51076477383153
 30
0.0
 11
634.399999999998
 21
34.51076477383365
 31
0.0
  0
LINE
  5
2B6
330
1F
100
AcDbEntity
  8
DN40_営業図
  6
CONTINUOUS
 62
    54
100
AcDbLine
 10
636.4000000000002
 20
31.94507934888222
 30
0.0
 11
634.4000000000017
 21
33.9450793488808
 31
0.0
  0
LINE
  5
2B7
330
1F
100
AcDbEntity
  8
DN40_営業図
  6
CONTINUOUS
 62
    54
100
AcDbLine
 10
636.4000000000002
 20
31.379393923933
 30
0.0
 11
634.4000000000001
 21
33.37939392393313
 31
0.0
  0
LINE
  5
2B8
330
1F
100
AcDbEntity
  8
DN40_営業図
  6
CONTINUOUS
 62
    54
100
AcDbLine
 10
637.3999999999994
 20
30.72253967444167
 30
0.0
 11
639.4
 21
32.72253967444224
 31
0.0
  0
LINE
  5
2B9
330
1F
100
AcDbEntity
  8
DN40_営業図
  6
CONTINUOUS
 62
    54
100
AcDbLine
 10
636.4000000000002
 20
30.81370849898381
 30
0.0
 11
634.3999999999986
 21
32.8137084989854
 31
0.0
  0
LINE
  5
2BA
330
1F
100
AcDbEntity
  8
DN40_営業図
  6
CONTINUOUS
 62
    54
100
AcDbLine
 10
636.4000000000002
 20
30.24802307403467
 30
0.0
 11
634.3999999999996
 21
32.24802307403522
 31
0.0
  0
LINE
  5
2BB
330
1F
100
AcDbEntity
  8
DN40_営業図
  6
CONTINUOUS
 62
    54
100
AcDbLine
 10
637.3999999999994
 20
29.59116882454328
 30
0.0
 11
639.3999999999978
 21
31.59116882454172
 31
0.0
  0
LINE
  5
2BC
330
1F
100
AcDbEntity
  8
DN40_営業図
  6
CONTINUOUS
 62
    54
100
AcDbLine
 10
636.4000000000002
 20
29.68233764908543
 30
0.0
 11
634.4000000000008
 21
31.68233764908494
 31
0.0
  0
LINE
  5
2BD
330
1F
100
AcDbEntity
  8
DN40_営業図
  6
CONTINUOUS
 62
    54
100
AcDbLine
 10
637.3999999999994
 20
29.02548339959409
 30
0.0
 11
639.3999999999994
 21
31.0254833995941
 31
0.0
  0
LINE
  5
2BE
330
1F
100
AcDbEntity
  8
DN40_営業図
  6
CONTINUOUS
 62
    54
100
AcDbLine
 10
637.3999999999994
 20
28.45979797464484
 30
0.0
 11
639.400000000001
 21
30.45979797464637
 31
0.0
  0
LINE
  5
2BF
330
1F
100
AcDbEntity
  8
DN40_営業図
  6
CONTINUOUS
 62
    54
100
AcDbLine
 10
636.4000000000002
 20
28.55096679918693
 30
0.0
 11
634.4000000000002
 21
30.55096679918697
 31
0.0
  0
LINE
  5
2C0
330
1F
100
AcDbEntity
  8
DN40_営業図
  6
CONTINUOUS
 62
    54
100
AcDbLine
 10
637.3999999999994
 20
27.89411254969568
 30
0.0
 11
639.3999999999999
 21
29.89411254969614
 31
0.0
  0
LINE
  5
2C1
330
1F
100
AcDbEntity
  8
DN40_営業図
  6
CONTINUOUS
 62
    54
100
AcDbLine
 10
636.4000000000002
 20
27.98528137423792
 30
0.0
 11
634.3999999999987
 21
29.98528137423936
 31
0.0
  0
LINE
  5
2C2
330
1F
100
AcDbEntity
  8
DN40_営業図
  6
CONTINUOUS
 62
    54
100
AcDbLine
 10
637.3999999999994
 20
27.32842712474643
 30
0.0
 11
639.4000000000015
 21
29.32842712474847
 31
0.0
  0
LINE
  5
2C3
330
1F
100
AcDbEntity
  8
DN40_営業図
  6
CONTINUOUS
 62
    54
100
AcDbLine
 10
636.4000000000002
 20
26.85391052433939
 30
0.0
 11
634.4000000000008
 21
28.85391052433884
 31
0.0
  0
LINE
  5
2C4
330
1F
100
AcDbEntity
  8
DN40_営業図
  6
CONTINUOUS
 62
    54
100
AcDbLine
 10
637.3999999999994
 20
26.76274169979732
 30
0.0
 11
639.3999999999978
 21
28.76274169979568
 31
0.0
  0
LINE
  5
2C5
330
1F
100
AcDbEntity
  8
DN40_営業図
  6
CONTINUOUS
 62
    54
100
AcDbLine
 10
636.4000000000002
 20
26.28822509939013
 30
0.0
 11
634.3999999999992
 21
28.28822509939111
 31
0.0
  0
LINE
  5
2C6
330
1F
100
AcDbEntity
  8
DN40_営業図
  6
CONTINUOUS
 62
    54
100
AcDbLine
 10
636.4000000000002
 20
25.72253967444106
 30
0.0
 11
634.3999999999978
 21
27.72253967444349
 31
0.0
  0
LINE
  5
2C7
330
1F
100
AcDbEntity
  8
DN40_営業図
  6
CONTINUOUS
 62
    54
100
AcDbLine
 10
637.3999999999994
 20
25.63137084989889
 30
0.0
 11
639.4000000000008
 21
27.63137084990027
 31
0.0
  0
LINE
  5
2C8
330
1F
100
AcDbEntity
  8
DN40_営業図
  6
CONTINUOUS
 62
    54
100
AcDbLine
 10
636.4000000000002
 20
25.15685424949172
 30
0.0
 11
634.3999999999987
 21
27.1568542494932
 31
0.0
  0
LINE
  5
2C9
330
1F
100
AcDbEntity
  8
DN40_営業図
  6
CONTINUOUS
 62
    54
100
AcDbLine
 10
637.3999999999994
 20
25.06568542494966
 30
0.0
 11
639.3999999999999
 21
27.0656854249501
 31
0.0
  0
LINE
  5
2CA
330
1F
100
AcDbEntity
  8
DN40_営業図
  6
CONTINUOUS
 62
    54
100
AcDbLine
 10
636.4000000000002
 20
24.59116882454257
 30
0.0
 11
634.3999999999999
 21
26.59116882454297
 31
0.0
  0
LINE
  5
2CB
330
1F
100
AcDbEntity
  8
DN40_営業図
  6
CONTINUOUS
 62
    54
100
AcDbLine
 10
636.8486354839923
 20
36.39371483287591
 30
0.0
 11
638.574054788279
 21
38.11913413716255
 31
0.0
  0
LINE
  5
2CC
330
1F
100
AcDbEntity
  8
DN40_営業図
  6
CONTINUOUS
 62
    54
100
AcDbLine
 10
636.4000000000002
 20
35.90487732352671
 30
0.0
 11
634.3999999999995
 21
37.90487732352742
 31
0.0
  0
LINE
  5
2CD
330
1F
100
AcDbEntity
  8
DN40_営業図
  6
CONTINUOUS
 62
    54
100
AcDbLine
 10
637.3999999999994
 20
35.24802307403539
 30
0.0
 11
639.2941124491215
 21
37.14213552315747
 31
0.0
  0
LINE
  5
2CE
330
1F
100
AcDbEntity
  8
DN40_営業図
  6
CONTINUOUS
 62
    54
100
AcDbLine
 10
636.4000000000002
 20
34.77350647362835
 30
0.0
 11
634.3999999999991
 21
36.77350647362952
 31
0.0
  0
LINE
  5
2CF
330
1F
100
AcDbEntity
  8
DN40_営業図
  6
CONTINUOUS
 62
    54
100
AcDbLine
 10
636.4000000000002
 20
33.64213562372985
 30
0.0
 11
634.3999999999985
 21
35.64213562373155
 31
0.0
  0
LINE
  5
2D0
330
1F
100
AcDbEntity
  8
DN40_営業図
  6
CONTINUOUS
 62
    54
100
AcDbLine
 10
637.3999999999994
 20
32.98528137423848
 30
0.0
 11
639.4000000000016
 21
34.98528137424066
 31
0.0
  0
LINE
  5
2D1
330
1F
100
AcDbEntity
  8
DN40_営業図
  6
CONTINUOUS
 62
    54
100
AcDbLine
 10
637.3999999999994
 20
32.41959594928928
 30
0.0
 11
639.4000000000005
 21
34.41959594929043
 31
0.0
  0
LINE
  5
2D2
330
1F
100
AcDbEntity
  8
DN40_営業図
  6
CONTINUOUS
 62
    54
100
AcDbLine
 10
637.3999999999994
 20
31.85391052434009
 30
0.0
 11
639.3999999999995
 21
33.8539105243402
 31
0.0
  0
LINE
  5
2D3
330
1F
100
AcDbEntity
  8
DN40_営業図
  6
CONTINUOUS
 62
    54
100
AcDbLine
 10
637.3999999999994
 20
31.28822509939094
 30
0.0
 11
639.400000000001
 21
33.28822509939253
 31
0.0
  0
LINE
  5
2D4
330
1F
100
AcDbEntity
  8
DN40_営業図
  6
CONTINUOUS
 62
    54
100
AcDbLine
 10
637.3999999999994
 20
30.15685424949253
 30
0.0
 11
639.4000000000015
 21
32.15685424949462
 31
0.0
  0
LINE
  5
2D5
330
1F
100
AcDbEntity
  8
DN40_営業図
  6
CONTINUOUS
 62
    54
100
AcDbLine
 10
636.4000000000002
 20
29.1166522241363
 30
0.0
 11
634.3999999999992
 21
31.11665222413726
 31
0.0
  0
LINE
  5
2D6
330
1F
100
AcDbEntity
  8
DN40_営業図
  6
CONTINUOUS
 62
    54
100
AcDbLine
 10
636.4000000000002
 20
27.41959594928854
 30
0.0
 11
634.3999999999971
 21
29.41959594929163
 31
0.0
  0
LINE
  5
2D7
330
1F
100
AcDbEntity
  8
DN40_営業図
  6
CONTINUOUS
 62
    54
100
AcDbLine
 10
637.3999999999994
 20
26.197056274848
 30
0.0
 11
639.3999999999994
 21
28.19705627484795
 31
0.0
  0
LINE
  5
2D8
330
1F
100
AcDbEntity
  8
DN40_営業図
  6
CONTINUOUS
 62
    54
100
AcDbLine
 10
637.3999999999994
 20
24.50000000000041
 30
0.0
 11
639.4000000000013
 21
26.50000000000237
 31
0.0
  0
LINE
  5
2D9
330
1F
100
AcDbEntity
  8
DN40_営業図
  6
CONTINUOUS
 62
    54
100
AcDbLine
 10
636.4000000000002
 20
24.02548339959338
 30
0.0
 11
634.3999999999983
 21
26.02548339959529
 31
0.0
  0
LINE
  5
2DA
330
1F
100
AcDbEntity
  8
DN40_営業図
  6
CONTINUOUS
 62
    54
100
AcDbLine
 10
640.4219429663372
 20
36.79544943996692
 30
0.0
 11
642.1045505600313
 21
38.47805703366104
 31
0.0
  0
LINE
  5
2DB
330
1F
100
AcDbEntity
  8
DN40_営業図
  6
CONTINUOUS
 62
    54
100
AcDbLine
 10
640.3999999999971
 20
36.20782104867775
 30
0.0
 11
642.6921789513178
 21
38.49999999999839
 31
0.0
  0
LINE
  5
2DC
330
1F
100
AcDbEntity
  8
DN40_営業図
  6
CONTINUOUS
 62
    54
100
AcDbLine
 10
640.3999999999987
 20
35.64213562373013
 30
0.0
 11
643.2578643762656
 21
38.49999999999691
 31
0.0
  0
LINE
  5
2DD
330
1F
100
AcDbEntity
  8
DN40_営業図
  6
CONTINUOUS
 62
    54
100
AcDbLine
 10
640.3999999999977
 20
35.07645019877985
 30
0.0
 11
643.785955973821
 21
38.46240617260319
 31
0.0
  0
LINE
  5
2DE
330
1F
100
AcDbEntity
  8
DN40_営業図
  6
CONTINUOUS
 62
    54
100
AcDbLine
 10
640.4000000000019
 20
34.51076477383479
 30
0.0
 11
644.2154463843478
 21
38.32621115818078
 31
0.0
  0
LINE
  5
2DF
330
1F
100
AcDbEntity
  8
DN40_営業図
  6
CONTINUOUS
 62
    54
100
AcDbLine
 10
640.4000000000008
 20
33.9450793488845
 30
0.0
 11
642.3999999999994
 21
35.94507934888306
 31
0.0
  0
LINE
  5
2E0
330
1F
100
AcDbEntity
  8
DN40_営業図
  6
CONTINUOUS
 62
    54
100
AcDbLine
 10
640.3999999999997
 20
33.37939392393427
 30
0.0
 11
642.3999999999994
 21
35.3793939239339
 31
0.0
  0
LINE
  5
2E1
330
1F
100
AcDbEntity
  8
DN40_営業図
  6
CONTINUOUS
 62
    54
100
AcDbLine
 10
640.3999999999987
 20
32.81370849898398
 30
0.0
 11
642.3999999999994
 21
34.81370849898469
 31
0.0
  0
LINE
  5
2E2
330
1F
100
AcDbEntity
  8
DN40_営業図
  6
CONTINUOUS
 62
    54
100
AcDbLine
 10
640.4000000000001
 20
32.2480230740363
 30
0.0
 11
642.3999999999994
 21
34.24802307403559
 31
0.0
  0
LINE
  5
2E3
330
1F
100
AcDbEntity
  8
DN40_営業図
  6
CONTINUOUS
 62
    54
100
AcDbLine
 10
640.3999999999992
 20
31.68233764908602
 30
0.0
 11
642.3999999999994
 21
33.6823376490863
 31
0.0
  0
LINE
  5
2E4
330
1F
100
AcDbEntity
  8
DN40_営業図
  6
CONTINUOUS
 62
    54
100
AcDbLine
 10
640.4000000000007
 20
31.1166522241384
 30
0.0
 11
642.3999999999994
 21
33.11665222413715
 31
0.0
  0
LINE
  5
2E5
330
1F
100
AcDbEntity
  8
DN40_営業図
  6
CONTINUOUS
 62
    54
100
AcDbLine
 10
640.4000000000021
 20
30.55096679919067
 30
0.0
 11
642.3999999999994
 21
32.55096679918788
 31
0.0
  0
LINE
  5
2E6
330
1F
100
AcDbEntity
  8
DN40_営業図
  6
CONTINUOUS
 62
    54
100
AcDbLine
 10
640.3999999999985
 20
29.98528137423788
 30
0.0
 11
642.3999999999994
 21
31.98528137423877
 31
0.0
  0
LINE
  5
2E7
330
1F
100
AcDbEntity
  8
DN40_営業図
  6
CONTINUOUS
 62
    54
100
AcDbLine
 10
640.4000000000001
 20
29.4195959492902
 30
0.0
 11
642.3999999999994
 21
31.41959594928949
 31
0.0
  0
LINE
  5
2E8
330
1F
100
AcDbEntity
  8
DN40_営業図
  6
CONTINUOUS
 62
    54
100
AcDbLine
 10
640.3999999999991
 20
28.85391052433997
 30
0.0
 11
642.3999999999994
 21
30.85391052434033
 31
0.0
  0
LINE
  5
2E9
330
1F
100
AcDbEntity
  8
DN40_営業図
  6
CONTINUOUS
 62
    54
100
AcDbLine
 10
640.4000000000005
 20
28.28822509939224
 30
0.0
 11
642.3999999999994
 21
30.28822509939111
 31
0.0
  0
LINE
  5
2EA
330
1F
100
AcDbEntity
  8
DN40_営業図
  6
CONTINUOUS
 62
    54
100
AcDbLine
 10
640.4000000000021
 20
27.72253967444457
 30
0.0
 11
642.3999999999994
 21
29.7225396744419
 31
0.0
  0
LINE
  5
2EB
330
1F
100
AcDbEntity
  8
DN40_営業図
  6
CONTINUOUS
 62
    54
100
AcDbLine
 10
640.3999999999985
 20
27.15685424949178
 30
0.0
 11
642.3999999999994
 21
29.15685424949265
 31
0.0
  0
LINE
  5
2EC
330
1F
100
AcDbEntity
  8
DN40_営業図
  6
CONTINUOUS
 62
    54
100
AcDbLine
 10
640.4000000000001
 20
26.59116882454411
 30
0.0
 11
642.3999999999994
 21
28.59116882454344
 31
0.0
  0
LINE
  5
2ED
330
1F
100
AcDbEntity
  8
DN40_営業図
  6
CONTINUOUS
 62
    54
100
AcDbLine
 10
640.399999999999
 20
26.02548339959387
 30
0.0
 11
642.3999999999994
 21
28.02548339959431
 31
0.0
  0
LINE
  5
2EE
330
1F
100
AcDbEntity
  8
DN40_営業図
  6
CONTINUOUS
 62
    54
100
AcDbLine
 10
640.4000000000005
 20
25.45979797464614
 30
0.0
 11
642.3999999999994
 21
27.45979797464505
 31
0.0
  0
LINE
  5
2EF
330
1F
100
AcDbEntity
  8
DN40_営業図
  6
CONTINUOUS
 62
    54
100
AcDbLine
 10
640.3999999999969
 20
24.89411254969335
 30
0.0
 11
642.3999999999994
 21
26.89411254969588
 31
0.0
  0
LINE
  5
2F0
330
1F
100
AcDbEntity
  8
DN40_営業図
  6
CONTINUOUS
 62
    54
100
AcDbLine
 10
640.3999999999985
 20
24.32842712474568
 30
0.0
 11
642.571572875255
 21
26.50000000000228
 31
0.0
  0
LINE
  5
2F1
330
1F
100
AcDbEntity
  8
DN40_営業図
  6
CONTINUOUS
 62
    54
100
AcDbLine
 10
640.4
 20
23.76274169979801
 30
0.0
 11
643.1372583002042
 21
26.50000000000228
 31
0.0
  0
LINE
  5
2F2
330
1F
100
AcDbEntity
  8
DN40_営業図
  6
CONTINUOUS
 62
    54
100
AcDbLine
 10
640.399999999999
 20
23.19705627484772
 30
0.0
 11
645.3999999999997
 21
28.19705627484857
 31
0.0
  0
LINE
  5
2F3
330
1F
100
AcDbEntity
  8
DN40_営業図
  6
CONTINUOUS
 62
    54
100
AcDbLine
 10
640.4000000000004
 20
22.63137084990004
 30
0.0
 11
645.4000000000012
 21
27.6313708499009
 31
0.0
  0
LINE
  5
2F4
330
1F
100
AcDbEntity
  8
DN40_営業図
  6
CONTINUOUS
 62
    54
100
AcDbLine
 10
640.3999999999968
 20
22.0656854249472
 30
0.0
 11
642.3999999999997
 21
24.06568542495015
 31
0.0
  0
LINE
  5
2F5
330
1F
100
AcDbEntity
  8
DN40_営業図
  6
CONTINUOUS
 62
    54
100
AcDbLine
 10
642.8343145750512
 20
24.50000000000157
 30
0.0
 11
645.4000000000002
 21
27.06568542495061
 31
0.0
  0
LINE
  5
2F6
330
1F
100
AcDbEntity
  8
DN40_営業図
  6
CONTINUOUS
 62
    54
100
AcDbLine
 10
640.3999999999958
 20
21.49999999999702
 30
0.0
 11
642.4000000000012
 21
23.50000000000248
 31
0.0
  0
LINE
  5
2F7
330
1F
100
AcDbEntity
  8
DN40_営業図
  6
CONTINUOUS
 62
    54
100
AcDbLine
 10
643.399999999999
 20
24.50000000000009
 30
0.0
 11
645.4000000000018
 21
26.50000000000299
 31
0.0
  0
LINE
  5
2F8
330
1F
100
AcDbEntity
  8
DN40_営業図
  6
CONTINUOUS
 62
    54
100
AcDbLine
 10
640.9656854249461
 20
21.49999999999799
 30
0.0
 11
642.4000000000028
 21
22.93431457505475
 31
0.0
  0
LINE
  5
2F9
330
1F
100
AcDbEntity
  8
DN40_営業図
  6
CONTINUOUS
 62
    54
100
AcDbLine
 10
643.4000000000003
 20
23.93431457505236
 30
0.0
 11
645.3999999999982
 21
25.93431457505014
 31
0.0
  0
LINE
  5
2FA
330
1F
100
AcDbEntity
  8
DN40_営業図
  6
CONTINUOUS
 62
    54
100
AcDbLine
 10
641.5313708498962
 20
21.49999999999907
 30
0.0
 11
642.3999999999992
 21
22.36862915010196
 31
0.0
  0
LINE
  5
2FB
330
1F
100
AcDbEntity
  8
DN40_営業図
  6
CONTINUOUS
 62
    54
100
AcDbLine
 10
643.4000000000019
 20
23.36862915010469
 30
0.0
 11
645.3999999999996
 21
25.36862915010247
 31
0.0
  0
LINE
  5
2FC
330
1F
100
AcDbEntity
  8
DN40_営業図
  6
CONTINUOUS
 62
    54
100
AcDbLine
 10
642.0970562748439
 20
21.49999999999753
 30
0.0
 11
642.4000000000008
 21
21.80294372515429
 31
0.0
  0
LINE
  5
2FD
330
1F
100
AcDbEntity
  8
DN40_営業図
  6
CONTINUOUS
 62
    54
100
AcDbLine
 10
643.4000000000009
 20
22.80294372515446
 30
0.0
 11
645.4000000000012
 21
24.8029437251548
 31
0.0
  0
LINE
  5
2FE
330
1F
100
AcDbEntity
  8
DN40_営業図
  6
CONTINUOUS
 62
    54
100
AcDbLine
 10
643.4000000000024
 20
22.23725830020678
 30
0.0
 11
645.4000000000001
 21
24.23725830020457
 31
0.0
  0
LINE
  5
2FF
330
1F
100
AcDbEntity
  8
DN40_営業図
  6
CONTINUOUS
 62
    54
100
AcDbLine
 10
643.400000000004
 20
21.67157287525905
 30
0.0
 11
645.4000000000017
 21
23.67157287525684
 31
0.0
  0
LINE
  5
300
330
1F
100
AcDbEntity
  8
DN40_営業図
  6
CONTINUOUS
 62
    54
100
AcDbLine
 10
643.794112549692
 20
21.4999999999981
 30
0.0
 11
645.399999999998
 21
23.10588745030405
 31
0.0
  0
LINE
  5
301
330
1F
100
AcDbEntity
  8
DN40_営業図
  6
CONTINUOUS
 62
    54
100
AcDbLine
 10
644.359797974645
 20
21.50000000000168
 30
0.0
 11
645.3999999999996
 21
22.54020202535632
 31
0.0
  0
LINE
  5
302
330
1F
100
AcDbEntity
  8
DN40_営業図
  6
CONTINUOUS
 62
    54
100
AcDbLine
 10
644.9254833995926
 20
21.50000000000021
 30
0.0
 11
645.4000000000011
 21
21.9745166004087
 31
0.0
  0
LINE
  5
303
330
1F
100
AcDbEntity
  8
DN40_営業図
  6
CONTINUOUS
 62
    54
100
AcDbLine
 10
640.9656854249496
 20
21.4999999999993
 30
0.0
 11
640.3999999999983
 21
22.06568542495061
 31
0.0
  0
LINE
  5
304
330
1F
100
AcDbEntity
  8
DN40_営業図
  6
CONTINUOUS
 62
    54
100
AcDbLine
 10
641.5313708498973
 20
21.50000000000089
 30
0.0
 11
640.3999999999972
 21
22.6313708499009
 31
0.0
  0
LINE
  5
305
330
1F
100
AcDbEntity
  8
DN40_営業図
  6
CONTINUOUS
 62
    54
100
AcDbLine
 10
642.0970562748475
 20
21.49999999999981
 30
0.0
 11
640.3999999999962
 21
23.19705627485113
 31
0.0
  0
LINE
  5
306
330
1F
100
AcDbEntity
  8
DN40_営業図
  6
CONTINUOUS
 62
    54
100
AcDbLine
 10
642.4000000000007
 20
21.7627416997959
 30
0.0
 11
640.3999999999978
 21
23.76274169979886
 31
0.0
  0
LINE
  5
307
330
1F
100
AcDbEntity
  8
DN40_営業図
  6
CONTINUOUS
 62
    54
100
AcDbLine
 10
642.3999999999996
 20
22.32842712474613
 30
0.0
 11
640.3999999999967
 21
24.32842712474903
 31
0.0
  0
LINE
  5
308
330
1F
100
AcDbEntity
  8
DN40_営業図
  6
CONTINUOUS
 62
    54
100
AcDbLine
 10
643.7941125496932
 20
21.50000000000185
 30
0.0
 11
643.3999999999987
 21
21.89411254969625
 31
0.0
  0
LINE
  5
309
330
1F
100
AcDbEntity
  8
DN40_営業図
  6
CONTINUOUS
 62
    54
100
AcDbLine
 10
642.4000000000011
 20
22.89411254969387
 30
0.0
 11
640.3999999999983
 21
24.89411254969676
 31
0.0
  0
LINE
  5
30A
330
1F
100
AcDbEntity
  8
DN40_営業図
  6
CONTINUOUS
 62
    54
100
AcDbLine
 10
644.3597979746407
 20
21.50000000000333
 30
0.0
 11
643.3999999999976
 21
22.45979797464648
 31
0.0
  0
LINE
  5
30B
330
1F
100
AcDbEntity
  8
DN40_営業図
  6
CONTINUOUS
 62
    54
100
AcDbLine
 10
642.3999999999975
 20
23.45979797464665
 30
0.0
 11
640.3999999999971
 21
25.459797974647
 31
0.0
  0
LINE
  5
30C
330
1F
100
AcDbEntity
  8
DN40_営業図
  6
CONTINUOUS
 62
    54
100
AcDbLine
 10
644.925483399591
 20
21.50000000000231
 30
0.0
 11
643.3999999999967
 21
23.02548339959677
 31
0.0
  0
LINE
  5
30D
330
1F
100
AcDbEntity
  8
DN40_営業図
  6
CONTINUOUS
 62
    54
100
AcDbLine
 10
642.3999999999991
 20
24.02548339959439
 30
0.0
 11
640.3999999999962
 21
26.02548339959728
 31
0.0
  0
LINE
  5
30E
330
1F
100
AcDbEntity
  8
DN40_営業図
  6
CONTINUOUS
 62
    54
100
AcDbLine
 10
645.399999999996
 20
21.59116882454666
 30
0.0
 11
643.3999999999982
 21
23.59116882454439
 31
0.0
  0
LINE
  5
30F
330
1F
100
AcDbEntity
  8
DN40_営業図
  6
CONTINUOUS
 62
    54
100
AcDbLine
 10
642.4911688245434
 20
24.49999999999918
 30
0.0
 11
640.3999999999976
 21
26.5911688245449
 31
0.0
  0
LINE
  5
310
330
1F
100
AcDbEntity
  8
DN40_営業図
  6
CONTINUOUS
 62
    54
100
AcDbLine
 10
645.3999999999975
 20
22.15685424949434
 30
0.0
 11
643.3999999999996
 21
24.15685424949212
 31
0.0
  0
LINE
  5
311
330
1F
100
AcDbEntity
  8
DN40_営業図
  6
CONTINUOUS
 62
    54
100
AcDbLine
 10
643.0568542494937
 20
24.49999999999816
 30
0.0
 11
640.3999999999992
 21
27.15685424949263
 31
0.0
  0
LINE
  5
312
330
1F
100
AcDbEntity
  8
DN40_営業図
  6
CONTINUOUS
 62
    54
100
AcDbLine
 10
645.399999999999
 20
22.72253967444201
 30
0.0
 11
640.399999999998
 21
27.72253967444286
 31
0.0
  0
LINE
  5
313
330
1F
100
AcDbEntity
  8
DN40_営業図
  6
CONTINUOUS
 62
    54
100
AcDbLine
 10
645.3999999999979
 20
23.2882250993923
 30
0.0
 11
640.3999999999996
 21
28.28822509939054
 31
0.0
  0
LINE
  5
314
330
1F
100
AcDbEntity
  8
DN40_営業図
  6
CONTINUOUS
 62
    54
100
AcDbLine
 10
645.3999999999969
 20
23.85391052434253
 30
0.0
 11
642.7539105243371
 21
26.50000000000228
 31
0.0
  0
LINE
  5
315
330
1F
100
AcDbEntity
  8
DN40_営業図
  6
CONTINUOUS
 62
    54
100
AcDbLine
 10
645.3999999999959
 20
24.41959594929282
 30
0.0
 11
643.3195959492864
 21
26.50000000000228
 31
0.0
  0
LINE
  5
316
330
1F
100
AcDbEntity
  8
DN40_営業図
  6
CONTINUOUS
 62
    54
100
AcDbLine
 10
645.3999999999974
 20
24.98528137424044
 30
0.0
 11
643.3999999999997
 21
26.98528137423809
 31
0.0
  0
LINE
  5
317
330
1F
100
AcDbEntity
  8
DN40_営業図
  6
CONTINUOUS
 62
    54
100
AcDbLine
 10
645.399999999999
 20
25.55096679918817
 30
0.0
 11
643.3999999999997
 21
27.55096679918734
 31
0.0
  0
LINE
  5
318
330
1F
100
AcDbEntity
  8
DN40_営業図
  6
CONTINUOUS
 62
    54
100
AcDbLine
 10
645.4000000000004
 20
26.11665222413578
 30
0.0
 11
643.3999999999997
 21
28.11665222413649
 31
0.0
  0
LINE
  5
319
330
1F
100
AcDbEntity
  8
DN40_営業図
  6
CONTINUOUS
 62
    54
100
AcDbLine
 10
645.3999999999994
 20
26.68233764908607
 30
0.0
 11
643.3999999999997
 21
28.6823376490857
 31
0.0
  0
LINE
  5
31A
330
1F
100
AcDbEntity
  8
DN40_営業図
  6
CONTINUOUS
 62
    54
100
AcDbLine
 10
645.3999999999983
 20
27.2480230740363
 30
0.0
 11
643.3999999999997
 21
29.24802307403485
 31
0.0
  0
LINE
  5
31B
330
1F
100
AcDbEntity
  8
DN40_営業図
  6
CONTINUOUS
 62
    54
100
AcDbLine
 10
645.3999999999974
 20
27.81370849898659
 30
0.0
 11
643.3999999999997
 21
29.81370849898421
 31
0.0
  0
LINE
  5
31C
330
1F
100
AcDbEntity
  8
DN40_営業図
  6
CONTINUOUS
 62
    54
100
AcDbLine
 10
645.3999999999988
 20
28.37939392393427
 30
0.0
 11
643.3999999999997
 21
30.37939392393336
 31
0.0
  0
LINE
  5
31D
330
1F
100
AcDbEntity
  8
DN40_営業図
  6
CONTINUOUS
 62
    54
100
AcDbLine
 10
645.3999999999978
 20
28.9450793488845
 30
0.0
 11
643.3999999999997
 21
30.94507934888254
 31
0.0
  0
LINE
  5
31E
330
1F
100
AcDbEntity
  8
DN40_営業図
  6
CONTINUOUS
 62
    54
100
AcDbLine
 10
645.3999999999993
 20
29.51076477383217
 30
0.0
 11
643.3999999999997
 21
31.51076477383175
 31
0.0
  0
LINE
  5
31F
330
1F
100
AcDbEntity
  8
DN40_営業図
  6
CONTINUOUS
 62
    54
100
AcDbLine
 10
645.3999999999983
 20
30.0764501987824
 30
0.0
 11
643.3999999999997
 21
32.0764501987809
 31
0.0
  0
LINE
  5
320
330
1F
100
AcDbEntity
  8
DN40_営業図
  6
CONTINUOUS
 62
    54
100
AcDbLine
 10
645.3999999999972
 20
30.64213562373269
 30
0.0
 11
643.3999999999997
 21
32.64213562373016
 31
0.0
  0
LINE
  5
321
330
1F
100
AcDbEntity
  8
DN40_営業図
  6
CONTINUOUS
 62
    54
100
AcDbLine
 10
645.3999999999987
 20
31.20782104868031
 30
0.0
 11
643.3999999999997
 21
33.20782104867923
 31
0.0
  0
LINE
  5
322
330
1F
100
AcDbEntity
  8
DN40_営業図
  6
CONTINUOUS
 62
    54
100
AcDbLine
 10
645.3999999999977
 20
31.7735064736306
 30
0.0
 11
643.3999999999997
 21
33.77350647362851
 31
0.0
  0
LINE
  5
323
330
1F
100
AcDbEntity
  8
DN40_営業図
  6
CONTINUOUS
 62
    54
100
AcDbLine
 10
645.3999999999967
 20
32.33919189858083
 30
0.0
 11
643.3999999999997
 21
34.33919189857776
 31
0.0
  0
LINE
  5
324
330
1F
100
AcDbEntity
  8
DN40_営業図
  6
CONTINUOUS
 62
    54
100
AcDbLine
 10
645.3999999999983
 20
32.90487732352856
 30
0.0
 11
643.3999999999997
 21
34.90487732352704
 31
0.0
  0
LINE
  5
325
330
1F
100
AcDbEntity
  8
DN40_営業図
  6
CONTINUOUS
 62
    54
100
AcDbLine
 10
645.3999999999996
 20
33.47056274847618
 30
0.0
 11
643.3999999999997
 21
35.47056274847611
 31
0.0
  0
LINE
  5
326
330
1F
100
AcDbEntity
  8
DN40_営業図
  6
CONTINUOUS
 62
    54
100
AcDbLine
 10
645.3999999999987
 20
34.03624817342646
 30
0.0
 11
643.3985790153309
 21
36.03766915809431
 31
0.0
  0
LINE
  5
327
330
1F
100
AcDbEntity
  8
DN40_営業図
  6
CONTINUOUS
 62
    54
100
AcDbLine
 10
645.3999999999976
 20
34.6019335983767
 30
0.0
 11
641.6484939256924
 21
38.35343967268191
 31
0.0
  0
LINE
  5
328
330
1F
100
AcDbEntity
  8
DN40_営業図
  6
CONTINUOUS
 62
    54
100
AcDbLine
 10
645.3999999999966
 20
35.16761902332698
 30
0.0
 11
642.0915478523817
 21
38.47607117094183
 31
0.0
  0
LINE
  5
329
330
1F
100
AcDbEntity
  8
DN40_営業図
  6
CONTINUOUS
 62
    54
100
AcDbLine
 10
645.399999999998
 20
35.7333044482746
 30
0.0
 11
642.6333044482715
 21
38.50000000000117
 31
0.0
  0
LINE
  5
32A
330
1F
100
AcDbEntity
  8
DN40_営業図
  6
CONTINUOUS
 62
    54
100
AcDbLine
 10
645.3999999999996
 20
36.29898987322233
 30
0.0
 11
643.1989898732218
 21
38.50000000000015
 31
0.0
  0
LINE
  5
32B
330
1F
100
AcDbEntity
  8
DN40_営業図
  6
CONTINUOUS
 62
    54
100
AcDbLine
 10
645.3582742982763
 20
36.90640099989478
 30
0.0
 11
643.8064009998968
 21
38.4582742982743
 31
0.0
  0
LINE
  5
32C
330
1F
100
AcDbEntity
  8
DN40_営業図
  6
CONTINUOUS
 62
    54
100
AcDbLine
 10
642.9455844122707
 20
36.49066376115443
 30
0.0
 11
644.5740547882795
 21
38.11913413716312
 31
0.0
  0
LINE
  5
32D
330
1F
100
AcDbEntity
  8
DN40_営業図
  6
CONTINUOUS
 62
    54
100
AcDbLine
 10
642.5320344888223
 20
36.33852825965355
 30
0.0
 11
640.9711444070193
 21
37.89941834145655
 31
0.0
  0
LINE
  5
32E
330
1F
100
AcDbEntity
  8
DN40_営業図
  6
CONTINUOUS
 62
    54
100
AcDbLine
 10
642.3999999999994
 20
35.90487732352738
 30
0.0
 11
640.7198840516376
 21
37.58499327188921
 31
0.0
  0
LINE
  5
32F
330
1F
100
AcDbEntity
  8
DN40_営業図
  6
CONTINUOUS
 62
    54
100
AcDbLine
 10
643.3086757459247
 20
36.28806966985909
 30
0.0
 11
644.8732303339693
 21
37.85262425790379
 31
0.0
  0
LINE
  5
330
330
1F
100
AcDbEntity
  8
DN40_営業図
  6
CONTINUOUS
 62
    54
100
AcDbLine
 10
642.9455844122707
 20
36.49066376115444
 30
0.0
 11
641.2795602696251
 21
38.15668790380003
 31
0.0
  0
LINE
  5
331
330
1F
100
AcDbEntity
  8
DN40_営業図
  6
CONTINUOUS
 62
    54
100
AcDbLine
 10
643.3999999999997
 20
35.81370849898504
 30
0.0
 11
645.115097278044
 21
37.52880577702931
 31
0.0
  0
LINE
  5
332
330
1F
100
AcDbEntity
  8
DN40_営業図
  6
CONTINUOUS
 62
    54
100
AcDbLine
 10
642.3999999999994
 20
35.33919189857807
 30
0.0
 11
640.5299715319023
 21
37.20922036667512
 31
0.0
  0
LINE
  5
333
330
1F
100
AcDbEntity
  8
DN40_営業図
  6
CONTINUOUS
 62
    54
100
AcDbLine
 10
642.3999999999994
 20
34.77350647362886
 30
0.0
 11
640.4165724362965
 21
36.75693403733172
 31
0.0
  0
LINE
  5
334
330
1F
100
AcDbEntity
  8
DN40_営業図
  6
CONTINUOUS
 62
    54
100
AcDbLine
 10
642.3999999999994
 20
34.2078210486796
 30
0.0
 11
640.3999999999978
 21
36.20782104868116
 31
0.0
  0
LINE
  5
335
330
1F
100
AcDbEntity
  8
DN40_営業図
  6
CONTINUOUS
 62
    54
100
AcDbLine
 10
643.3999999999997
 20
35.24802307403593
 30
0.0
 11
645.2941124491219
 21
37.1421355231581
 31
0.0
  0
LINE
  5
336
330
1F
100
AcDbEntity
  8
DN40_営業図
  6
CONTINUOUS
 62
    54
100
AcDbLine
 10
643.3999999999997
 20
34.68233764908661
 30
0.0
 11
645.3923559303748
 21
36.67469357946172
 31
0.0
  0
LINE
  5
337
330
1F
100
AcDbEntity
  8
DN40_営業図
  6
CONTINUOUS
 62
    54
100
AcDbLine
 10
643.3999999999997
 20
34.11665222413752
 30
0.0
 11
645.4000000000015
 21
36.11665222413925
 31
0.0
  0
LINE
  5
338
330
1F
100
AcDbEntity
  8
DN40_営業図
  6
CONTINUOUS
 62
    54
100
AcDbLine
 10
643.3999999999997
 20
33.55096679918825
 30
0.0
 11
645.400000000003
 21
35.55096679919152
 31
0.0
  0
LINE
  5
339
330
1F
100
AcDbEntity
  8
DN40_営業図
  6
CONTINUOUS
 62
    54
100
AcDbLine
 10
643.3999999999997
 20
32.98528137423913
 30
0.0
 11
645.4000000000019
 21
34.98528137424129
 31
0.0
  0
LINE
  5
33A
330
1F
100
AcDbEntity
  8
DN40_営業図
  6
CONTINUOUS
 62
    54
100
AcDbLine
 10
643.3999999999997
 20
32.41959594928979
 30
0.0
 11
645.400000000001
 21
34.419595949291
 31
0.0
  0
LINE
  5
33B
330
1F
100
AcDbEntity
  8
DN40_営業図
  6
CONTINUOUS
 62
    54
100
AcDbLine
 10
643.3999999999997
 20
31.85391052434068
 30
0.0
 11
645.3999999999999
 21
33.85391052434083
 31
0.0
  0
LINE
  5
33C
330
1F
100
AcDbEntity
  8
DN40_営業図
  6
CONTINUOUS
 62
    54
100
AcDbLine
 10
643.3999999999997
 20
31.28822509939142
 30
0.0
 11
645.4000000000015
 21
33.2882250993931
 31
0.0
  0
LINE
  5
33D
330
1F
100
AcDbEntity
  8
DN40_営業図
  6
CONTINUOUS
 62
    54
100
AcDbLine
 10
643.3999999999997
 20
30.72253967444225
 30
0.0
 11
645.4000000000003
 21
32.72253967444286
 31
0.0
  0
LINE
  5
33E
330
1F
100
AcDbEntity
  8
DN40_営業図
  6
CONTINUOUS
 62
    54
100
AcDbLine
 10
643.3999999999997
 20
30.15685424949303
 30
0.0
 11
645.4000000000019
 21
32.15685424949519
 31
0.0
  0
LINE
  5
33F
330
1F
100
AcDbEntity
  8
DN40_営業図
  6
CONTINUOUS
 62
    54
100
AcDbLine
 10
643.3999999999997
 20
29.59116882454376
 30
0.0
 11
645.4000000000035
 21
31.59116882454752
 31
0.0
  0
LINE
  5
340
330
1F
100
AcDbEntity
  8
DN40_営業図
  6
CONTINUOUS
 62
    54
100
AcDbLine
 10
643.3999999999997
 20
29.02548339959464
 30
0.0
 11
645.3999999999999
 21
31.02548339959473
 31
0.0
  0
LINE
  5
341
330
1F
100
AcDbEntity
  8
DN40_営業図
  6
CONTINUOUS
 62
    54
100
AcDbLine
 10
643.3999999999997
 20
28.45979797464538
 30
0.0
 11
645.4000000000013
 21
30.459797974647
 31
0.0
  0
LINE
  5
342
330
1F
100
AcDbEntity
  8
DN40_営業図
  6
CONTINUOUS
 62
    54
100
AcDbLine
 10
643.3999999999997
 20
27.8941125496962
 30
0.0
 11
645.4000000000003
 21
29.89411254969676
 31
0.0
  0
LINE
  5
343
330
1F
100
AcDbEntity
  8
DN40_営業図
  6
CONTINUOUS
 62
    54
100
AcDbLine
 10
643.3999999999997
 20
27.32842712474693
 30
0.0
 11
645.4000000000019
 21
29.32842712474909
 31
0.0
  0
LINE
  5
344
330
1F
100
AcDbEntity
  8
DN40_営業図
  6
CONTINUOUS
 62
    54
100
AcDbLine
 10
643.3999999999997
 20
26.76274169979778
 30
0.0
 11
645.4000000000034
 21
28.76274169980142
 31
0.0
  0
LINE
  5
345
330
1F
100
AcDbEntity
  8
DN40_営業図
  6
CONTINUOUS
 62
    54
100
AcDbLine
 10
642.3999999999994
 20
26.85391052434003
 30
0.0
 11
640.3999999999986
 21
28.85391052434077
 31
0.0
  0
LINE
  5
346
330
1F
100
AcDbEntity
  8
DN40_営業図
  6
CONTINUOUS
 62
    54
100
AcDbLine
 10
642.3999999999994
 20
27.41959594928925
 30
0.0
 11
640.3999999999976
 21
29.41959594929106
 31
0.0
  0
LINE
  5
347
330
1F
100
AcDbEntity
  8
DN40_営業図
  6
CONTINUOUS
 62
    54
100
AcDbLine
 10
642.3999999999994
 20
27.98528137423845
 30
0.0
 11
640.3999999999992
 21
29.98528137423873
 31
0.0
  0
LINE
  5
348
330
1F
100
AcDbEntity
  8
DN40_営業図
  6
CONTINUOUS
 62
    54
100
AcDbLine
 10
642.3999999999994
 20
28.55096679918767
 30
0.0
 11
640.4000000000007
 21
30.5509667991864
 31
0.0
  0
LINE
  5
349
330
1F
100
AcDbEntity
  8
DN40_営業図
  6
CONTINUOUS
 62
    54
100
AcDbLine
 10
642.3999999999994
 20
29.11665222413684
 30
0.0
 11
640.3999999999996
 21
31.11665222413664
 31
0.0
  0
LINE
  5
34A
330
1F
100
AcDbEntity
  8
DN40_営業図
  6
CONTINUOUS
 62
    54
100
AcDbLine
 10
642.3999999999994
 20
29.68233764908603
 30
0.0
 11
640.3999999999985
 21
31.68233764908693
 31
0.0
  0
LINE
  5
34B
330
1F
100
AcDbEntity
  8
DN40_営業図
  6
CONTINUOUS
 62
    54
100
AcDbLine
 10
642.3999999999994
 20
30.2480230740352
 30
0.0
 11
640.3999999999975
 21
32.24802307403716
 31
0.0
  0
LINE
  5
34C
330
1F
100
AcDbEntity
  8
DN40_営業図
  6
CONTINUOUS
 62
    54
100
AcDbLine
 10
642.3999999999994
 20
30.81370849898456
 30
0.0
 11
640.3999999999991
 21
32.81370849898489
 31
0.0
  0
LINE
  5
34D
330
1F
100
AcDbEntity
  8
DN40_営業図
  6
CONTINUOUS
 62
    54
100
AcDbLine
 10
642.3999999999994
 20
31.37939392393368
 30
0.0
 11
640.399999999998
 21
33.37939392393506
 31
0.0
  0
LINE
  5
34E
330
1F
100
AcDbEntity
  8
DN40_営業図
  6
CONTINUOUS
 62
    54
100
AcDbLine
 10
642.3999999999994
 20
31.94507934888286
 30
0.0
 11
640.3999999999969
 21
33.94507934888535
 31
0.0
  0
LINE
  5
34F
330
1F
100
AcDbEntity
  8
DN40_営業図
  6
CONTINUOUS
 62
    54
100
AcDbLine
 10
642.3999999999994
 20
32.5107647738321
 30
0.0
 11
640.3999999999985
 21
34.51076477383302
 31
0.0
  0
LINE
  5
350
330
1F
100
AcDbEntity
  8
DN40_営業図
  6
CONTINUOUS
 62
    54
100
AcDbLine
 10
642.3999999999994
 20
33.07645019878122
 30
0.0
 11
640.3999999999974
 21
35.07645019878326
 31
0.0
  0
LINE
  5
351
330
1F
100
AcDbEntity
  8
DN40_営業図
  6
CONTINUOUS
 62
    54
100
AcDbLine
 10
642.3999999999994
 20
33.6421356237305
 30
0.0
 11
640.399999999999
 21
35.64213562373093
 31
0.0
  0
LINE
  5
352
330
1F
100
AcDbEntity
  8
DN40_営業図
  6
CONTINUOUS
 62
    54
100
AcDbLine
 10
646.3999999999993
 20
38.47056274847669
 30
0.0
 11
646.4294372515199
 21
38.49999999999731
 31
0.0
  0
LINE
  5
353
330
1F
100
AcDbEntity
  8
DN40_営業図
  6
CONTINUOUS
 62
    54
100
AcDbLine
 10
646.3999999999983
 20
37.90487732352651
 30
0.0
 11
646.9951226764726
 21
38.50000000000095
 31
0.0
  0
LINE
  5
354
330
1F
100
AcDbEntity
  8
DN40_営業図
  6
CONTINUOUS
 62
    54
100
AcDbLine
 10
646.3999999999999
 20
37.33919189857878
 30
0.0
 11
647.5608081014204
 21
38.49999999999941
 31
0.0
  0
LINE
  5
355
330
1F
100
AcDbEntity
  8
DN40_営業図
  6
CONTINUOUS
 62
    54
100
AcDbLine
 10
646.3999999999987
 20
36.77350647362855
 30
0.0
 11
648.1264935263706
 21
38.50000000000043
 31
0.0
  0
LINE
  5
356
330
1F
100
AcDbEntity
  8
DN40_営業図
  6
CONTINUOUS
 62
    54
100
AcDbLine
 10
646.3999999999977
 20
36.20782104867826
 30
0.0
 11
648.4000000000005
 21
38.20782104868116
 31
0.0
  0
LINE
  5
357
330
1F
100
AcDbEntity
  8
DN40_営業図
  6
CONTINUOUS
 62
    54
100
AcDbLine
 10
646.3999999999992
 20
35.64213562373065
 30
0.0
 11
648.3999999999969
 21
37.64213562372837
 31
0.0
  0
LINE
  5
358
330
1F
100
AcDbEntity
  8
DN40_営業図
  6
CONTINUOUS
 62
    54
100
AcDbLine
 10
646.4000000000008
 20
35.07645019878291
 30
0.0
 11
648.3999999999985
 21
37.0764501987807
 31
0.0
  0
LINE
  5
359
330
1F
100
AcDbEntity
  8
DN40_営業図
  6
CONTINUOUS
 62
    54
100
AcDbLine
 10
646.3999999999996
 20
34.51076477383268
 30
0.0
 11
648.4000000000001
 21
36.51076477383302
 31
0.0
  0
LINE
  5
35A
330
1F
100
AcDbEntity
  8
DN40_営業図
  6
CONTINUOUS
 62
    54
100
AcDbLine
 10
646.3999999999961
 20
33.94507934887989
 30
0.0
 11
648.399999999999
 21
35.94507934888279
 31
0.0
  0
LINE
  5
35B
330
1F
100
AcDbEntity
  8
DN40_営業図
  6
CONTINUOUS
 62
    54
100
AcDbLine
 10
646.3999999999976
 20
33.37939392393216
 30
0.0
 11
648.4000000000005
 21
35.37939392393512
 31
0.0
  0
LINE
  5
35C
330
1F
100
AcDbEntity
  8
DN40_営業図
  6
CONTINUOUS
 62
    54
100
AcDbLine
 10
646.3999999999992
 20
32.81370849898455
 30
0.0
 11
648.3999999999969
 21
34.81370849898233
 31
0.0
  0
LINE
  5
35D
330
1F
100
AcDbEntity
  8
DN40_営業図
  6
CONTINUOUS
 62
    54
100
AcDbLine
 10
646.399999999998
 20
32.24802307403426
 30
0.0
 11
648.3999999999985
 21
34.2480230740346
 31
0.0
  0
LINE
  5
35E
330
1F
100
AcDbEntity
  8
DN40_営業図
  6
CONTINUOUS
 62
    54
100
AcDbLine
 10
646.3999999999996
 20
31.68233764908658
 30
0.0
 11
648.4
 21
33.68233764908693
 31
0.0
  0
LINE
  5
35F
330
1F
100
AcDbEntity
  8
DN40_営業図
  6
CONTINUOUS
 62
    54
100
AcDbLine
 10
646.4000000000012
 20
31.11665222413891
 30
0.0
 11
648.399999999999
 21
33.11665222413664
 31
0.0
  0
LINE
  5
360
330
1F
100
AcDbEntity
  8
DN40_営業図
  6
CONTINUOUS
 62
    54
100
AcDbLine
 10
646.3999999999976
 20
30.55096679918612
 30
0.0
 11
648.4000000000005
 21
32.55096679918902
 31
0.0
  0
LINE
  5
361
330
1F
100
AcDbEntity
  8
DN40_営業図
  6
CONTINUOUS
 62
    54
100
AcDbLine
 10
646.3999999999991
 20
29.98528137423839
 30
0.0
 11
648.4000000000019
 21
31.98528137424129
 31
0.0
  0
LINE
  5
362
330
1F
100
AcDbEntity
  8
DN40_営業図
  6
CONTINUOUS
 62
    54
100
AcDbLine
 10
646.399999999998
 20
29.41959594928816
 30
0.0
 11
648.3999999999984
 21
31.4195959492885
 31
0.0
  0
LINE
  5
363
330
1F
100
AcDbEntity
  8
DN40_営業図
  6
CONTINUOUS
 62
    54
100
AcDbLine
 10
646.3999999999996
 20
28.85391052434048
 30
0.0
 11
648.3999999999974
 21
30.85391052433821
 31
0.0
  0
LINE
  5
364
330
1F
100
AcDbEntity
  8
DN40_営業図
  6
CONTINUOUS
 62
    54
100
AcDbLine
 10
646.4000000000011
 20
28.28822509939281
 30
0.0
 11
648.399999999999
 21
30.28822509939059
 31
0.0
  0
LINE
  5
365
330
1F
100
AcDbEntity
  8
DN40_営業図
  6
CONTINUOUS
 62
    54
100
AcDbLine
 10
646.3999999999975
 20
27.72253967443996
 30
0.0
 11
648.4000000000003
 21
29.72253967444286
 31
0.0
  0
LINE
  5
366
330
1F
100
AcDbEntity
  8
DN40_営業図
  6
CONTINUOUS
 62
    54
100
AcDbLine
 10
646.399999999999
 20
27.15685424949229
 30
0.0
 11
648.3999999999967
 21
29.15685424949007
 31
0.0
  0
LINE
  5
367
330
1F
100
AcDbEntity
  8
DN40_営業図
  6
CONTINUOUS
 62
    54
100
AcDbLine
 10
646.3999999999979
 20
26.591168824542
 30
0.0
 11
648.3999999999983
 21
28.59116882454234
 31
0.0
  0
LINE
  5
368
330
1F
100
AcDbEntity
  8
DN40_営業図
  6
CONTINUOUS
 62
    54
100
AcDbLine
 10
646.3999999999994
 20
26.02548339959439
 30
0.0
 11
648.3999999999999
 21
28.02548339959473
 31
0.0
  0
LINE
  5
369
330
1F
100
AcDbEntity
  8
DN40_営業図
  6
CONTINUOUS
 62
    54
100
AcDbLine
 10
646.400000000001
 20
25.45979797464665
 30
0.0
 11
648.3999999999987
 21
27.45979797464444
 31
0.0
  0
LINE
  5
36A
330
1F
100
AcDbEntity
  8
DN40_営業図
  6
CONTINUOUS
 62
    54
100
AcDbLine
 10
646.3999999999974
 20
24.89411254969387
 30
0.0
 11
648.4000000000003
 21
26.89411254969676
 31
0.0
  0
LINE
  5
36B
330
1F
100
AcDbEntity
  8
DN40_営業図
  6
CONTINUOUS
 62
    54
100
AcDbLine
 10
646.399999999999
 20
24.32842712474613
 30
0.0
 11
648.4000000000019
 21
26.32842712474909
 31
0.0
  0
LINE
  5
36C
330
1F
100
AcDbEntity
  8
DN40_営業図
  6
CONTINUOUS
 62
    54
100
AcDbLine
 10
646.3999999999978
 20
23.76274169979596
 30
0.0
 11
648.3999999999983
 21
25.7627416997963
 31
0.0
  0
LINE
  5
36D
330
1F
100
AcDbEntity
  8
DN40_営業図
  6
CONTINUOUS
 62
    54
100
AcDbLine
 10
646.3999999999994
 20
23.19705627484823
 30
0.0
 11
648.3999999999971
 21
25.19705627484601
 31
0.0
  0
LINE
  5
36E
330
1F
100
AcDbEntity
  8
DN40_営業図
  6
CONTINUOUS
 62
    54
100
AcDbLine
 10
646.4000000000009
 20
22.63137084990056
 30
0.0
 11
648.3999999999987
 21
24.63137084989834
 31
0.0
  0
LINE
  5
36F
330
1F
100
AcDbEntity
  8
DN40_営業図
  6
CONTINUOUS
 62
    54
100
AcDbLine
 10
646.3999999999974
 20
22.06568542494771
 30
0.0
 11
648.4000000000002
 21
24.06568542495061
 31
0.0
  0
LINE
  5
370
330
1F
100
AcDbEntity
  8
DN40_営業図
  6
CONTINUOUS
 62
    54
100
AcDbLine
 10
646.3999999999988
 20
21.50000000000009
 30
0.0
 11
648.3999999999992
 21
23.50000000000043
 31
0.0
  0
LINE
  5
371
330
1F
100
AcDbEntity
  8
DN40_営業図
  6
CONTINUOUS
 62
    54
100
AcDbLine
 10
646.9656854249465
 20
21.49999999999856
 30
0.0
 11
648.3999999999982
 21
22.9343145750502
 31
0.0
  0
LINE
  5
372
330
1F
100
AcDbEntity
  8
DN40_営業図
  6
CONTINUOUS
 62
    54
100
AcDbLine
 10
647.5313708498968
 20
21.49999999999958
 30
0.0
 11
648.3999999999996
 21
22.36862915010247
 31
0.0
  0
LINE
  5
373
330
1F
100
AcDbEntity
  8
DN40_営業図
  6
CONTINUOUS
 62
    54
100
AcDbLine
 10
648.0970562748471
 20
21.50000000000066
 30
0.0
 11
648.3999999999986
 21
21.80294372515224
 31
0.0
  0
LINE
  5
374
330
1F
100
AcDbEntity
  8
DN40_営業図
  6
CONTINUOUS
 62
    54
100
AcDbLine
 10
646.9656854249502
 20
21.49999999999884
 30
0.0
 11
646.4000000000013
 21
22.06568542494754
 31
0.0
  0
LINE
  5
375
330
1F
100
AcDbEntity
  8
DN40_営業図
  6
CONTINUOUS
 62
    54
100
AcDbLine
 10
647.5313708498977
 20
21.50000000000038
 30
0.0
 11
646.4000000000029
 21
22.63137084989527
 31
0.0
  0
LINE
  5
376
330
1F
100
AcDbEntity
  8
DN40_営業図
  6
CONTINUOUS
 62
    54
100
AcDbLine
 10
648.097056274848
 20
21.4999999999993
 30
0.0
 11
646.3999999999993
 21
23.19705627484806
 31
0.0
  0
LINE
  5
377
330
1F
100
AcDbEntity
  8
DN40_営業図
  6
CONTINUOUS
 62
    54
100
AcDbLine
 10
648.4000000000012
 20
21.76274169979539
 30
0.0
 11
646.4000000000008
 21
23.76274169979573
 31
0.0
  0
LINE
  5
378
330
1F
100
AcDbEntity
  8
DN40_営業図
  6
CONTINUOUS
 62
    54
100
AcDbLine
 10
648.4000000000001
 20
22.32842712474562
 30
0.0
 11
646.4000000000024
 21
24.32842712474341
 31
0.0
  0
LINE
  5
379
330
1F
100
AcDbEntity
  8
DN40_営業図
  6
CONTINUOUS
 62
    54
100
AcDbLine
 10
648.4000000000017
 20
22.89411254969335
 30
0.0
 11
646.4000000000012
 21
24.89411254969369
 31
0.0
  0
LINE
  5
37A
330
1F
100
AcDbEntity
  8
DN40_営業図
  6
CONTINUOUS
 62
    54
100
AcDbLine
 10
648.4000000000005
 20
23.45979797464359
 30
0.0
 11
646.4000000000003
 21
25.45979797464393
 31
0.0
  0
LINE
  5
37B
330
1F
100
AcDbEntity
  8
DN40_営業図
  6
CONTINUOUS
 62
    54
100
AcDbLine
 10
648.4000000000021
 20
24.02548339959126
 30
0.0
 11
646.4000000000018
 21
26.0254833995916
 31
0.0
  0
LINE
  5
37C
330
1F
100
AcDbEntity
  8
DN40_営業図
  6
CONTINUOUS
 62
    54
100
AcDbLine
 10
648.400000000001
 20
24.59116882454149
 30
0.0
 11
646.4000000000008
 21
26.59116882454183
 31
0.0
  0
LINE
  5
37D
330
1F
100
AcDbEntity
  8
DN40_営業図
  6
CONTINUOUS
 62
    54
100
AcDbLine
 10
648.4000000000026
 20
25.15685424948922
 30
0.0
 11
646.4000000000021
 21
27.15685424948956
 31
0.0
  0
LINE
  5
37E
330
1F
100
AcDbEntity
  8
DN40_営業図
  6
CONTINUOUS
 62
    54
100
AcDbLine
 10
648.4000000000016
 20
25.72253967443945
 30
0.0
 11
646.3999999999986
 21
27.72253967444235
 31
0.0
  0
LINE
  5
37F
330
1F
100
AcDbEntity
  8
DN40_営業図
  6
CONTINUOUS
 62
    54
100
AcDbLine
 10
648.4000000000005
 20
26.28822509938968
 30
0.0
 11
646.4000000000001
 21
28.28822509938997
 31
0.0
  0
LINE
  5
380
330
1F
100
AcDbEntity
  8
DN40_営業図
  6
CONTINUOUS
 62
    54
100
AcDbLine
 10
648.3999999999994
 20
26.85391052433992
 30
0.0
 11
646.4000000000017
 21
28.8539105243377
 31
0.0
  0
LINE
  5
381
330
1F
100
AcDbEntity
  8
DN40_営業図
  6
CONTINUOUS
 62
    54
100
AcDbLine
 10
648.400000000001
 20
27.41959594928759
 30
0.0
 11
646.4000000000005
 21
29.41959594928793
 31
0.0
  0
LINE
  5
382
330
1F
100
AcDbEntity
  8
DN40_営業図
  6
CONTINUOUS
 62
    54
100
AcDbLine
 10
648.4000000000026
 20
27.98528137423532
 30
0.0
 11
646.4000000000021
 21
29.98528137423566
 31
0.0
  0
LINE
  5
383
330
1F
100
AcDbEntity
  8
DN40_営業図
  6
CONTINUOUS
 62
    54
100
AcDbLine
 10
648.4000000000015
 20
28.5509667991855
 30
0.0
 11
646.4000000000011
 21
30.55096679918584
 31
0.0
  0
LINE
  5
384
330
1F
100
AcDbEntity
  8
DN40_営業図
  6
CONTINUOUS
 62
    54
100
AcDbLine
 10
648.4000000000004
 20
29.11665222413578
 30
0.0
 11
646.4000000000001
 21
31.11665222413612
 31
0.0
  0
LINE
  5
385
330
1F
100
AcDbEntity
  8
DN40_営業図
  6
CONTINUOUS
 62
    54
100
AcDbLine
 10
648.4000000000019
 20
29.68233764908346
 30
0.0
 11
646.4000000000016
 21
31.6823376490838
 31
0.0
  0
LINE
  5
386
330
1F
100
AcDbEntity
  8
DN40_営業図
  6
CONTINUOUS
 62
    54
100
AcDbLine
 10
648.4000000000009
 20
30.24802307403375
 30
0.0
 11
646.4000000000005
 21
32.24802307403409
 31
0.0
  0
LINE
  5
387
330
1F
100
AcDbEntity
  8
DN40_営業図
  6
CONTINUOUS
 62
    54
100
AcDbLine
 10
648.3999999999999
 20
30.81370849898398
 30
0.0
 11
646.3999999999995
 21
32.81370849898432
 31
0.0
  0
LINE
  5
388
330
1F
100
AcDbEntity
  8
DN40_営業図
  6
CONTINUOUS
 62
    54
100
AcDbLine
 10
648.4000000000015
 20
31.37939392393165
 30
0.0
 11
646.400000000001
 21
33.37939392393199
 31
0.0
  0
LINE
  5
389
330
1F
100
AcDbEntity
  8
DN40_営業図
  6
CONTINUOUS
 62
    54
100
AcDbLine
 10
648.4000000000003
 20
31.94507934888188
 30
0.0
 11
646.4
 21
33.94507934888222
 31
0.0
  0
LINE
  5
38A
330
1F
100
AcDbEntity
  8
DN40_営業図
  6
CONTINUOUS
 62
    54
100
AcDbLine
 10
648.4000000000019
 20
32.51076477382961
 30
0.0
 11
646.4000000000016
 21
34.51076477382995
 31
0.0
  0
LINE
  5
38B
330
1F
100
AcDbEntity
  8
DN40_営業図
  6
CONTINUOUS
 62
    54
100
AcDbLine
 10
648.4000000000008
 20
33.07645019877985
 30
0.0
 11
646.4000000000005
 21
35.07645019878019
 31
0.0
  0
LINE
  5
38C
330
1F
100
AcDbEntity
  8
DN40_営業図
  6
CONTINUOUS
 62
    54
100
AcDbLine
 10
648.4000000000024
 20
33.64213562372752
 30
0.0
 11
646.400000000002
 21
35.64213562372786
 31
0.0
  0
LINE
  5
38D
330
1F
100
AcDbEntity
  8
DN40_営業図
  6
CONTINUOUS
 62
    54
100
AcDbLine
 10
648.4000000000012
 20
34.20782104867775
 30
0.0
 11
646.400000000001
 21
36.20782104867809
 31
0.0
  0
LINE
  5
38E
330
1F
100
AcDbEntity
  8
DN40_営業図
  6
CONTINUOUS
 62
    54
100
AcDbLine
 10
648.4000000000003
 20
34.77350647362804
 30
0.0
 11
646.3999999999999
 21
36.77350647362838
 31
0.0
  0
LINE
  5
38F
330
1F
100
AcDbEntity
  8
DN40_営業図
  6
CONTINUOUS
 62
    54
100
AcDbLine
 10
648.4000000000018
 20
35.33919189857571
 30
0.0
 11
646.4000000000015
 21
37.339191898576
 31
0.0
  0
LINE
  5
390
330
1F
100
AcDbEntity
  8
DN40_営業図
  6
CONTINUOUS
 62
    54
100
AcDbLine
 10
648.4000000000008
 20
35.90487732352594
 30
0.0
 11
646.4000000000004
 21
37.90487732352629
 31
0.0
  0
LINE
  5
391
330
1F
100
AcDbEntity
  8
DN40_営業図
  6
CONTINUOUS
 62
    54
100
AcDbLine
 10
648.3999999999996
 20
36.47056274847618
 30
0.0
 11
646.3999999999994
 21
38.47056274847652
 31
0.0
  0
LINE
  5
392
330
1F
100
AcDbEntity
  8
DN40_営業図
  6
CONTINUOUS
 62
    54
100
AcDbLine
 10
648.4000000000012
 20
37.03624817342391
 30
0.0
 11
646.9362481734239
 21
38.50000000000123
 31
0.0
  0
LINE
  5
393
330
1F
100
AcDbEntity
  8
DN40_営業図
  6
CONTINUOUS
 62
    54
100
AcDbLine
 10
648.4000000000002
 20
37.60193359837414
 30
0.0
 11
647.5019335983716
 21
38.50000000000276
 31
0.0
  0
LINE
  5
394
330
1F
100
AcDbEntity
  8
DN40_営業図
  6
CONTINUOUS
 62
    54
100
AcDbLine
 10
648.4000000000017
 20
38.16761902332176
 30
0.0
 11
648.0676190233218
 21
38.50000000000168
 31
0.0
  0
LINE
  5
395
330
1F
100
AcDbEntity
  8
DN40_営業図
  6
CONTINUOUS
 62
    54
100
AcDbLine
 10
649.3999999999999
 20
37.934314575051
 30
0.0
 11
649.9656854249487
 21
38.49999999999975
 31
0.0
  0
LINE
  5
396
330
1F
100
AcDbEntity
  8
DN40_営業図
  6
CONTINUOUS
 62
    54
100
AcDbLine
 10
649.3999999999962
 20
37.36862915009821
 30
0.0
 11
650.5313708498988
 21
38.50000000000083
 31
0.0
  0
LINE
  5
397
330
1F
100
AcDbEntity
  8
DN40_営業図
  6
CONTINUOUS
 62
    54
100
AcDbLine
 10
649.3999999999978
 20
36.80294372515053
 30
0.0
 11
651.0970562748466
 21
38.49999999999924
 31
0.0
  0
LINE
  5
398
330
1F
100
AcDbEntity
  8
DN40_営業図
  6
CONTINUOUS
 62
    54
100
AcDbLine
 10
649.3999999999994
 20
36.23725830020286
 30
0.0
 11
651.3999999999996
 21
38.2372583002032
 31
0.0
  0
LINE
  5
399
330
1F
100
AcDbEntity
  8
DN40_営業図
  6
CONTINUOUS
 62
    54
100
AcDbLine
 10
649.400000000001
 20
35.67157287525519
 30
0.0
 11
651.4000000000012
 21
37.67157287525547
 31
0.0
  0
LINE
  5
39A
330
1F
100
AcDbEntity
  8
DN40_営業図
  6
CONTINUOUS
 62
    54
100
AcDbLine
 10
649.3999999999999
 20
35.10588745030496
 30
0.0
 11
651.4000000000028
 21
37.10588745030785
 31
0.0
  0
LINE
  5
39B
330
1F
100
AcDbEntity
  8
DN40_営業図
  6
CONTINUOUS
 62
    54
100
AcDbLine
 10
652.4000000000029
 20
38.10588745030802
 30
0.0
 11
652.7941125496973
 21
38.50000000000242
 31
0.0
  0
LINE
  5
39C
330
1F
100
AcDbEntity
  8
DN40_営業図
  6
CONTINUOUS
 62
    54
100
AcDbLine
 10
649.3999999999988
 20
34.54020202535467
 30
0.0
 11
651.4000000000017
 21
36.54020202535757
 31
0.0
  0
LINE
  5
39D
330
1F
100
AcDbEntity
  8
DN40_営業図
  6
CONTINUOUS
 62
    54
100
AcDbLine
 10
652.4000000000044
 20
37.54020202536029
 30
0.0
 11
653.3597979746451
 21
38.50000000000089
 31
0.0
  0
LINE
  5
39E
330
1F
100
AcDbEntity
  8
DN40_営業図
  6
CONTINUOUS
 62
    54
100
AcDbLine
 10
649.3999999999978
 20
33.97451660040443
 30
0.0
 11
651.4000000000033
 21
35.97451660040989
 31
0.0
  0
LINE
  5
39F
330
1F
100
AcDbEntity
  8
DN40_営業図
  6
CONTINUOUS
 62
    54
100
AcDbLine
 10
652.4000000000008
 20
36.9745166004075
 30
0.0
 11
653.9254833995926
 21
38.49999999999935
 31
0.0
  0
LINE
  5
3A0
330
1F
100
AcDbEntity
  8
DN40_営業図
  6
CONTINUOUS
 62
    54
100
AcDbLine
 10
649.3999999999993
 20
33.40883117545676
 30
0.0
 11
651.3999999999996
 21
35.4088311754571
 31
0.0
  0
LINE
  5
3A1
330
1F
100
AcDbEntity
  8
DN40_営業図
  6
CONTINUOUS
 62
    54
100
AcDbLine
 10
652.4000000000024
 20
36.40883117545989
 30
0.0
 11
654.4000000000001
 21
38.40883117545761
 31
0.0
  0
LINE
  5
3A2
330
1F
100
AcDbEntity
  8
DN40_営業図
  6
CONTINUOUS
 62
    54
100
AcDbLine
 10
649.4000000000008
 20
32.84314575050909
 30
0.0
 11
651.4000000000012
 21
34.84314575050943
 31
0.0
  0
LINE
  5
3A3
330
1F
100
AcDbEntity
  8
DN40_営業図
  6
CONTINUOUS
 62
    54
100
AcDbLine
 10
652.4000000000013
 20
35.8431457505096
 30
0.0
 11
654.3999999999991
 21
37.84314575050733
 31
0.0
  0
LINE
  5
3A4
330
1F
100
AcDbEntity
  8
DN40_営業図
  6
CONTINUOUS
 62
    54
100
AcDbLine
 10
649.3999999999999
 20
32.27746032555886
 30
0.0
 11
651.4000000000001
 21
34.2774603255592
 31
0.0
  0
LINE
  5
3A5
330
1F
100
AcDbEntity
  8
DN40_営業図
  6
CONTINUOUS
 62
    54
100
AcDbLine
 10
652.4000000000028
 20
35.27746032556193
 30
0.0
 11
654.4000000000007
 21
37.27746032555971
 31
0.0
  0
LINE
  5
3A6
330
1F
100
AcDbEntity
  8
DN40_営業図
  6
CONTINUOUS
 62
    54
100
AcDbLine
 10
655.4000000000008
 20
38.27746032555988
 30
0.0
 11
655.622539674441
 21
38.49999999999998
 31
0.0
  0
LINE
  5
3A7
330
1F
100
AcDbEntity
  8
DN40_営業図
  6
CONTINUOUS
 62
    54
100
AcDbLine
 10
649.4000000000012
 20
31.71177490061113
 30
0.0
 11
651.4000000000017
 21
33.71177490061147
 31
0.0
  0
LINE
  5
3A8
330
1F
100
AcDbEntity
  8
DN40_営業図
  6
CONTINUOUS
 62
    54
100
AcDbLine
 10
652.3999999999992
 20
34.71177490060908
 30
0.0
 11
654.3999999999996
 21
36.71177490060942
 31
0.0
  0
LINE
  5
3A9
330
1F
100
AcDbEntity
  8
DN40_営業図
  6
CONTINUOUS
 62
    54
100
AcDbLine
 10
655.3999999999971
 20
37.71177490060703
 30
0.0
 11
656.1882250993885
 21
38.49999999999839
 31
0.0
  0
LINE
  5
3AA
330
1F
100
AcDbEntity
  8
DN40_営業図
  6
CONTINUOUS
 62
    54
100
AcDbLine
 10
649.3999999999977
 20
31.14608947565834
 30
0.0
 11
651.4000000000033
 21
33.14608947566385
 31
0.0
  0
LINE
  5
3AB
330
1F
100
AcDbEntity
  8
DN40_営業図
  6
CONTINUOUS
 62
    54
100
AcDbLine
 10
652.4000000000008
 20
34.14608947566141
 30
0.0
 11
654.4000000000011
 21
36.14608947566175
 31
0.0
  0
LINE
  5
3AC
330
1F
100
AcDbEntity
  8
DN40_営業図
  6
CONTINUOUS
 62
    54
100
AcDbLine
 10
655.4000000000012
 20
37.14608947566192
 30
0.0
 11
656.7539105243388
 21
38.49999999999947
 31
0.0
  0
LINE
  5
3AD
330
1F
100
AcDbEntity
  8
DN40_営業図
  6
CONTINUOUS
 62
    54
100
AcDbLine
 10
649.3999999999992
 20
30.58040405071066
 30
0.0
 11
651.4000000000046
 21
32.58040405071612
 31
0.0
  0
LINE
  5
3AE
330
1F
100
AcDbEntity
  8
DN40_営業図
  6
CONTINUOUS
 62
    54
100
AcDbLine
 10
652.4000000000024
 20
33.58040405071373
 30
0.0
 11
654.4000000000001
 21
35.58040405071146
 31
0.0
  0
LINE
  5
3AF
330
1F
100
AcDbEntity
  8
DN40_営業図
  6
CONTINUOUS
 62
    54
100
AcDbLine
 10
655.4000000000002
 20
36.58040405071163
 30
0.0
 11
657.3195959492865
 21
38.49999999999793
 31
0.0
  0
LINE
  5
3B0
330
1F
100
AcDbEntity
  8
DN40_営業図
  6
CONTINUOUS
 62
    54
100
AcDbLine
 10
649.3999999999983
 20
30.01471862576043
 30
0.0
 11
651.4000000000011
 21
32.01471862576333
 31
0.0
  0
LINE
  5
3B1
330
1F
100
AcDbEntity
  8
DN40_営業図
  6
CONTINUOUS
 62
    54
100
AcDbLine
 10
652.4000000000012
 20
33.0147186257635
 30
0.0
 11
654.3999999999991
 21
35.01471862576128
 31
0.0
  0
LINE
  5
3B2
330
1F
100
AcDbEntity
  8
DN40_営業図
  6
CONTINUOUS
 62
    54
100
AcDbLine
 10
655.4000000000018
 20
36.01471862576401
 30
0.0
 11
657.3999999999995
 21
38.01471862576174
 31
0.0
  0
LINE
  5
3B3
330
1F
100
AcDbEntity
  8
DN40_営業図
  6
CONTINUOUS
 62
    54
100
AcDbLine
 10
649.3999999999996
 20
29.4490332008127
 30
0.0
 11
651.4000000000026
 21
31.4490332008156
 31
0.0
  0
LINE
  5
3B4
330
1F
100
AcDbEntity
  8
DN40_営業図
  6
CONTINUOUS
 62
    54
100
AcDbLine
 10
652.4000000000028
 20
32.44903320081577
 30
0.0
 11
654.4000000000005
 21
34.44903320081355
 31
0.0
  0
LINE
  5
3B5
330
1F
100
AcDbEntity
  8
DN40_営業図
  6
CONTINUOUS
 62
    54
100
AcDbLine
 10
655.4000000000008
 20
35.44903320081372
 30
0.0
 11
657.400000000001
 21
37.44903320081406
 31
0.0
  0
LINE
  5
3B6
330
1F
100
AcDbEntity
  8
DN40_営業図
  6
CONTINUOUS
 62
    54
100
AcDbLine
 10
649.4000000000012
 20
28.88334777586503
 30
0.0
 11
651.4000000000016
 21
30.88334777586537
 31
0.0
  0
LINE
  5
3B7
330
1F
100
AcDbEntity
  8
DN40_営業図
  6
CONTINUOUS
 62
    54
100
AcDbLine
 10
652.4000000000017
 20
31.88334777586554
 30
0.0
 11
654.3999999999995
 21
33.88334777586332
 31
0.0
  0
LINE
  5
3B8
330
1F
100
AcDbEntity
  8
DN40_営業図
  6
CONTINUOUS
 62
    54
100
AcDbLine
 10
655.4000000000023
 20
34.88334777586605
 30
0.0
 11
657.4000000000001
 21
36.88334777586383
 31
0.0
  0
LINE
  5
3B9
330
1F
100
AcDbEntity
  8
DN40_営業図
  6
CONTINUOUS
 62
    54
100
AcDbLine
 10
649.3999999999976
 20
28.31766235091218
 30
0.0
 11
651.400000000003
 21
30.31766235091769
 31
0.0
  0
LINE
  5
3BA
330
1F
100
AcDbEntity
  8
DN40_営業図
  6
CONTINUOUS
 62
    54
100
AcDbLine
 10
652.4000000000008
 20
31.31766235091531
 30
0.0
 11
654.400000000001
 21
33.31766235091559
 31
0.0
  0
LINE
  5
3BB
330
1F
100
AcDbEntity
  8
DN40_営業図
  6
CONTINUOUS
 62
    54
100
AcDbLine
 10
655.3999999999986
 20
34.3176623509132
 30
0.0
 11
657.4000000000015
 21
36.3176623509161
 31
0.0
  0
LINE
  5
3BC
330
1F
100
AcDbEntity
  8
DN40_営業図
  6
CONTINUOUS
 62
    54
100
AcDbLine
 10
649.3999999999992
 20
27.75197692596456
 30
0.0
 11
651.400000000002
 21
29.75197692596746
 31
0.0
  0
LINE
  5
3BD
330
1F
100
AcDbEntity
  8
DN40_営業図
  6
CONTINUOUS
 62
    54
100
AcDbLine
 10
652.3999999999996
 20
30.75197692596507
 30
0.0
 11
654.3999999999974
 21
32.7519769259628
 31
0.0
  0
LINE
  5
3BE
330
1F
100
AcDbEntity
  8
DN40_営業図
  6
CONTINUOUS
 62
    54
100
AcDbLine
 10
655.4000000000001
 20
33.75197692596559
 30
0.0
 11
657.3999999999978
 21
35.75197692596331
 31
0.0
  0
LINE
  5
3BF
330
1F
100
AcDbEntity
  8
DN40_営業図
  6
CONTINUOUS
 62
    54
100
AcDbLine
 10
649.399999999998
 20
27.18629150101427
 30
0.0
 11
651.400000000001
 21
29.18629150101717
 31
0.0
  0
LINE
  5
3C0
330
1F
100
AcDbEntity
  8
DN40_営業図
  6
CONTINUOUS
 62
    54
100
AcDbLine
 10
652.4000000000012
 20
30.18629150101734
 30
0.0
 11
654.399999999999
 21
32.18629150101513
 31
0.0
  0
LINE
  5
3C1
330
1F
100
AcDbEntity
  8
DN40_営業図
  6
CONTINUOUS
 62
    54
100
AcDbLine
 10
655.3999999999992
 20
33.1862915010153
 30
0.0
 11
657.3999999999994
 21
35.18629150101564
 31
0.0
  0
LINE
  5
3C2
330
1F
100
AcDbEntity
  8
DN40_営業図
  6
CONTINUOUS
 62
    54
100
AcDbLine
 10
649.3999999999996
 20
26.6206060760666
 30
0.0
 11
651.4000000000025
 21
28.6206060760695
 31
0.0
  0
LINE
  5
3C3
330
1F
100
AcDbEntity
  8
DN40_営業図
  6
CONTINUOUS
 62
    54
100
AcDbLine
 10
652.4000000000026
 20
29.62060607606967
 30
0.0
 11
654.3999999999978
 21
31.6206060760649
 31
0.0
  0
LINE
  5
3C4
330
1F
100
AcDbEntity
  8
DN40_営業図
  6
CONTINUOUS
 62
    54
100
AcDbLine
 10
655.4000000000005
 20
32.62060607606762
 30
0.0
 11
657.3999999999984
 21
34.62060607606541
 31
0.0
  0
LINE
  5
3C5
330
1F
100
AcDbEntity
  8
DN40_営業図
  6
CONTINUOUS
 62
    54
100
AcDbLine
 10
649.399999999996
 20
26.05492065111375
 30
0.0
 11
651.4000000000015
 21
28.05492065111927
 31
0.0
  0
LINE
  5
3C6
330
1F
100
AcDbEntity
  8
DN40_営業図
  6
CONTINUOUS
 62
    54
100
AcDbLine
 10
652.4000000000042
 20
29.054920651122
 30
0.0
 11
654.400000000002
 21
31.05492065111978
 31
0.0
  0
LINE
  5
3C7
330
1F
100
AcDbEntity
  8
DN40_営業図
  6
CONTINUOUS
 62
    54
100
AcDbLine
 10
655.4000000000021
 20
32.05492065111995
 30
0.0
 11
657.3999999999999
 21
34.05492065111768
 31
0.0
  0
LINE
  5
3C8
330
1F
100
AcDbEntity
  8
DN40_営業図
  6
CONTINUOUS
 62
    54
100
AcDbLine
 10
649.3999999999976
 20
25.48923522616614
 30
0.0
 11
651.400000000003
 21
27.48923522617159
 31
0.0
  0
LINE
  5
3C9
330
1F
100
AcDbEntity
  8
DN40_営業図
  6
CONTINUOUS
 62
    54
100
AcDbLine
 10
652.4000000000032
 20
28.48923522617176
 30
0.0
 11
654.400000000001
 21
30.48923522616955
 31
0.0
  0
LINE
  5
3CA
330
1F
100
AcDbEntity
  8
DN40_営業図
  6
CONTINUOUS
 62
    54
100
AcDbLine
 10
655.3999999999985
 20
31.4892352261671
 30
0.0
 11
657.4000000000015
 21
33.48923522617006
 31
0.0
  0
LINE
  5
3CB
330
1F
100
AcDbEntity
  8
DN40_営業図
  6
CONTINUOUS
 62
    54
100
AcDbLine
 10
649.3999999999991
 20
24.92354980121841
 30
0.0
 11
651.4000000000019
 21
26.92354980122131
 31
0.0
  0
LINE
  5
3CC
330
1F
100
AcDbEntity
  8
DN40_営業図
  6
CONTINUOUS
 62
    54
100
AcDbLine
 10
652.4000000000021
 20
27.92354980122148
 30
0.0
 11
654.4000000000025
 21
29.92354980122182
 31
0.0
  0
LINE
  5
3CD
330
1F
100
AcDbEntity
  8
DN40_営業図
  6
CONTINUOUS
 62
    54
100
AcDbLine
 10
655.4000000000001
 20
30.92354980121943
 30
0.0
 11
657.3999999999978
 21
32.92354980121716
 31
0.0
  0
LINE
  5
3CE
330
1F
100
AcDbEntity
  8
DN40_営業図
  6
CONTINUOUS
 62
    54
100
AcDbLine
 10
649.399999999998
 20
24.35786437626818
 30
0.0
 11
651.4000000000035
 21
26.35786437627369
 31
0.0
  0
LINE
  5
3CF
330
1F
100
AcDbEntity
  8
DN40_営業図
  6
CONTINUOUS
 62
    54
100
AcDbLine
 10
652.400000000001
 20
27.35786437627124
 30
0.0
 11
654.3999999999988
 21
29.35786437626903
 31
0.0
  0
LINE
  5
3D0
330
1F
100
AcDbEntity
  8
DN40_営業図
  6
CONTINUOUS
 62
    54
100
AcDbLine
 10
655.399999999999
 20
30.3578643762692
 30
0.0
 11
657.3999999999994
 21
32.35786437626954
 31
0.0
  0
LINE
  5
3D1
330
1F
100
AcDbEntity
  8
DN40_営業図
  6
CONTINUOUS
 62
    54
100
AcDbLine
 10
649.3999999999995
 20
23.7921789513205
 30
0.0
 11
651.3999999999999
 21
25.79217895132079
 31
0.0
  0
LINE
  5
3D2
330
1F
100
AcDbEntity
  8
DN40_営業図
  6
CONTINUOUS
 62
    54
100
AcDbLine
 10
652.4000000000026
 20
26.79217895132357
 30
0.0
 11
654.4000000000003
 21
28.7921789513213
 31
0.0
  0
LINE
  5
3D3
330
1F
100
AcDbEntity
  8
DN40_営業図
  6
CONTINUOUS
 62
    54
100
AcDbLine
 10
655.4000000000005
 20
29.79217895132147
 30
0.0
 11
657.3999999999983
 21
31.79217895131925
 31
0.0
  0
LINE
  5
3D4
330
1F
100
AcDbEntity
  8
DN40_営業図
  6
CONTINUOUS
 62
    54
100
AcDbLine
 10
649.4165724362905
 20
23.24306596266226
 30
0.0
 11
651.4000000000015
 21
25.22649352637317
 31
0.0
  0
LINE
  5
3D5
330
1F
100
AcDbEntity
  8
DN40_営業図
  6
CONTINUOUS
 62
    54
100
AcDbLine
 10
652.4000000000016
 20
26.22649352637334
 30
0.0
 11
654.3999999999993
 21
28.22649352637107
 31
0.0
  0
LINE
  5
3D6
330
1F
100
AcDbEntity
  8
DN40_営業図
  6
CONTINUOUS
 62
    54
100
AcDbLine
 10
655.4000000000021
 20
29.22649352637385
 30
0.0
 11
657.3999999999999
 21
31.22649352637158
 31
0.0
  0
LINE
  5
3D7
330
1F
100
AcDbEntity
  8
DN40_営業図
  6
CONTINUOUS
 62
    54
100
AcDbLine
 10
649.5299715319014
 20
22.79077963332393
 30
0.0
 11
651.4000000000003
 21
24.66080810142288
 31
0.0
  0
LINE
  5
3D8
330
1F
100
AcDbEntity
  8
DN40_営業図
  6
CONTINUOUS
 62
    54
100
AcDbLine
 10
652.400000000003
 20
25.66080810142561
 30
0.0
 11
654.4000000000009
 21
27.66080810142339
 31
0.0
  0
LINE
  5
3D9
330
1F
100
AcDbEntity
  8
DN40_営業図
  6
CONTINUOUS
 62
    54
100
AcDbLine
 10
655.3999999999985
 20
28.660808101421
 30
0.0
 11
657.3999999999962
 21
30.66080810141873
 31
0.0
  0
LINE
  5
3DA
330
1F
100
AcDbEntity
  8
DN40_営業図
  6
CONTINUOUS
 62
    54
100
AcDbLine
 10
649.7198840516339
 20
22.41500672810734
 30
0.0
 11
651.4000000000019
 21
24.09512267647521
 31
0.0
  0
LINE
  5
3DB
330
1F
100
AcDbEntity
  8
DN40_営業図
  6
CONTINUOUS
 62
    54
100
AcDbLine
 10
652.3999999999994
 20
25.09512267647282
 30
0.0
 11
654.3999999999972
 21
27.0951226764706
 31
0.0
  0
LINE
  5
3DC
330
1F
100
AcDbEntity
  8
DN40_営業図
  6
CONTINUOUS
 62
    54
100
AcDbLine
 10
655.4
 20
28.09512267647333
 30
0.0
 11
657.3999999999978
 21
30.09512267647111
 31
0.0
  0
LINE
  5
3DD
330
1F
100
AcDbEntity
  8
DN40_営業図
  6
CONTINUOUS
 62
    54
100
AcDbLine
 10
649.9711444070184
 20
22.10058165854256
 30
0.0
 11
651.5320344888215
 21
23.66147174034567
 31
0.0
  0
LINE
  5
3DE
330
1F
100
AcDbEntity
  8
DN40_営業図
  6
CONTINUOUS
 62
    54
100
AcDbLine
 10
652.400000000001
 20
24.52943725152515
 30
0.0
 11
654.3999999999987
 21
26.52943725152293
 31
0.0
  0
LINE
  5
3DF
330
1F
100
AcDbEntity
  8
DN40_営業図
  6
CONTINUOUS
 62
    54
100
AcDbLine
 10
655.4000000000015
 20
27.52943725152566
 30
0.0
 11
657.3999999999993
 21
29.52943725152344
 31
0.0
  0
LINE
  5
3E0
330
1F
100
AcDbEntity
  8
DN40_営業図
  6
CONTINUOUS
 62
    54
100
AcDbLine
 10
650.2795602696242
 20
21.84331209619913
 30
0.0
 11
651.9376691580964
 21
23.50142098467129
 31
0.0
  0
LINE
  5
3E1
330
1F
100
AcDbEntity
  8
DN40_営業図
  6
CONTINUOUS
 62
    54
100
AcDbLine
 10
652.3985790153315
 20
23.9623308419065
 30
0.0
 11
654.4000000000003
 21
25.96375182657525
 31
0.0
  0
LINE
  5
3E2
330
1F
100
AcDbEntity
  8
DN40_営業図
  6
CONTINUOUS
 62
    54
100
AcDbLine
 10
655.4000000000005
 20
26.96375182657543
 30
0.0
 11
657.3999999999983
 21
28.96375182657315
 31
0.0
  0
LINE
  5
3E3
330
1F
100
AcDbEntity
  8
DN40_営業図
  6
CONTINUOUS
 62
    54
100
AcDbLine
 10
650.6484939256889
 20
21.64656032731464
 30
0.0
 11
654.3999999999993
 21
25.39806640162502
 31
0.0
  0
LINE
  5
3E4
330
1F
100
AcDbEntity
  8
DN40_営業図
  6
CONTINUOUS
 62
    54
100
AcDbLine
 10
655.400000000002
 20
26.39806640162775
 30
0.0
 11
657.3999999999999
 21
28.39806640162553
 31
0.0
  0
LINE
  5
3E5
330
1F
100
AcDbEntity
  8
DN40_営業図
  6
CONTINUOUS
 62
    54
100
AcDbLine
 10
651.0915478523782
 20
21.52392882905472
 30
0.0
 11
654.4000000000008
 21
24.83238097667729
 31
0.0
  0
LINE
  5
3E6
330
1F
100
AcDbEntity
  8
DN40_営業図
  6
CONTINUOUS
 62
    54
100
AcDbLine
 10
655.3999999999984
 20
25.83238097667491
 30
0.0
 11
657.3999999999987
 21
27.83238097667525
 31
0.0
  0
LINE
  5
3E7
330
1F
100
AcDbEntity
  8
DN40_営業図
  6
CONTINUOUS
 62
    54
100
AcDbLine
 10
651.6333044482733
 20
21.50000000000055
 30
0.0
 11
654.3999999999971
 21
24.2666955517245
 31
0.0
  0
LINE
  5
3E8
330
1F
100
AcDbEntity
  8
DN40_営業図
  6
CONTINUOUS
 62
    54
100
AcDbLine
 10
655.3999999999999
 20
25.26669555172723
 30
0.0
 11
657.3999999999977
 21
27.26669555172501
 31
0.0
  0
LINE
  5
3E9
330
1F
100
AcDbEntity
  8
DN40_営業図
  6
CONTINUOUS
 62
    54
100
AcDbLine
 10
652.2256858624309
 20
21.52669598920901
 30
0.0
 11
654.4605277815147
 21
23.76153790829282
 31
0.0
  0
LINE
  5
3EA
330
1F
100
AcDbEntity
  8
DN40_営業図
  6
CONTINUOUS
 62
    54
100
AcDbLine
 10
655.3999999999988
 20
24.70101012677694
 30
0.0
 11
657.3999999999992
 21
26.70101012677728
 31
0.0
  0
LINE
  5
3EB
330
1F
100
AcDbEntity
  8
DN40_営業図
  6
CONTINUOUS
 62
    54
100
AcDbLine
 10
653.4197436499976
 20
22.15506835182655
 30
0.0
 11
654.7794301025856
 21
23.51475480441454
 31
0.0
  0
LINE
  5
3EC
330
1F
100
AcDbEntity
  8
DN40_営業図
  6
CONTINUOUS
 62
    54
100
AcDbLine
 10
655.4000000000004
 20
24.13532470182933
 30
0.0
 11
657.4000000000008
 21
26.13532470182967
 31
0.0
  0
LINE
  5
3ED
330
1F
100
AcDbEntity
  8
DN40_営業図
  6
CONTINUOUS
 62
    54
100
AcDbLine
 10
653.7174330982848
 20
21.88707237516454
 30
0.0
 11
657.3999999999996
 21
25.56963927687938
 31
0.0
  0
LINE
  5
3EE
330
1F
100
AcDbEntity
  8
DN40_営業図
  6
CONTINUOUS
 62
    54
100
AcDbLine
 10
654.0744018979708
 20
21.67835574990122
 30
0.0
 11
657.4000000000012
 21
25.0039538519317
 31
0.0
  0
LINE
  5
3EF
330
1F
100
AcDbEntity
  8
DN40_営業図
  6
CONTINUOUS
 62
    54
100
AcDbLine
 10
654.501777739135
 20
21.5400461661163
 30
0.0
 11
657.4000000000001
 21
24.43826842698142
 31
0.0
  0
LINE
  5
3F0
330
1F
100
AcDbEntity
  8
DN40_営業図
  6
CONTINUOUS
 62
    54
100
AcDbLine
 10
655.027416997967
 20
21.49999999999907
 30
0.0
 11
657.3999999999991
 21
23.87258300203118
 31
0.0
  0
LINE
  5
3F1
330
1F
100
AcDbEntity
  8
DN40_営業図
  6
CONTINUOUS
 62
    54
100
AcDbLine
 10
655.6034804188266
 20
21.51037799590953
 30
0.0
 11
657.389622004086
 21
23.29651958116896
 31
0.0
  0
LINE
  5
3F2
330
1F
100
AcDbEntity
  8
DN40_営業図
  6
CONTINUOUS
 62
    54
100
AcDbLine
 10
656.4675086844372
 20
21.80872083657099
 30
0.0
 11
657.0912791634298
 21
22.43249131556346
 31
0.0
  0
LINE
  5
3F3
330
1F
100
AcDbEntity
  8
DN40_営業図
  6
CONTINUOUS
 62
    54
100
AcDbLine
 10
651.1045505600337
 20
21.52194296633647
 30
0.0
 11
649.4219429663344
 21
23.20455056003576
 31
0.0
  0
LINE
  5
3F4
330
1F
100
AcDbEntity
  8
DN40_営業図
  6
CONTINUOUS
 62
    54
100
AcDbLine
 10
651.6921789513176
 20
21.50000000000174
 30
0.0
 11
649.3999999999971
 21
23.79217895132238
 31
0.0
  0
LINE
  5
3F5
330
1F
100
AcDbEntity
  8
DN40_営業図
  6
CONTINUOUS
 62
    54
100
AcDbLine
 10
652.2303867674935
 20
21.52747760877507
 30
0.0
 11
649.3999999999985
 21
24.35786437626999
 31
0.0
  0
LINE
  5
3F6
330
1F
100
AcDbEntity
  8
DN40_営業図
  6
CONTINUOUS
 62
    54
100
AcDbLine
 10
652.6695645405698
 20
21.65398526064806
 30
0.0
 11
649.3999999999976
 21
24.92354980122028
 31
0.0
  0
LINE
  5
3F7
330
1F
100
AcDbEntity
  8
DN40_営業図
  6
CONTINUOUS
 62
    54
100
AcDbLine
 10
653.0355812490059
 20
21.85365397716104
 30
0.0
 11
649.3999999999991
 21
25.48923522616796
 31
0.0
  0
LINE
  5
3F8
330
1F
100
AcDbEntity
  8
DN40_営業図
  6
CONTINUOUS
 62
    54
100
AcDbLine
 10
653.3414072589785
 20
22.11351339213778
 30
0.0
 11
651.9521894526978
 21
23.50273119841845
 31
0.0
  0
LINE
  5
3F9
330
1F
100
AcDbEntity
  8
DN40_営業図
  6
CONTINUOUS
 62
    54
100
AcDbLine
 10
651.3999999999984
 20
24.0549206511179
 30
0.0
 11
649.399999999998
 21
26.05492065111824
 31
0.0
  0
LINE
  5
3FA
330
1F
100
AcDbEntity
  8
DN40_営業図
  6
CONTINUOUS
 62
    54
100
AcDbLine
 10
654.47490825557
 20
21.54569782049541
 30
0.0
 11
652.3086757459239
 21
23.71193033014149
 31
0.0
  0
LINE
  5
3FB
330
1F
100
AcDbEntity
  8
DN40_営業図
  6
CONTINUOUS
 62
    54
100
AcDbLine
 10
651.3999999999999
 20
24.62060607606552
 30
0.0
 11
649.3999999999969
 21
26.62060607606842
 31
0.0
  0
LINE
  5
3FC
330
1F
100
AcDbEntity
  8
DN40_営業図
  6
CONTINUOUS
 62
    54
100
AcDbLine
 10
655.0862915010141
 20
21.5000000000006
 30
0.0
 11
652.399999999999
 21
24.18629150101564
 31
0.0
  0
LINE
  5
3FD
330
1F
100
AcDbEntity
  8
DN40_営業図
  6
CONTINUOUS
 62
    54
100
AcDbLine
 10
651.3999999999988
 20
25.18629150101581
 30
0.0
 11
649.3999999999985
 21
27.18629150101615
 31
0.0
  0
LINE
  5
3FE
330
1F
100
AcDbEntity
  8
DN40_営業図
  6
CONTINUOUS
 62
    54
100
AcDbLine
 10
655.6377905286197
 20
21.51418639734406
 30
0.0
 11
652.3999999999979
 21
24.75197692596587
 31
0.0
  0
LINE
  5
3FF
330
1F
100
AcDbEntity
  8
DN40_営業図
  6
CONTINUOUS
 62
    54
100
AcDbLine
 10
651.3999999999978
 20
25.75197692596604
 30
0.0
 11
649.3999999999974
 21
27.75197692596638
 31
0.0
  0
LINE
  5
400
330
1F
100
AcDbEntity
  8
DN40_営業図
  6
CONTINUOUS
 62
    54
100
AcDbLine
 10
656.0935566017207
 20
21.62410574919236
 30
0.0
 11
652.3999999999995
 21
25.3176623509136
 31
0.0
  0
LINE
  5
401
330
1F
100
AcDbEntity
  8
DN40_営業図
  6
CONTINUOUS
 62
    54
100
AcDbLine
 10
651.3999999999994
 20
26.31766235091377
 30
0.0
 11
649.3999999999965
 21
28.31766235091667
 31
0.0
  0
LINE
  5
402
330
1F
100
AcDbEntity
  8
DN40_営業図
  6
CONTINUOUS
 62
    54
100
AcDbLine
 10
656.4718677180177
 20
21.81148005784448
 30
0.0
 11
654.7646912530031
 21
23.51865652285918
 31
0.0
  0
LINE
  5
403
330
1F
100
AcDbEntity
  8
DN40_営業図
  6
CONTINUOUS
 62
    54
100
AcDbLine
 10
654.4186565228601
 20
23.86469125300207
 30
0.0
 11
652.3999999999985
 21
25.88334777586378
 31
0.0
  0
LINE
  5
404
330
1F
100
AcDbEntity
  8
DN40_営業図
  6
CONTINUOUS
 62
    54
100
AcDbLine
 10
651.3999999999983
 20
26.88334777586395
 30
0.0
 11
649.3999999999979
 21
28.88334777586429
 31
0.0
  0
LINE
  5
405
330
1F
100
AcDbEntity
  8
DN40_営業図
  6
CONTINUOUS
 62
    54
100
AcDbLine
 10
656.7885005452735
 20
22.06053265553803
 30
0.0
 11
655.2271503996158
 21
23.62188280119572
 31
0.0
  0
LINE
  5
406
330
1F
100
AcDbEntity
  8
DN40_営業図
  6
CONTINUOUS
 62
    54
100
AcDbLine
 10
654.4000000000003
 20
24.44903320081117
 30
0.0
 11
652.3999999999974
 21
26.44903320081406
 31
0.0
  0
LINE
  5
407
330
1F
100
AcDbEntity
  8
DN40_営業図
  6
CONTINUOUS
 62
    54
100
AcDbLine
 10
651.3999999999972
 20
27.44903320081423
 30
0.0
 11
649.3999999999969
 21
29.44903320081458
 31
0.0
  0
LINE
  5
408
330
1F
100
AcDbEntity
  8
DN40_営業図
  6
CONTINUOUS
 62
    54
100
AcDbLine
 10
657.0479585305078
 20
22.36676009525284
 30
0.0
 11
655.3999999999969
 21
24.01471862576378
 31
0.0
  0
LINE
  5
409
330
1F
100
AcDbEntity
  8
DN40_営業図
  6
CONTINUOUS
 62
    54
100
AcDbLine
 10
654.3999999999992
 20
25.0147186257614
 30
0.0
 11
652.399999999999
 21
27.01471862576174
 31
0.0
  0
LINE
  5
40A
330
1F
100
AcDbEntity
  8
DN40_営業図
  6
CONTINUOUS
 62
    54
100
AcDbLine
 10
651.3999999999962
 20
28.01471862576447
 30
0.0
 11
649.3999999999984
 21
30.01471862576225
 31
0.0
  0
LINE
  5
40B
330
1F
100
AcDbEntity
  8
DN40_営業図
  6
CONTINUOUS
 62
    54
100
AcDbLine
 10
657.2471763065828
 20
22.73322774412717
 30
0.0
 11
655.400000000001
 21
24.58040405070896
 31
0.0
  0
LINE
  5
40C
330
1F
100
AcDbEntity
  8
DN40_営業図
  6
CONTINUOUS
 62
    54
100
AcDbLine
 10
654.4000000000008
 20
25.58040405070913
 30
0.0
 11
652.4000000000005
 21
27.58040405070947
 31
0.0
  0
LINE
  5
40D
330
1F
100
AcDbEntity
  8
DN40_営業図
  6
CONTINUOUS
 62
    54
100
AcDbLine
 10
651.3999999999978
 20
28.5804040507122
 30
0.0
 11
649.3999999999974
 21
30.58040405071254
 31
0.0
  0
LINE
  5
40E
330
1F
100
AcDbEntity
  8
DN40_営業図
  6
CONTINUOUS
 62
    54
100
AcDbLine
 10
657.3730870672782
 20
23.17300240838089
 30
0.0
 11
655.3999999999999
 21
25.14608947565913
 31
0.0
  0
LINE
  5
40F
330
1F
100
AcDbEntity
  8
DN40_営業図
  6
CONTINUOUS
 62
    54
100
AcDbLine
 10
654.3999999999997
 20
26.1460894756593
 30
0.0
 11
652.3999999999994
 21
28.14608947565964
 31
0.0
  0
LINE
  5
410
330
1F
100
AcDbEntity
  8
DN40_営業図
  6
CONTINUOUS
 62
    54
100
AcDbLine
 10
651.3999999999992
 20
29.14608947565981
 30
0.0
 11
649.3999999999963
 21
31.14608947566277
 31
0.0
  0
LINE
  5
411
330
1F
100
AcDbEntity
  8
DN40_営業図
  6
CONTINUOUS
 62
    54
100
AcDbLine
 10
657.3999999999992
 20
23.71177490060908
 30
0.0
 11
655.399999999999
 21
25.71177490060942
 31
0.0
  0
LINE
  5
412
330
1F
100
AcDbEntity
  8
DN40_営業図
  6
CONTINUOUS
 62
    54
100
AcDbLine
 10
654.4000000000012
 20
26.71177490060703
 30
0.0
 11
652.3999999999984
 21
28.71177490060993
 31
0.0
  0
LINE
  5
413
330
1F
100
AcDbEntity
  8
DN40_営業図
  6
CONTINUOUS
 62
    54
100
AcDbLine
 10
651.3999999999983
 20
29.7117749006101
 30
0.0
 11
649.3999999999978
 21
31.71177490061044
 31
0.0
  0
LINE
  5
414
330
1F
100
AcDbEntity
  8
DN40_営業図
  6
CONTINUOUS
 62
    54
100
AcDbLine
 10
657.4000000000008
 20
24.27746032555675
 30
0.0
 11
655.3999999999978
 21
26.27746032555965
 31
0.0
  0
LINE
  5
415
330
1F
100
AcDbEntity
  8
DN40_営業図
  6
CONTINUOUS
 62
    54
100
AcDbLine
 10
654.4000000000002
 20
27.27746032555726
 30
0.0
 11
652.3999999999974
 21
29.27746032556016
 31
0.0
  0
LINE
  5
416
330
1F
100
AcDbEntity
  8
DN40_営業図
  6
CONTINUOUS
 62
    54
100
AcDbLine
 10
651.3999999999971
 20
30.27746032556033
 30
0.0
 11
649.3999999999994
 21
32.27746032555812
 31
0.0
  0
LINE
  5
417
330
1F
100
AcDbEntity
  8
DN40_営業図
  6
CONTINUOUS
 62
    54
100
AcDbLine
 10
657.3999999999996
 20
24.84314575050698
 30
0.0
 11
655.3999999999993
 21
26.84314575050733
 31
0.0
  0
LINE
  5
418
330
1F
100
AcDbEntity
  8
DN40_営業図
  6
CONTINUOUS
 62
    54
100
AcDbLine
 10
654.4000000000017
 20
27.84314575050488
 30
0.0
 11
652.3999999999988
 21
29.84314575050784
 31
0.0
  0
LINE
  5
419
330
1F
100
AcDbEntity
  8
DN40_営業図
  6
CONTINUOUS
 62
    54
100
AcDbLine
 10
651.3999999999987
 20
30.84314575050801
 30
0.0
 11
649.3999999999983
 21
32.84314575050835
 31
0.0
  0
LINE
  5
41A
330
1F
100
AcDbEntity
  8
DN40_営業図
  6
CONTINUOUS
 62
    54
100
AcDbLine
 10
657.3999999999987
 20
25.40883117545727
 30
0.0
 11
655.3999999999983
 21
27.40883117545761
 31
0.0
  0
LINE
  5
41B
330
1F
100
AcDbEntity
  8
DN40_営業図
  6
CONTINUOUS
 62
    54
100
AcDbLine
 10
654.4000000000008
 20
28.40883117545517
 30
0.0
 11
652.3999999999978
 21
30.40883117545813
 31
0.0
  0
LINE
  5
41C
330
1F
100
AcDbEntity
  8
DN40_営業図
  6
CONTINUOUS
 62
    54
100
AcDbLine
 10
651.3999999999976
 20
31.4088311754583
 30
0.0
 11
649.3999999999999
 21
33.40883117545602
 31
0.0
  0
LINE
  5
41D
330
1F
100
AcDbEntity
  8
DN40_営業図
  6
CONTINUOUS
 62
    54
100
AcDbLine
 10
657.4000000000001
 20
25.97451660040489
 30
0.0
 11
655.3999999999972
 21
27.97451660040785
 31
0.0
  0
LINE
  5
41E
330
1F
100
AcDbEntity
  8
DN40_営業図
  6
CONTINUOUS
 62
    54
100
AcDbLine
 10
654.3999999999996
 20
28.9745166004054
 30
0.0
 11
652.3999999999967
 21
30.9745166004083
 31
0.0
  0
LINE
  5
41F
330
1F
100
AcDbEntity
  8
DN40_営業図
  6
CONTINUOUS
 62
    54
100
AcDbLine
 10
651.3999999999992
 20
31.97451660040591
 30
0.0
 11
649.3999999999987
 21
33.97451660040625
 31
0.0
  0
LINE
  5
420
330
1F
100
AcDbEntity
  8
DN40_営業図
  6
CONTINUOUS
 62
    54
100
AcDbLine
 10
657.3999999999992
 20
26.54020202535518
 30
0.0
 11
655.3999999999987
 21
28.54020202535552
 31
0.0
  0
LINE
  5
421
330
1F
100
AcDbEntity
  8
DN40_営業図
  6
CONTINUOUS
 62
    54
100
AcDbLine
 10
654.4000000000012
 20
29.54020202535313
 30
0.0
 11
652.3999999999983
 21
31.54020202535603
 31
0.0
  0
LINE
  5
422
330
1F
100
AcDbEntity
  8
DN40_営業図
  6
CONTINUOUS
 62
    54
100
AcDbLine
 10
651.399999999998
 20
32.5402020253562
 30
0.0
 11
649.3999999999978
 21
34.54020202535654
 31
0.0
  0
LINE
  5
423
330
1F
100
AcDbEntity
  8
DN40_営業図
  6
CONTINUOUS
 62
    54
100
AcDbLine
 10
657.399999999998
 20
27.10588745030541
 30
0.0
 11
655.3999999999977
 21
29.10588745030575
 31
0.0
  0
LINE
  5
424
330
1F
100
AcDbEntity
  8
DN40_営業図
  6
CONTINUOUS
 62
    54
100
AcDbLine
 10
654.4000000000001
 20
30.10588745030336
 30
0.0
 11
652.3999999999999
 21
32.1058874503037
 31
0.0
  0
LINE
  5
425
330
1F
100
AcDbEntity
  8
DN40_営業図
  6
CONTINUOUS
 62
    54
100
AcDbLine
 10
651.3999999999996
 20
33.10588745030388
 30
0.0
 11
649.3999999999993
 21
35.10588745030422
 31
0.0
  0
LINE
  5
426
330
1F
100
AcDbEntity
  8
DN40_営業図
  6
CONTINUOUS
 62
    54
100
AcDbLine
 10
657.3999999999996
 20
27.67157287525314
 30
0.0
 11
655.3999999999993
 21
29.67157287525348
 31
0.0
  0
LINE
  5
427
330
1F
100
AcDbEntity
  8
DN40_営業図
  6
CONTINUOUS
 62
    54
100
AcDbLine
 10
654.4000000000017
 20
30.67157287525104
 30
0.0
 11
652.3999999999987
 21
32.67157287525394
 31
0.0
  0
LINE
  5
428
330
1F
100
AcDbEntity
  8
DN40_営業図
  6
CONTINUOUS
 62
    54
100
AcDbLine
 10
651.3999999999986
 20
33.67157287525411
 30
0.0
 11
649.3999999999983
 21
35.67157287525445
 31
0.0
  0
LINE
  5
429
330
1F
100
AcDbEntity
  8
DN40_営業図
  6
CONTINUOUS
 62
    54
100
AcDbLine
 10
657.3999999999985
 20
28.23725830020332
 30
0.0
 11
655.3999999999983
 21
30.23725830020366
 31
0.0
  0
LINE
  5
42A
330
1F
100
AcDbEntity
  8
DN40_営業図
  6
CONTINUOUS
 62
    54
100
AcDbLine
 10
654.4000000000005
 20
31.23725830020127
 30
0.0
 11
652.4000000000003
 21
33.23725830020161
 31
0.0
  0
LINE
  5
42B
330
1F
100
AcDbEntity
  8
DN40_営業図
  6
CONTINUOUS
 62
    54
100
AcDbLine
 10
651.4000000000001
 20
34.23725830020178
 30
0.0
 11
649.3999999999997
 21
36.23725830020212
 31
0.0
  0
LINE
  5
42C
330
1F
100
AcDbEntity
  8
DN40_営業図
  6
CONTINUOUS
 62
    54
100
AcDbLine
 10
657.4000000000001
 20
28.80294372515105
 30
0.0
 11
655.3999999999971
 21
30.80294372515394
 31
0.0
  0
LINE
  5
42D
330
1F
100
AcDbEntity
  8
DN40_営業図
  6
CONTINUOUS
 62
    54
100
AcDbLine
 10
654.3999999999996
 20
31.80294372515156
 30
0.0
 11
652.3999999999992
 21
33.8029437251519
 31
0.0
  0
LINE
  5
42E
330
1F
100
AcDbEntity
  8
DN40_営業図
  6
CONTINUOUS
 62
    54
100
AcDbLine
 10
651.3999999999991
 20
34.80294372515207
 30
0.0
 11
649.3999999999987
 21
36.80294372515241
 31
0.0
  0
LINE
  5
42F
330
1F
100
AcDbEntity
  8
DN40_営業図
  6
CONTINUOUS
 62
    54
100
AcDbLine
 10
657.399999999999
 20
29.36862915010128
 30
0.0
 11
655.3999999999987
 21
31.36862915010162
 31
0.0
  0
LINE
  5
430
330
1F
100
AcDbEntity
  8
DN40_営業図
  6
CONTINUOUS
 62
    54
100
AcDbLine
 10
654.4000000000011
 20
32.36862915009923
 30
0.0
 11
652.3999999999982
 21
34.36862915010213
 31
0.0
  0
LINE
  5
431
330
1F
100
AcDbEntity
  8
DN40_営業図
  6
CONTINUOUS
 62
    54
100
AcDbLine
 10
651.399999999998
 20
35.3686291501023
 30
0.0
 11
649.3999999999977
 21
37.36862915010264
 31
0.0
  0
LINE
  5
432
330
1F
100
AcDbEntity
  8
DN40_営業図
  6
CONTINUOUS
 62
    54
100
AcDbLine
 10
657.399999999998
 20
29.93431457505157
 30
0.0
 11
655.3999999999976
 21
31.93431457505191
 31
0.0
  0
LINE
  5
433
330
1F
100
AcDbEntity
  8
DN40_営業図
  6
CONTINUOUS
 62
    54
100
AcDbLine
 10
654.4000000000001
 20
32.93431457504946
 30
0.0
 11
652.3999999999997
 21
34.9343145750498
 31
0.0
  0
LINE
  5
434
330
1F
100
AcDbEntity
  8
DN40_営業図
  6
CONTINUOUS
 62
    54
100
AcDbLine
 10
651.399999999997
 20
35.93431457505259
 30
0.0
 11
649.3999999999992
 21
37.93431457505032
 31
0.0
  0
LINE
  5
435
330
1F
100
AcDbEntity
  8
DN40_営業図
  6
CONTINUOUS
 62
    54
100
AcDbLine
 10
657.3999999999995
 20
30.49999999999918
 30
0.0
 11
655.3999999999967
 21
32.50000000000214
 31
0.0
  0
LINE
  5
436
330
1F
100
AcDbEntity
  8
DN40_営業図
  6
CONTINUOUS
 62
    54
100
AcDbLine
 10
654.399999999999
 20
33.49999999999969
 30
0.0
 11
652.3999999999987
 21
35.50000000000004
 31
0.0
  0
LINE
  5
437
330
1F
100
AcDbEntity
  8
DN40_営業図
  6
CONTINUOUS
 62
    54
100
AcDbLine
 10
651.3999999999985
 20
36.50000000000021
 30
0.0
 11
649.3999999999955
 21
38.50000000000311
 31
0.0
  0
LINE
  5
438
330
1F
100
AcDbEntity
  8
DN40_営業図
  6
CONTINUOUS
 62
    54
100
AcDbLine
 10
657.3999999999985
 20
31.06568542494947
 30
0.0
 11
655.3999999999982
 21
33.06568542494981
 31
0.0
  0
LINE
  5
439
330
1F
100
AcDbEntity
  8
DN40_営業図
  6
CONTINUOUS
 62
    54
100
AcDbLine
 10
654.4000000000005
 20
34.06568542494743
 30
0.0
 11
652.3999999999976
 21
36.06568542495032
 31
0.0
  0
LINE
  5
43A
330
1F
100
AcDbEntity
  8
DN40_営業図
  6
CONTINUOUS
 62
    54
100
AcDbLine
 10
651.3999999999975
 20
37.06568542495049
 30
0.0
 11
649.9656854249433
 21
38.5000000000047
 31
0.0
  0
LINE
  5
43B
330
1F
100
AcDbEntity
  8
DN40_営業図
  6
CONTINUOUS
 62
    54
100
AcDbLine
 10
657.4
 20
31.63137084989715
 30
0.0
 11
655.3999999999971
 21
33.63137084990004
 31
0.0
  0
LINE
  5
43C
330
1F
100
AcDbEntity
  8
DN40_営業図
  6
CONTINUOUS
 62
    54
100
AcDbLine
 10
654.4000000000021
 20
34.6313708498951
 30
0.0
 11
652.3999999999966
 21
36.63137084990056
 31
0.0
  0
LINE
  5
43D
330
1F
100
AcDbEntity
  8
DN40_営業図
  6
CONTINUOUS
 62
    54
100
AcDbLine
 10
651.3999999999965
 20
37.63137084990073
 30
0.0
 11
650.5313708498935
 21
38.50000000000362
 31
0.0
  0
LINE
  5
43E
330
1F
100
AcDbEntity
  8
DN40_営業図
  6
CONTINUOUS
 62
    54
100
AcDbLine
 10
657.399999999999
 20
32.19705627484743
 30
0.0
 11
655.3999999999987
 21
34.19705627484777
 31
0.0
  0
LINE
  5
43F
330
1F
100
AcDbEntity
  8
DN40_営業図
  6
CONTINUOUS
 62
    54
100
AcDbLine
 10
654.400000000001
 20
35.19705627484533
 30
0.0
 11
652.3999999999982
 21
37.19705627484829
 31
0.0
  0
LINE
  5
440
330
1F
100
AcDbEntity
  8
DN40_営業図
  6
CONTINUOUS
 62
    54
100
AcDbLine
 10
651.4000000000005
 20
38.19705627484584
 30
0.0
 11
651.0970562748438
 21
38.50000000000259
 31
0.0
  0
LINE
  5
441
330
1F
100
AcDbEntity
  8
DN40_営業図
  6
CONTINUOUS
 62
    54
100
AcDbLine
 10
657.3999999999979
 20
32.76274169979767
 30
0.0
 11
655.4000000000001
 21
34.76274169979539
 31
0.0
  0
LINE
  5
442
330
1F
100
AcDbEntity
  8
DN40_営業図
  6
CONTINUOUS
 62
    54
100
AcDbLine
 10
654.4000000000026
 20
35.762741699793
 30
0.0
 11
652.3999999999996
 21
37.7627416997959
 31
0.0
  0
LINE
  5
443
330
1F
100
AcDbEntity
  8
DN40_営業図
  6
CONTINUOUS
 62
    54
100
AcDbLine
 10
657.3999999999994
 20
33.32842712474534
 30
0.0
 11
655.3999999999992
 21
35.32842712474568
 31
0.0
  0
LINE
  5
444
330
1F
100
AcDbEntity
  8
DN40_営業図
  6
CONTINUOUS
 62
    54
100
AcDbLine
 10
654.4000000000015
 20
36.32842712474329
 30
0.0
 11
652.3999999999986
 21
38.32842712474619
 31
0.0
  0
LINE
  5
445
330
1F
100
AcDbEntity
  8
DN40_営業図
  6
CONTINUOUS
 62
    54
100
AcDbLine
 10
657.3999999999984
 20
33.89411254969557
 30
0.0
 11
655.399999999998
 21
35.89411254969591
 31
0.0
  0
LINE
  5
446
330
1F
100
AcDbEntity
  8
DN40_営業図
  6
CONTINUOUS
 62
    54
100
AcDbLine
 10
654.4000000000004
 20
36.89411254969352
 30
0.0
 11
652.7941125496945
 21
38.49999999999947
 31
0.0
  0
LINE
  5
447
330
1F
100
AcDbEntity
  8
DN40_営業図
  6
CONTINUOUS
 62
    54
100
AcDbLine
 10
657.3999999999974
 20
34.45979797464586
 30
0.0
 11
655.399999999997
 21
36.4597979746462
 31
0.0
  0
LINE
  5
448
330
1F
100
AcDbEntity
  8
DN40_営業図
  6
CONTINUOUS
 62
    54
100
AcDbLine
 10
654.3999999999994
 20
37.45979797464381
 30
0.0
 11
653.3597979746422
 21
38.500000000001
 31
0.0
  0
LINE
  5
449
330
1F
100
AcDbEntity
  8
DN40_営業図
  6
CONTINUOUS
 62
    54
100
AcDbLine
 10
657.4000000000015
 20
35.02548339959092
 30
0.0
 11
655.3999999999985
 21
37.02548339959387
 31
0.0
  0
LINE
  5
44A
330
1F
100
AcDbEntity
  8
DN40_営業図
  6
CONTINUOUS
 62
    54
100
AcDbLine
 10
654.400000000001
 20
38.02548339959143
 30
0.0
 11
653.9254833995924
 21
38.49999999999992
 31
0.0
  0
LINE
  5
44B
330
1F
100
AcDbEntity
  8
DN40_営業図
  6
CONTINUOUS
 62
    54
100
AcDbLine
 10
657.4000000000004
 20
35.59116882454121
 30
0.0
 11
655.3999999999976
 21
37.59116882454411
 31
0.0
  0
LINE
  5
44C
330
1F
100
AcDbEntity
  8
DN40_営業図
  6
CONTINUOUS
 62
    54
100
AcDbLine
 10
657.3999999999994
 20
36.15685424949144
 30
0.0
 11
655.3999999999965
 21
38.15685424949434
 31
0.0
  0
LINE
  5
44D
330
1F
100
AcDbEntity
  8
DN40_営業図
  6
CONTINUOUS
 62
    54
100
AcDbLine
 10
657.4000000000009
 20
36.72253967443911
 30
0.0
 11
655.622539674438
 21
38.50000000000191
 31
0.0
  0
LINE
  5
44E
330
1F
100
AcDbEntity
  8
DN40_営業図
  6
CONTINUOUS
 62
    54
100
AcDbLine
 10
657.3999999999999
 20
37.2882250993894
 30
0.0
 11
656.1882250993883
 21
38.50000000000089
 31
0.0
  0
LINE
  5
44F
330
1F
100
AcDbEntity
  8
DN40_営業図
  6
CONTINUOUS
 62
    54
100
AcDbLine
 10
657.3999999999987
 20
37.85391052433958
 30
0.0
 11
656.7539105243386
 21
38.49999999999981
 31
0.0
  0
LINE
  5
450
330
1F
100
AcDbEntity
  8
DN40_営業図
  6
CONTINUOUS
 62
    54
100
AcDbLine
 10
657.3999999999978
 20
38.41959594928986
 30
0.0
 11
657.3195959492863
 21
38.5000000000014
 31
0.0
  0
LINE
  5
451
330
1F
100
AcDbEntity
  8
DN40_営業図
  6
CONTINUOUS
 62
    54
100
AcDbLine
 10
658.4219429663386
 20
36.79544943996846
 30
0.0
 11
660.1045505600327
 21
38.47805703366257
 31
0.0
  0
LINE
  5
452
330
1F
100
AcDbEntity
  8
DN40_営業図
  6
CONTINUOUS
 62
    54
100
AcDbLine
 10
658.4000000000012
 20
36.20782104868184
 30
0.0
 11
660.6921789513194
 21
38.49999999999992
 31
0.0
  0
LINE
  5
453
330
1F
100
AcDbEntity
  8
DN40_営業図
  6
CONTINUOUS
 62
    54
100
AcDbLine
 10
658.4000000000002
 20
35.64213562373161
 30
0.0
 11
661.2578643762722
 21
38.50000000000356
 31
0.0
  0
LINE
  5
454
330
1F
100
AcDbEntity
  8
DN40_営業図
  6
CONTINUOUS
 62
    54
100
AcDbLine
 10
658.4000000000018
 20
35.07645019878394
 30
0.0
 11
661.78595597382
 21
38.46240617260217
 31
0.0
  0
LINE
  5
455
330
1F
100
AcDbEntity
  8
DN40_営業図
  6
CONTINUOUS
 62
    54
100
AcDbLine
 10
658.4000000000033
 20
34.51076477383626
 30
0.0
 11
662.2154463843442
 21
38.32621115817714
 31
0.0
  0
LINE
  5
456
330
1F
100
AcDbEntity
  8
DN40_営業図
  6
CONTINUOUS
 62
    54
100
AcDbLine
 10
658.3999999999996
 20
33.94507934888342
 30
0.0
 11
660.3999999999997
 21
35.94507934888349
 31
0.0
  0
LINE
  5
457
330
1F
100
AcDbEntity
  8
DN40_営業図
  6
CONTINUOUS
 62
    54
100
AcDbLine
 10
658.4000000000012
 20
33.3793939239358
 30
0.0
 11
660.3999999999997
 21
35.37939392393431
 31
0.0
  0
LINE
  5
458
330
1F
100
AcDbEntity
  8
DN40_営業図
  6
CONTINUOUS
 62
    54
100
AcDbLine
 10
658.4000000000002
 20
32.81370849898551
 30
0.0
 11
660.3999999999997
 21
34.81370849898511
 31
0.0
  0
LINE
  5
459
330
1F
100
AcDbEntity
  8
DN40_営業図
  6
CONTINUOUS
 62
    54
100
AcDbLine
 10
658.4000000000017
 20
32.24802307403784
 30
0.0
 11
660.3999999999997
 21
34.24802307403589
 31
0.0
  0
LINE
  5
45A
330
1F
100
AcDbEntity
  8
DN40_営業図
  6
CONTINUOUS
 62
    54
100
AcDbLine
 10
658.4000000000007
 20
31.68233764908755
 30
0.0
 11
660.3999999999997
 21
33.68233764908664
 31
0.0
  0
LINE
  5
45B
330
1F
100
AcDbEntity
  8
DN40_営業図
  6
CONTINUOUS
 62
    54
100
AcDbLine
 10
658.4000000000021
 20
31.11665222413993
 30
0.0
 11
660.3999999999997
 21
33.11665222413752
 31
0.0
  0
LINE
  5
45C
330
1F
100
AcDbEntity
  8
DN40_営業図
  6
CONTINUOUS
 62
    54
100
AcDbLine
 10
658.4000000000012
 20
30.5509667991897
 30
0.0
 11
660.3999999999997
 21
32.55096679918825
 31
0.0
  0
LINE
  5
45D
330
1F
100
AcDbEntity
  8
DN40_営業図
  6
CONTINUOUS
 62
    54
100
AcDbLine
 10
658.4000000000001
 20
29.98528137423941
 30
0.0
 11
660.3999999999997
 21
31.9852813742391
 31
0.0
  0
LINE
  5
45E
330
1F
100
AcDbEntity
  8
DN40_営業図
  6
CONTINUOUS
 62
    54
100
AcDbLine
 10
658.4000000000017
 20
29.41959594929174
 30
0.0
 11
660.3999999999997
 21
31.41959594928985
 31
0.0
  0
LINE
  5
45F
330
1F
100
AcDbEntity
  8
DN40_営業図
  6
CONTINUOUS
 62
    54
100
AcDbLine
 10
658.4000000000005
 20
28.85391052434145
 30
0.0
 11
660.3999999999997
 21
30.85391052434066
 31
0.0
  0
LINE
  5
460
330
1F
100
AcDbEntity
  8
DN40_営業図
  6
CONTINUOUS
 62
    54
100
AcDbLine
 10
658.4000000000021
 20
28.28822509939383
 30
0.0
 11
660.3999999999997
 21
30.28822509939148
 31
0.0
  0
LINE
  5
461
330
1F
100
AcDbEntity
  8
DN40_営業図
  6
CONTINUOUS
 62
    54
100
AcDbLine
 10
658.400000000001
 20
27.72253967444355
 30
0.0
 11
660.3999999999997
 21
29.7225396744423
 31
0.0
  0
LINE
  5
462
330
1F
100
AcDbEntity
  8
DN40_営業図
  6
CONTINUOUS
 62
    54
100
AcDbLine
 10
658.4000000000001
 20
27.15685424949331
 30
0.0
 11
660.3999999999997
 21
29.15685424949302
 31
0.0
  0
LINE
  5
463
330
1F
100
AcDbEntity
  8
DN40_営業図
  6
CONTINUOUS
 62
    54
100
AcDbLine
 10
658.4000000000015
 20
26.59116882454558
 30
0.0
 11
660.3999999999997
 21
28.59116882454384
 31
0.0
  0
LINE
  5
464
330
1F
100
AcDbEntity
  8
DN40_営業図
  6
CONTINUOUS
 62
    54
100
AcDbLine
 10
658.4000000000005
 20
26.02548339959541
 30
0.0
 11
660.3999999999997
 21
28.02548339959464
 31
0.0
  0
LINE
  5
465
330
1F
100
AcDbEntity
  8
DN40_営業図
  6
CONTINUOUS
 62
    54
100
AcDbLine
 10
658.400000000002
 20
25.45979797464768
 30
0.0
 11
660.3999999999997
 21
27.4597979746454
 31
0.0
  0
LINE
  5
466
330
1F
100
AcDbEntity
  8
DN40_営業図
  6
CONTINUOUS
 62
    54
100
AcDbLine
 10
658.3999999999985
 20
24.89411254969489
 30
0.0
 11
660.3999999999997
 21
26.89411254969617
 31
0.0
  0
LINE
  5
467
330
1F
100
AcDbEntity
  8
DN40_営業図
  6
CONTINUOUS
 62
    54
100
AcDbLine
 10
658.3999999999999
 20
24.32842712474716
 30
0.0
 11
660.571572875255
 21
26.50000000000228
 31
0.0
  0
LINE
  5
468
330
1F
100
AcDbEntity
  8
DN40_営業図
  6
CONTINUOUS
 62
    54
100
AcDbLine
 10
658.4000000000015
 20
23.76274169979954
 30
0.0
 11
661.1372583002042
 21
26.50000000000228
 31
0.0
  0
LINE
  5
469
330
1F
100
AcDbEntity
  8
DN40_営業図
  6
CONTINUOUS
 62
    54
100
AcDbLine
 10
658.400000000003
 20
23.19705627485181
 30
0.0
 11
663.3999999999987
 21
28.19705627484749
 31
0.0
  0
LINE
  5
46A
330
1F
100
AcDbEntity
  8
DN40_営業図
  6
CONTINUOUS
 62
    54
100
AcDbLine
 10
658.4000000000019
 20
22.63137084990158
 30
0.0
 11
663.4000000000002
 21
27.63137084989987
 31
0.0
  0
LINE
  5
46B
330
1F
100
AcDbEntity
  8
DN40_営業図
  6
CONTINUOUS
 62
    54
100
AcDbLine
 10
658.4000000000035
 20
22.06568542495391
 30
0.0
 11
660.4000000000012
 21
24.06568542495163
 31
0.0
  0
LINE
  5
46C
330
1F
100
AcDbEntity
  8
DN40_営業図
  6
CONTINUOUS
 62
    54
100
AcDbLine
 10
660.8343145750501
 20
24.50000000000055
 30
0.0
 11
663.3999999999992
 21
27.06568542494959
 31
0.0
  0
LINE
  5
46D
330
1F
100
AcDbEntity
  8
DN40_営業図
  6
CONTINUOUS
 62
    54
100
AcDbLine
 10
658.3999999999999
 20
21.50000000000106
 30
0.0
 11
660.4000000000028
 21
23.50000000000401
 31
0.0
  0
LINE
  5
46E
330
1F
100
AcDbEntity
  8
DN40_営業図
  6
CONTINUOUS
 62
    54
100
AcDbLine
 10
661.3999999999978
 20
24.49999999999901
 30
0.0
 11
663.399999999998
 21
26.49999999999935
 31
0.0
  0
LINE
  5
46F
330
1F
100
AcDbEntity
  8
DN40_営業図
  6
CONTINUOUS
 62
    54
100
AcDbLine
 10
658.9656854249475
 20
21.49999999999952
 30
0.0
 11
660.3999999999992
 21
22.93431457505117
 31
0.0
  0
LINE
  5
470
330
1F
100
AcDbEntity
  8
DN40_営業図
  6
CONTINUOUS
 62
    54
100
AcDbLine
 10
661.3999999999994
 20
23.93431457505134
 30
0.0
 11
663.3999999999971
 21
25.93431457504906
 31
0.0
  0
LINE
  5
471
330
1F
100
AcDbEntity
  8
DN40_営業図
  6
CONTINUOUS
 62
    54
100
AcDbLine
 10
659.5313708499003
 20
21.50000000000316
 30
0.0
 11
660.4000000000007
 21
22.36862915010349
 31
0.0
  0
LINE
  5
472
330
1F
100
AcDbEntity
  8
DN40_営業図
  6
CONTINUOUS
 62
    54
100
AcDbLine
 10
661.3999999999983
 20
23.36862915010111
 30
0.0
 11
663.3999999999986
 21
25.36862915010145
 31
0.0
  0
LINE
  5
473
330
1F
100
AcDbEntity
  8
DN40_営業図
  6
CONTINUOUS
 62
    54
100
AcDbLine
 10
660.097056274848
 20
21.50000000000163
 30
0.0
 11
660.4000000000021
 21
21.80294372515576
 31
0.0
  0
LINE
  5
474
330
1F
100
AcDbEntity
  8
DN40_営業図
  6
CONTINUOUS
 62
    54
100
AcDbLine
 10
661.3999999999972
 20
22.80294372515082
 30
0.0
 11
663.4000000000001
 21
24.80294372515372
 31
0.0
  0
LINE
  5
475
330
1F
100
AcDbEntity
  8
DN40_営業図
  6
CONTINUOUS
 62
    54
100
AcDbLine
 10
661.3999999999987
 20
22.23725830020314
 30
0.0
 11
663.3999999999991
 21
24.23725830020349
 31
0.0
  0
LINE
  5
476
330
1F
100
AcDbEntity
  8
DN40_営業図
  6
CONTINUOUS
 62
    54
100
AcDbLine
 10
661.3999999999977
 20
21.67157287525286
 30
0.0
 11
663.399999999998
 21
23.6715728752532
 31
0.0
  0
LINE
  5
477
330
1F
100
AcDbEntity
  8
DN40_営業図
  6
CONTINUOUS
 62
    54
100
AcDbLine
 10
661.7941125496911
 20
21.49999999999708
 30
0.0
 11
663.3999999999969
 21
23.10588745030297
 31
0.0
  0
LINE
  5
478
330
1F
100
AcDbEntity
  8
DN40_営業図
  6
CONTINUOUS
 62
    54
100
AcDbLine
 10
662.3597979746413
 20
21.4999999999981
 30
0.0
 11
663.3999999999985
 21
22.54020202535535
 31
0.0
  0
LINE
  5
479
330
1F
100
AcDbEntity
  8
DN40_営業図
  6
CONTINUOUS
 62
    54
100
AcDbLine
 10
662.9254833995915
 20
21.49999999999913
 30
0.0
 11
663.3999999999975
 21
21.97451660040506
 31
0.0
  0
LINE
  5
47A
330
1F
100
AcDbEntity
  8
DN40_営業図
  6
CONTINUOUS
 62
    54
100
AcDbLine
 10
658.965685424946
 20
21.50000000000293
 30
0.0
 11
658.3999999999999
 21
22.06568542494907
 31
0.0
  0
LINE
  5
47B
330
1F
100
AcDbEntity
  8
DN40_営業図
  6
CONTINUOUS
 62
    54
100
AcDbLine
 10
659.5313708498962
 20
21.50000000000191
 30
0.0
 11
658.4000000000013
 21
22.6313708498968
 31
0.0
  0
LINE
  5
47C
330
1F
100
AcDbEntity
  8
DN40_営業図
  6
CONTINUOUS
 62
    54
100
AcDbLine
 10
660.0970562748439
 20
21.50000000000345
 30
0.0
 11
658.4000000000003
 21
23.19705627484704
 31
0.0
  0
LINE
  5
47D
330
1F
100
AcDbEntity
  8
DN40_営業図
  6
CONTINUOUS
 62
    54
100
AcDbLine
 10
660.3999999999996
 20
21.76274169979698
 30
0.0
 11
658.4000000000019
 21
23.76274169979477
 31
0.0
  0
LINE
  5
47E
330
1F
100
AcDbEntity
  8
DN40_営業図
  6
CONTINUOUS
 62
    54
100
AcDbLine
 10
660.4000000000011
 20
22.3284271247446
 30
0.0
 11
658.4000000000008
 21
24.32842712474494
 31
0.0
  0
LINE
  5
47F
330
1F
100
AcDbEntity
  8
DN40_営業図
  6
CONTINUOUS
 62
    54
100
AcDbLine
 10
661.7941125496947
 20
21.50000000000032
 30
0.0
 11
661.4000000000003
 21
21.89411254969472
 31
0.0
  0
LINE
  5
480
330
1F
100
AcDbEntity
  8
DN40_営業図
  6
CONTINUOUS
 62
    54
100
AcDbLine
 10
660.4000000000001
 20
22.89411254969489
 30
0.0
 11
658.3999999999997
 21
24.89411254969523
 31
0.0
  0
LINE
  5
481
330
1F
100
AcDbEntity
  8
DN40_営業図
  6
CONTINUOUS
 62
    54
100
AcDbLine
 10
662.3597979746423
 20
21.50000000000185
 30
0.0
 11
661.3999999999967
 21
22.45979797464751
 31
0.0
  0
LINE
  5
482
330
1F
100
AcDbEntity
  8
DN40_営業図
  6
CONTINUOUS
 62
    54
100
AcDbLine
 10
660.399999999999
 20
23.45979797464512
 30
0.0
 11
658.4000000000012
 21
25.4597979746429
 31
0.0
  0
LINE
  5
483
330
1F
100
AcDbEntity
  8
DN40_営業図
  6
CONTINUOUS
 62
    54
100
AcDbLine
 10
662.9254833995926
 20
21.50000000000083
 30
0.0
 11
661.3999999999982
 21
23.02548339959524
 31
0.0
  0
LINE
  5
484
330
1F
100
AcDbEntity
  8
DN40_営業図
  6
CONTINUOUS
 62
    54
100
AcDbLine
 10
660.399999999998
 20
24.02548339959541
 30
0.0
 11
658.4000000000003
 21
26.02548339959319
 31
0.0
  0
LINE
  5
485
330
1F
100
AcDbEntity
  8
DN40_営業図
  6
CONTINUOUS
 62
    54
100
AcDbLine
 10
663.3999999999974
 20
21.59116882454513
 30
0.0
 11
661.3999999999996
 21
23.59116882454291
 31
0.0
  0
LINE
  5
486
330
1F
100
AcDbEntity
  8
DN40_営業図
  6
CONTINUOUS
 62
    54
100
AcDbLine
 10
660.491168824545
 20
24.4999999999977
 30
0.0
 11
658.3999999999992
 21
26.59116882454342
 31
0.0
  0
LINE
  5
487
330
1F
100
AcDbEntity
  8
DN40_営業図
  6
CONTINUOUS
 62
    54
100
AcDbLine
 10
663.399999999999
 20
22.15685424949286
 30
0.0
 11
661.3999999999987
 21
24.1568542494932
 31
0.0
  0
LINE
  5
488
330
1F
100
AcDbEntity
  8
DN40_営業図
  6
CONTINUOUS
 62
    54
100
AcDbLine
 10
661.0568542494925
 20
24.49999999999924
 30
0.0
 11
658.4000000000033
 21
27.15685424948854
 31
0.0
  0
LINE
  5
489
330
1F
100
AcDbEntity
  8
DN40_営業図
  6
CONTINUOUS
 62
    54
100
AcDbLine
 10
663.3999999999979
 20
22.72253967444303
 30
0.0
 11
658.4000000000021
 21
27.72253967443877
 31
0.0
  0
LINE
  5
48A
330
1F
100
AcDbEntity
  8
DN40_営業図
  6
CONTINUOUS
 62
    54
100
AcDbLine
 10
663.3999999999994
 20
23.28822509939076
 30
0.0
 11
658.4000000000012
 21
28.28822509938906
 31
0.0
  0
LINE
  5
48B
330
1F
100
AcDbEntity
  8
DN40_営業図
  6
CONTINUOUS
 62
    54
100
AcDbLine
 10
663.3999999999984
 20
23.853910524341
 30
0.0
 11
660.753910524337
 21
26.50000000000228
 31
0.0
  0
LINE
  5
48C
330
1F
100
AcDbEntity
  8
DN40_営業図
  6
CONTINUOUS
 62
    54
100
AcDbLine
 10
663.3999999999974
 20
24.41959594929128
 30
0.0
 11
661.3195959492864
 21
26.50000000000228
 31
0.0
  0
LINE
  5
48D
330
1F
100
AcDbEntity
  8
DN40_営業図
  6
CONTINUOUS
 62
    54
100
AcDbLine
 10
663.399999999999
 20
24.9852813742389
 30
0.0
 11
661.3999999999997
 21
26.98528137423802
 31
0.0
  0
LINE
  5
48E
330
1F
100
AcDbEntity
  8
DN40_営業図
  6
CONTINUOUS
 62
    54
100
AcDbLine
 10
663.4000000000003
 20
25.55096679918658
 30
0.0
 11
661.3999999999997
 21
27.55096679918717
 31
0.0
  0
LINE
  5
48F
330
1F
100
AcDbEntity
  8
DN40_営業図
  6
CONTINUOUS
 62
    54
100
AcDbLine
 10
663.3999999999994
 20
26.11665222413692
 30
0.0
 11
661.3999999999997
 21
28.11665222413659
 31
0.0
  0
LINE
  5
490
330
1F
100
AcDbEntity
  8
DN40_営業図
  6
CONTINUOUS
 62
    54
100
AcDbLine
 10
663.3999999999984
 20
26.68233764908715
 30
0.0
 11
661.3999999999997
 21
28.68233764908577
 31
0.0
  0
LINE
  5
491
330
1F
100
AcDbEntity
  8
DN40_営業図
  6
CONTINUOUS
 62
    54
100
AcDbLine
 10
663.3999999999974
 20
27.24802307403744
 30
0.0
 11
661.3999999999997
 21
29.24802307403505
 31
0.0
  0
LINE
  5
492
330
1F
100
AcDbEntity
  8
DN40_営業図
  6
CONTINUOUS
 62
    54
100
AcDbLine
 10
663.3999999999988
 20
27.81370849898506
 30
0.0
 11
661.3999999999997
 21
29.81370849898418
 31
0.0
  0
LINE
  5
493
330
1F
100
AcDbEntity
  8
DN40_営業図
  6
CONTINUOUS
 62
    54
100
AcDbLine
 10
663.3999999999978
 20
28.37939392393535
 30
0.0
 11
661.3999999999997
 21
30.37939392393343
 31
0.0
  0
LINE
  5
494
330
1F
100
AcDbEntity
  8
DN40_営業図
  6
CONTINUOUS
 62
    54
100
AcDbLine
 10
663.3999999999967
 20
28.94507934888558
 30
0.0
 11
661.3999999999997
 21
30.94507934888255
 31
0.0
  0
LINE
  5
495
330
1F
100
AcDbEntity
  8
DN40_営業図
  6
CONTINUOUS
 62
    54
100
AcDbLine
 10
663.4000000000009
 20
29.51076477383069
 30
0.0
 11
661.3999999999997
 21
31.51076477383184
 31
0.0
  0
LINE
  5
496
330
1F
100
AcDbEntity
  8
DN40_営業図
  6
CONTINUOUS
 62
    54
100
AcDbLine
 10
663.3999999999999
 20
30.07645019878093
 30
0.0
 11
661.3999999999997
 21
32.07645019878102
 31
0.0
  0
LINE
  5
497
330
1F
100
AcDbEntity
  8
DN40_営業図
  6
CONTINUOUS
 62
    54
100
AcDbLine
 10
663.3999999999987
 20
30.64213562373116
 30
0.0
 11
661.3999999999997
 21
32.6421356237302
 31
0.0
  0
LINE
  5
498
330
1F
100
AcDbEntity
  8
DN40_営業図
  6
CONTINUOUS
 62
    54
100
AcDbLine
 10
663.4000000000003
 20
31.20782104867889
 30
0.0
 11
661.3999999999997
 21
33.20782104867943
 31
0.0
  0
LINE
  5
499
330
1F
100
AcDbEntity
  8
DN40_営業図
  6
CONTINUOUS
 62
    54
100
AcDbLine
 10
663.3999999999992
 20
31.77350647362906
 30
0.0
 11
661.3999999999997
 21
33.77350647362858
 31
0.0
  0
LINE
  5
49A
330
1F
100
AcDbEntity
  8
DN40_営業図
  6
CONTINUOUS
 62
    54
100
AcDbLine
 10
663.3999999999983
 20
32.33919189857935
 30
0.0
 11
661.3999999999997
 21
34.33919189857786
 31
0.0
  0
LINE
  5
49B
330
1F
100
AcDbEntity
  8
DN40_営業図
  6
CONTINUOUS
 62
    54
100
AcDbLine
 10
663.3999999999996
 20
32.90487732352702
 30
0.0
 11
661.3999999999997
 21
34.90487732352694
 31
0.0
  0
LINE
  5
49C
330
1F
100
AcDbEntity
  8
DN40_営業図
  6
CONTINUOUS
 62
    54
100
AcDbLine
 10
663.3999999999987
 20
33.47056274847731
 30
0.0
 11
661.3999999999997
 21
35.47056274847626
 31
0.0
  0
LINE
  5
49D
330
1F
100
AcDbEntity
  8
DN40_営業図
  6
CONTINUOUS
 62
    54
100
AcDbLine
 10
663.4000000000002
 20
34.03624817342493
 30
0.0
 11
661.3985790153309
 21
36.03766915809422
 31
0.0
  0
LINE
  5
49E
330
1F
100
AcDbEntity
  8
DN40_営業図
  6
CONTINUOUS
 62
    54
100
AcDbLine
 10
663.3999999999992
 20
34.60193359837522
 30
0.0
 11
659.6484939256914
 21
38.35343967268305
 31
0.0
  0
LINE
  5
49F
330
1F
100
AcDbEntity
  8
DN40_営業図
  6
CONTINUOUS
 62
    54
100
AcDbLine
 10
663.399999999998
 20
35.16761902332545
 30
0.0
 11
660.0915478523832
 21
38.47607117094029
 31
0.0
  0
LINE
  5
4A0
330
1F
100
AcDbEntity
  8
DN40_営業図
  6
CONTINUOUS
 62
    54
100
AcDbLine
 10
663.3999999999996
 20
35.73330444827318
 30
0.0
 11
660.6333044482706
 21
38.50000000000225
 31
0.0
  0
LINE
  5
4A1
330
1F
100
AcDbEntity
  8
DN40_営業図
  6
CONTINUOUS
 62
    54
100
AcDbLine
 10
663.3999999999986
 20
36.29898987322341
 30
0.0
 11
661.1989898732209
 21
38.50000000000117
 31
0.0
  0
LINE
  5
4A2
330
1F
100
AcDbEntity
  8
DN40_営業図
  6
CONTINUOUS
 62
    54
100
AcDbLine
 10
663.3582742982753
 20
36.90640099989586
 30
0.0
 11
661.8064009998959
 21
38.45827429827543
 31
0.0
  0
LINE
  5
4A3
330
1F
100
AcDbEntity
  8
DN40_営業図
  6
CONTINUOUS
 62
    54
100
AcDbLine
 10
660.9455844122707
 20
36.49066376115443
 30
0.0
 11
662.5740547882758
 21
38.11913413715948
 31
0.0
  0
LINE
  5
4A4
330
1F
100
AcDbEntity
  8
DN40_営業図
  6
CONTINUOUS
 62
    54
100
AcDbLine
 10
660.9455844122707
 20
36.49066376115443
 30
0.0
 11
659.2795602696241
 21
38.15668790380105
 31
0.0
  0
LINE
  5
4A5
330
1F
100
AcDbEntity
  8
DN40_営業図
  6
CONTINUOUS
 62
    54
100
AcDbLine
 10
661.3086757459246
 20
36.28806966985915
 30
0.0
 11
662.8732303339682
 21
37.85262425790271
 31
0.0
  0
LINE
  5
4A6
330
1F
100
AcDbEntity
  8
DN40_営業図
  6
CONTINUOUS
 62
    54
100
AcDbLine
 10
661.3999999999997
 20
35.8137084989851
 30
0.0
 11
663.1150972780429
 21
37.52880577702823
 31
0.0
  0
LINE
  5
4A7
330
1F
100
AcDbEntity
  8
DN40_営業図
  6
CONTINUOUS
 62
    54
100
AcDbLine
 10
661.3999999999997
 20
35.24802307403591
 30
0.0
 11
663.2941124491183
 21
37.14213552315446
 31
0.0
  0
LINE
  5
4A8
330
1F
100
AcDbEntity
  8
DN40_営業図
  6
CONTINUOUS
 62
    54
100
AcDbLine
 10
660.5320344888223
 20
36.33852825965362
 30
0.0
 11
658.9711444070183
 21
37.89941834145768
 31
0.0
  0
LINE
  5
4A9
330
1F
100
AcDbEntity
  8
DN40_営業図
  6
CONTINUOUS
 62
    54
100
AcDbLine
 10
660.3999999999997
 20
35.90487732352695
 30
0.0
 11
658.7198840516339
 21
37.58499327189279
 31
0.0
  0
LINE
  5
4AA
330
1F
100
AcDbEntity
  8
DN40_営業図
  6
CONTINUOUS
 62
    54
100
AcDbLine
 10
660.3999999999997
 20
35.33919189857784
 30
0.0
 11
658.5299715319013
 21
37.20922036667626
 31
0.0
  0
LINE
  5
4AB
330
1F
100
AcDbEntity
  8
DN40_営業図
  6
CONTINUOUS
 62
    54
100
AcDbLine
 10
660.3999999999997
 20
34.77350647362857
 30
0.0
 11
658.4165724362956
 21
36.75693403733275
 31
0.0
  0
LINE
  5
4AC
330
1F
100
AcDbEntity
  8
DN40_営業図
  6
CONTINUOUS
 62
    54
100
AcDbLine
 10
660.3999999999997
 20
34.20782104867943
 30
0.0
 11
658.400000000002
 21
36.20782104867713
 31
0.0
  0
LINE
  5
4AD
330
1F
100
AcDbEntity
  8
DN40_営業図
  6
CONTINUOUS
 62
    54
100
AcDbLine
 10
660.3999999999997
 20
33.6421356237302
 30
0.0
 11
658.4000000000005
 21
35.64213562372945
 31
0.0
  0
LINE
  5
4AE
330
1F
100
AcDbEntity
  8
DN40_営業図
  6
CONTINUOUS
 62
    54
100
AcDbLine
 10
660.3999999999997
 20
33.07645019878104
 30
0.0
 11
658.4000000000016
 21
35.07645019877922
 31
0.0
  0
LINE
  5
4AF
330
1F
100
AcDbEntity
  8
DN40_営業図
  6
CONTINUOUS
 62
    54
100
AcDbLine
 10
660.3999999999997
 20
32.51076477383183
 30
0.0
 11
658.4000000000026
 21
34.51076477382899
 31
0.0
  0
LINE
  5
4B0
330
1F
100
AcDbEntity
  8
DN40_営業図
  6
CONTINUOUS
 62
    54
100
AcDbLine
 10
660.3999999999997
 20
31.94507934888251
 30
0.0
 11
658.400000000001
 21
33.94507934888126
 31
0.0
  0
LINE
  5
4B1
330
1F
100
AcDbEntity
  8
DN40_営業図
  6
CONTINUOUS
 62
    54
100
AcDbLine
 10
660.3999999999997
 20
31.37939392393348
 30
0.0
 11
658.3999999999996
 21
33.37939392393364
 31
0.0
  0
LINE
  5
4B2
330
1F
100
AcDbEntity
  8
DN40_営業図
  6
CONTINUOUS
 62
    54
100
AcDbLine
 10
660.3999999999997
 20
30.81370849898415
 30
0.0
 11
658.4000000000005
 21
32.81370849898335
 31
0.0
  0
LINE
  5
4B3
330
1F
100
AcDbEntity
  8
DN40_営業図
  6
CONTINUOUS
 62
    54
100
AcDbLine
 10
660.3999999999997
 20
30.24802307403505
 30
0.0
 11
658.4000000000017
 21
32.24802307403312
 31
0.0
  0
LINE
  5
4B4
330
1F
100
AcDbEntity
  8
DN40_営業図
  6
CONTINUOUS
 62
    54
100
AcDbLine
 10
660.3999999999997
 20
29.68233764908572
 30
0.0
 11
658.4000000000026
 21
31.68233764908283
 31
0.0
  0
LINE
  5
4B5
330
1F
100
AcDbEntity
  8
DN40_営業図
  6
CONTINUOUS
 62
    54
100
AcDbLine
 10
660.3999999999997
 20
29.11665222413661
 30
0.0
 11
658.4000000000012
 21
31.11665222413516
 31
0.0
  0
LINE
  5
4B6
330
1F
100
AcDbEntity
  8
DN40_営業図
  6
CONTINUOUS
 62
    54
100
AcDbLine
 10
660.3999999999997
 20
28.55096679918721
 30
0.0
 11
658.4000000000021
 21
30.55096679918487
 31
0.0
  0
LINE
  5
4B7
330
1F
100
AcDbEntity
  8
DN40_営業図
  6
CONTINUOUS
 62
    54
100
AcDbLine
 10
660.3999999999997
 20
27.98528137423803
 30
0.0
 11
658.4000000000005
 21
29.9852813742372
 31
0.0
  0
LINE
  5
4B8
330
1F
100
AcDbEntity
  8
DN40_営業図
  6
CONTINUOUS
 62
    54
100
AcDbLine
 10
660.3999999999997
 20
27.4195959492889
 30
0.0
 11
658.4000000000017
 21
29.41959594928696
 31
0.0
  0
LINE
  5
4B9
330
1F
100
AcDbEntity
  8
DN40_営業図
  6
CONTINUOUS
 62
    54
100
AcDbLine
 10
660.3999999999997
 20
26.85391052433963
 30
0.0
 11
658.4000000000027
 21
28.85391052433668
 31
0.0
  0
LINE
  5
4BA
330
1F
100
AcDbEntity
  8
DN40_営業図
  6
CONTINUOUS
 62
    54
100
AcDbLine
 10
661.3999999999997
 20
26.76274169979786
 30
0.0
 11
663.3999999999996
 21
28.76274169979778
 31
0.0
  0
LINE
  5
4BB
330
1F
100
AcDbEntity
  8
DN40_営業図
  6
CONTINUOUS
 62
    54
100
AcDbLine
 10
661.3999999999997
 20
27.32842712474699
 30
0.0
 11
663.3999999999983
 21
29.32842712474545
 31
0.0
  0
LINE
  5
4BC
330
1F
100
AcDbEntity
  8
DN40_営業図
  6
CONTINUOUS
 62
    54
100
AcDbLine
 10
661.3999999999997
 20
27.89411254969617
 30
0.0
 11
663.3999999999967
 21
29.89411254969313
 31
0.0
  0
LINE
  5
4BD
330
1F
100
AcDbEntity
  8
DN40_営業図
  6
CONTINUOUS
 62
    54
100
AcDbLine
 10
661.3999999999997
 20
28.45979797464542
 30
0.0
 11
663.4000000000003
 21
30.45979797464597
 31
0.0
  0
LINE
  5
4BE
330
1F
100
AcDbEntity
  8
DN40_営業図
  6
CONTINUOUS
 62
    54
100
AcDbLine
 10
661.3999999999997
 20
29.02548339959466
 30
0.0
 11
663.3999999999987
 21
31.02548339959365
 31
0.0
  0
LINE
  5
4BF
330
1F
100
AcDbEntity
  8
DN40_営業図
  6
CONTINUOUS
 62
    54
100
AcDbLine
 10
661.3999999999997
 20
29.59116882454382
 30
0.0
 11
663.3999999999999
 21
31.59116882454388
 31
0.0
  0
LINE
  5
4C0
330
1F
100
AcDbEntity
  8
DN40_営業図
  6
CONTINUOUS
 62
    54
100
AcDbLine
 10
661.3999999999997
 20
30.15685424949303
 30
0.0
 11
663.3999999999983
 21
32.15685424949161
 31
0.0
  0
LINE
  5
4C1
330
1F
100
AcDbEntity
  8
DN40_営業図
  6
CONTINUOUS
 62
    54
100
AcDbLine
 10
661.3999999999997
 20
30.7225396744423
 30
0.0
 11
663.3999999999967
 21
32.72253967443923
 31
0.0
  0
LINE
  5
4C2
330
1F
100
AcDbEntity
  8
DN40_営業図
  6
CONTINUOUS
 62
    54
100
AcDbLine
 10
661.3999999999997
 20
31.28822509939146
 30
0.0
 11
663.4000000000003
 21
33.28822509939207
 31
0.0
  0
LINE
  5
4C3
330
1F
100
AcDbEntity
  8
DN40_営業図
  6
CONTINUOUS
 62
    54
100
AcDbLine
 10
661.3999999999997
 20
31.85391052434067
 30
0.0
 11
663.3999999999988
 21
33.85391052433975
 31
0.0
  0
LINE
  5
4C4
330
1F
100
AcDbEntity
  8
DN40_営業図
  6
CONTINUOUS
 62
    54
100
AcDbLine
 10
661.3999999999997
 20
32.41959594928986
 30
0.0
 11
663.3999999999999
 21
34.41959594929003
 31
0.0
  0
LINE
  5
4C5
330
1F
100
AcDbEntity
  8
DN40_営業図
  6
CONTINUOUS
 62
    54
100
AcDbLine
 10
661.3999999999997
 20
32.9852813742391
 30
0.0
 11
663.3999999999983
 21
34.98528137423765
 31
0.0
  0
LINE
  5
4C6
330
1F
100
AcDbEntity
  8
DN40_営業図
  6
CONTINUOUS
 62
    54
100
AcDbLine
 10
661.3999999999997
 20
33.55096679918827
 30
0.0
 11
663.400000000002
 21
35.55096679919055
 31
0.0
  0
LINE
  5
4C7
330
1F
100
AcDbEntity
  8
DN40_営業図
  6
CONTINUOUS
 62
    54
100
AcDbLine
 10
661.3999999999997
 20
34.1166522241375
 30
0.0
 11
663.4000000000004
 21
36.11665222413817
 31
0.0
  0
LINE
  5
4C8
330
1F
100
AcDbEntity
  8
DN40_営業図
  6
CONTINUOUS
 62
    54
100
AcDbLine
 10
661.3999999999997
 20
34.68233764908664
 30
0.0
 11
663.3923559303712
 21
36.67469357945809
 31
0.0
  0
ARC
  5
4C9
330
1F
100
AcDbEntity
  8
DN40_営業図
  6
CONTINUOUS
 62
     7
100
AcDbCircle
 10
501.655426
 20
621.148254
 30
0.0
 40
31.43805700000002
100
AcDbArc
 50
164.2721564841999
 51
195.7275967326001
  0
LINE
  5
4CA
330
1F
100
AcDbEntity
  8
DN40_営業図
  6
CONTINUOUS
 62
     7
100
AcDbLine
 10
471.394379
 20
606.148254
 30
0.0
 11
486.394379
 21
606.148254
 31
0.0
  0
LINE
  5
4CB
330
1F
100
AcDbEntity
  8
DN40_営業図
  6
CONTINUOUS
 62
     7
100
AcDbLine
 10
473.250671
 20
610.562927
 30
0.0
 11
483.250671
 21
610.562927
 31
0.0
  0
LINE
  5
4CC
330
1F
100
AcDbEntity
  8
DN40_営業図
  6
CONTINUOUS
 62
     7
100
AcDbLine
 10
471.394409
 20
612.626526
 30
0.0
 11
473.250671
 21
612.561707
 31
0.0
  0
LINE
  5
4CD
330
1F
100
AcDbEntity
  8
DN40_営業図
  6
CONTINUOUS
 62
     7
100
AcDbLine
 10
473.250671
 20
610.562927
 30
0.0
 11
473.250671
 21
631.733704
 31
0.0
  0
LINE
  5
4CE
330
1F
100
AcDbEntity
  8
DN40_営業図
  6
CONTINUOUS
 62
     7
100
AcDbLine
 10
483.250671
 20
615.85553
 30
0.0
 11
473.250671
 21
615.85553
 31
0.0
  0
LINE
  5
4CF
330
1F
100
AcDbEntity
  8
DN40_営業図
  6
CONTINUOUS
 62
     7
100
AcDbLine
 10
471.394379
 20
596.148315
 30
0.0
 11
471.394379
 21
612.6265254128
 31
0.0
  0
LINE
  5
4D0
330
1F
100
AcDbEntity
  8
DN40_営業図
  6
CONTINUOUS
 62
     7
100
AcDbLine
 10
483.250671
 20
626.440979
 30
0.0
 11
473.250671
 21
626.440979
 31
0.0
  0
LINE
  5
4D1
330
1F
100
AcDbEntity
  8
DN40_営業図
  6
CONTINUOUS
 62
     7
100
AcDbLine
 10
473.250671
 20
631.733704
 30
0.0
 11
483.250671
 21
631.733704
 31
0.0
  0
LINE
  5
4D2
330
1F
100
AcDbEntity
  8
DN40_営業図
  6
CONTINUOUS
 62
     7
100
AcDbLine
 10
471.394409
 20
629.670105
 30
0.0
 11
473.250671
 21
629.734924
 31
0.0
  0
LINE
  5
4D3
330
1F
100
AcDbEntity
  8
DN40_営業図
  6
CONTINUOUS
 62
     7
100
AcDbLine
 10
471.394379
 20
629.670105
 30
0.0
 11
471.394379
 21
656.148254
 31
0.0
  0
LINE
  5
4D4
330
1F
100
AcDbEntity
  8
DN40_営業図
  6
CONTINUOUS
 62
     7
100
AcDbLine
 10
483.250671
 20
610.562927
 30
0.0
 11
483.250671
 21
631.733704
 31
0.0
  0
LINE
  5
4D5
330
1F
100
AcDbEntity
  8
DN40_営業図
  6
CONTINUOUS
 62
     7
100
AcDbLine
 10
506.394379
 20
681.148315
 30
0.0
 11
506.394379
 21
656.148315
 31
0.0
  0
LINE
  5
4D6
330
1F
100
AcDbEntity
  8
DN40_営業図
  6
CONTINUOUS
 62
     7
100
AcDbLine
 10
161.394409
 20
681.148315
 30
0.0
 11
506.394379
 21
681.148315
 31
0.0
  0
LINE
  5
4D7
330
1F
100
AcDbEntity
  8
DN40_営業図
  6
CONTINUOUS
 62
     7
100
AcDbLine
 10
161.394409
 20
656.148315
 30
0.0
 11
506.394379
 21
656.148315
 31
0.0
  0
LINE
  5
4D8
330
1F
100
AcDbEntity
  8
DN40_営業図
  6
CONTINUOUS
 62
     7
100
AcDbLine
 10
343.394409
 20
656.148254
 30
0.0
 11
343.394409
 21
606.148254
 31
0.0
  0
LINE
  5
4D9
330
1F
100
AcDbEntity
  8
DN40_営業図
  6
CONTINUOUS
 62
     7
100
AcDbLine
 10
324.394409
 20
656.148254
 30
0.0
 11
324.394409
 21
606.148254
 31
0.0
  0
LINE
  5
4DA
330
1F
100
AcDbEntity
  8
DN40_営業図
  6
CONTINUOUS
 62
     7
100
AcDbLine
 10
324.394409
 20
606.148254
 30
0.0
 11
343.394409
 21
606.148254
 31
0.0
  0
LINE
  5
4DB
330
1F
100
AcDbEntity
  8
DN40_営業図
  6
CONTINUOUS
 62
     7
100
AcDbLine
 10
161.394409
 20
681.148315
 30
0.0
 11
161.394409
 21
656.148315
 31
0.0
  0
LINE
  5
4DC
330
1F
100
AcDbEntity
  8
DN40_営業図
  6
CONTINUOUS
 62
     7
100
AcDbLine
 10
173.718811
 20
631.733704
 30
0.0
 11
166.39444
 21
656.148254
 31
0.0
  0
LINE
  5
4DD
330
1F
100
AcDbEntity
  8
DN40_営業図
  6
CONTINUOUS
 62
     7
100
AcDbLine
 10
196.394379
 20
629.670105
 30
0.0
 11
196.394379
 21
656.148254
 31
0.0
  0
LINE
  5
4DE
330
1F
100
AcDbEntity
  8
DN40_営業図
  6
CONTINUOUS
 62
     7
100
AcDbLine
 10
194.538147
 20
610.562927
 30
0.0
 11
194.538147
 21
631.733704
 31
0.0
  0
LINE
  5
4DF
330
1F
100
AcDbEntity
  8
DN40_営業図
  6
CONTINUOUS
 62
     7
100
AcDbLine
 10
184.538147
 20
610.562927
 30
0.0
 11
184.538147
 21
631.733704
 31
0.0
  0
LINE
  5
4E0
330
1F
100
AcDbEntity
  8
DN40_営業図
  6
CONTINUOUS
 62
     7
100
AcDbLine
 10
194.538147
 20
631.733704
 30
0.0
 11
184.538147
 21
631.733704
 31
0.0
  0
LINE
  5
4E1
330
1F
100
AcDbEntity
  8
DN40_営業図
  6
CONTINUOUS
 62
     7
100
AcDbLine
 10
194.538147
 20
610.562927
 30
0.0
 11
184.538147
 21
610.562927
 31
0.0
  0
LINE
  5
4E2
330
1F
100
AcDbEntity
  8
DN40_営業図
  6
CONTINUOUS
 62
     7
100
AcDbLine
 10
183.538147
 20
629.612366
 30
0.0
 11
183.538147
 21
612.684204
 31
0.0
  0
LINE
  5
4E3
330
1F
100
AcDbEntity
  8
DN40_営業図
  6
CONTINUOUS
 62
     7
100
AcDbLine
 10
168.538147
 20
610.562927
 30
0.0
 11
168.538147
 21
631.733704
 31
0.0
  0
LINE
  5
4E4
330
1F
100
AcDbEntity
  8
DN40_営業図
  6
CONTINUOUS
 62
     7
100
AcDbLine
 10
181.416809
 20
631.733704
 30
0.0
 11
168.538147
 21
631.733704
 31
0.0
  0
LINE
  5
4E5
330
1F
100
AcDbEntity
  8
DN40_営業図
  6
CONTINUOUS
 62
     7
100
AcDbLine
 10
181.41687
 20
610.562927
 30
0.0
 11
168.538147
 21
610.562927
 31
0.0
  0
LINE
  5
4E6
330
1F
100
AcDbEntity
  8
DN40_営業図
  6
CONTINUOUS
 62
     7
100
AcDbLine
 10
184.538147
 20
626.440979
 30
0.0
 11
194.538147
 21
626.440979
 31
0.0
  0
LINE
  5
4E7
330
1F
100
AcDbEntity
  8
DN40_営業図
  6
CONTINUOUS
 62
     7
100
AcDbLine
 10
183.538147
 20
626.440979
 30
0.0
 11
168.538147
 21
626.440979
 31
0.0
  0
LINE
  5
4E8
330
1F
100
AcDbEntity
  8
DN40_営業図
  6
CONTINUOUS
 62
     7
100
AcDbLine
 10
184.538147
 20
615.85553
 30
0.0
 11
194.538147
 21
615.85553
 31
0.0
  0
LINE
  5
4E9
330
1F
100
AcDbEntity
  8
DN40_営業図
  6
CONTINUOUS
 62
     7
100
AcDbLine
 10
183.538147
 20
615.85553
 30
0.0
 11
168.538147
 21
615.85553
 31
0.0
  0
LINE
  5
4EA
330
1F
100
AcDbEntity
  8
DN40_営業図
  6
CONTINUOUS
 62
     7
100
AcDbLine
 10
181.41687
 20
610.562927
 30
0.0
 11
183.538147
 21
612.684204
 31
0.0
  0
LINE
  5
4EB
330
1F
100
AcDbEntity
  8
DN40_営業図
  6
CONTINUOUS
 62
     7
100
AcDbLine
 10
181.416809
 20
631.733704
 30
0.0
 11
183.538147
 21
629.612366
 31
0.0
  0
LINE
  5
4EC
330
1F
100
AcDbEntity
  8
DN40_営業図
  6
CONTINUOUS
 62
     7
100
AcDbLine
 10
180.070038
 20
610.562927
 30
0.0
 11
181.39444
 21
606.148254
 31
0.0
  0
LINE
  5
4ED
330
1F
100
AcDbEntity
  8
DN40_営業図
  6
CONTINUOUS
 62
     7
100
AcDbLine
 10
183.538147
 20
629.612366
 30
0.0
 11
184.538147
 21
629.612366
 31
0.0
  0
LINE
  5
4EE
330
1F
100
AcDbEntity
  8
DN40_営業図
  6
CONTINUOUS
 62
     7
100
AcDbLine
 10
183.538147
 20
612.684204
 30
0.0
 11
184.538147
 21
612.684204
 31
0.0
  0
LINE
  5
4EF
330
1F
100
AcDbEntity
  8
DN40_営業図
  6
CONTINUOUS
 62
     7
100
AcDbLine
 10
196.39444
 20
606.148254
 30
0.0
 11
181.39444
 21
606.148254
 31
0.0
  0
ARC
  5
4F0
330
1F
100
AcDbEntity
  8
DN40_営業図
  6
CONTINUOUS
 62
     7
100
AcDbCircle
 10
166.133392
 20
621.148254
 30
0.0
 40
31.43805700000002
100
AcDbArc
 50
344.2724032674003
 51
15.72784351583995
  0
LINE
  5
4F1
330
1F
100
AcDbEntity
  8
DN40_営業図
  6
CONTINUOUS
 62
     7
100
AcDbLine
 10
196.394379
 20
629.670105
 30
0.0
 11
194.538147
 21
629.734924
 31
0.0
  0
LINE
  5
4F2
330
1F
100
AcDbEntity
  8
DN40_営業図
  6
CONTINUOUS
 62
     7
100
AcDbLine
 10
196.394379
 20
612.626526
 30
0.0
 11
194.538147
 21
612.561707
 31
0.0
  0
LINE
  5
4F3
330
1F
100
AcDbEntity
  8
DN40_営業図
  6
CONTINUOUS
 62
     7
100
AcDbLine
 10
196.394379
 20
596.148315
 30
0.0
 11
196.394379
 21
612.6265254128
 31
0.0
  0
LINE
  5
4F4
330
1F
100
AcDbEntity
  8
DN40_営業図
  6
CONTINUOUS
 62
     7
100
AcDbLine
 10
196.394379
 20
596.148315
 30
0.0
 11
471.394379
 21
596.148315
 31
0.0
  0
LINE
  5
4F5
330
1F
100
AcDbEntity
  8
DN40_営業図
  6
CONTINUOUS
 62
     7
100
AcDbLine
 10
201.394379
 20
586.148254
 30
0.0
 11
201.394379
 21
596.148315
 31
0.0
  0
LINE
  5
4F6
330
1F
100
AcDbEntity
  8
DN40_営業図
  6
CONTINUOUS
 62
     7
100
AcDbLine
 10
196.394379
 20
586.148254
 30
0.0
 11
471.394379
 21
586.148254
 31
0.0
  0
LINE
  5
4F7
330
1F
100
AcDbEntity
  8
DN40_営業図
  6
CONTINUOUS
 62
     7
100
AcDbLine
 10
196.394379
 20
576.148315
 30
0.0
 11
196.394379
 21
586.148315
 31
0.0
  0
LINE
  5
4F8
330
1F
100
AcDbEntity
  8
DN40_営業図
  6
CONTINUOUS
 62
     7
100
AcDbLine
 10
174.644379
 20
574.148315
 30
0.0
 11
493.144379
 21
574.148315
 31
0.0
  0
LINE
  5
4F9
330
1F
100
AcDbEntity
  8
DN40_営業図
  6
CONTINUOUS
 62
     7
100
AcDbLine
 10
176.644379
 20
576.148315
 30
0.0
 11
491.144379
 21
576.148315
 31
0.0
  0
LINE
  5
4FA
330
1F
100
AcDbEntity
  8
DN40_営業図
  6
CONTINUOUS
 62
     7
100
AcDbLine
 10
174.644379
 20
538.648254
 30
0.0
 11
174.644379
 21
574.148315
 31
0.0
  0
LINE
  5
4FB
330
1F
100
AcDbEntity
  8
DN40_営業図
  6
CONTINUOUS
 62
     7
100
AcDbLine
 10
176.644379
 20
576.148315
 30
0.0
 11
174.644379
 21
574.148315
 31
0.0
  0
LINE
  5
4FC
330
1F
100
AcDbEntity
  8
DN40_営業図
  6
CONTINUOUS
 62
     7
100
AcDbLine
 10
164.644379
 20
536.648254
 30
0.0
 11
164.644379
 21
515.648285
 31
0.0
  0
LINE
  5
4FD
330
1F
100
AcDbEntity
  8
DN40_営業図
  6
CONTINUOUS
 62
     7
100
AcDbLine
 10
166.644379
 20
538.648254
 30
0.0
 11
164.644379
 21
536.648254
 31
0.0
  0
LINE
  5
4FE
330
1F
100
AcDbEntity
  8
DN40_営業図
  6
CONTINUOUS
 62
     7
100
AcDbLine
 10
166.644379
 20
513.648285
 30
0.0
 11
164.644379
 21
515.648285
 31
0.0
  0
LINE
  5
4FF
330
1F
100
AcDbEntity
  8
DN40_営業図
  6
CONTINUOUS
 62
     7
100
AcDbLine
 10
174.644379
 20
538.648254
 30
0.0
 11
166.644379
 21
538.648254
 31
0.0
  0
LINE
  5
500
330
1F
100
AcDbEntity
  8
DN40_営業図
  6
CONTINUOUS
 62
     7
100
AcDbLine
 10
174.644379
 20
513.648285
 30
0.0
 11
166.644379
 21
513.648285
 31
0.0
  0
LINE
  5
501
330
1F
100
AcDbEntity
  8
DN40_営業図
  6
CONTINUOUS
 62
     7
100
AcDbLine
 10
166.644379
 20
538.648254
 30
0.0
 11
166.644379
 21
513.648285
 31
0.0
  0
ARC
  5
502
330
1F
100
AcDbEntity
  8
DN40_営業図
  6
CONTINUOUS
 62
     7
100
AcDbCircle
 10
145.267821
 20
526.148254
 30
0.0
 40
31.925478
100
AcDbArc
 50
336.9498307583002
 51
23.05018684182983
  0
LINE
  5
503
330
1F
100
AcDbEntity
  8
DN40_営業図
  6
CONTINUOUS
 62
     7
100
AcDbLine
 10
174.644379
 20
478.148315
 30
0.0
 11
174.644379
 21
513.648285
 31
0.0
  0
LINE
  5
504
330
1F
100
AcDbEntity
  8
DN40_営業図
  6
CONTINUOUS
 62
     7
100
AcDbLine
 10
176.644379
 20
476.148315
 30
0.0
 11
174.644379
 21
478.148315
 31
0.0
  0
LINE
  5
505
330
1F
100
AcDbEntity
  8
DN40_営業図
  6
CONTINUOUS
 62
     7
100
AcDbLine
 10
174.644379
 20
478.148315
 30
0.0
 11
493.144379
 21
478.148315
 31
0.0
  0
LINE
  5
506
330
1F
100
AcDbEntity
  8
DN40_営業図
  6
CONTINUOUS
 62
     7
100
AcDbLine
 10
176.644379
 20
476.148315
 30
0.0
 11
491.144379
 21
476.148315
 31
0.0
  0
CIRCLE
  5
507
330
1F
100
AcDbEntity
  8
DN40_営業図
  6
CONTINUOUS
 62
     7
100
AcDbCircle
 10
333.894409
 20
526.148285
 30
0.0
 40
12.50000000000001
  0
CIRCLE
  5
508
330
1F
100
AcDbEntity
  8
DN40_営業図
  6
CONTINUOUS
 62
     7
100
AcDbCircle
 10
333.894409
 20
526.148285
 30
0.0
 40
10.5
  0
LINE
  5
509
330
1F
100
AcDbEntity
  8
DN40_営業図
  6
CONTINUOUS
 62
     7
100
AcDbLine
 10
471.394379
 20
576.148315
 30
0.0
 11
471.394379
 21
586.148254
 31
0.0
  0
LINE
  5
50A
330
1F
100
AcDbEntity
  8
DN40_営業図
  6
CONTINUOUS
 62
     7
100
AcDbLine
 10
466.394379
 20
586.148254
 30
0.0
 11
466.394379
 21
596.148315
 31
0.0
  0
LINE
  5
50B
330
1F
100
AcDbEntity
  8
DN40_営業図
  6
CONTINUOUS
 62
     7
100
AcDbLine
 10
491.144379
 20
576.148315
 30
0.0
 11
493.144379
 21
574.148315
 31
0.0
  0
LINE
  5
50C
330
1F
100
AcDbEntity
  8
DN40_営業図
  6
CONTINUOUS
 62
     7
100
AcDbLine
 10
493.144379
 20
538.648254
 30
0.0
 11
493.144379
 21
574.148315
 31
0.0
  0
LINE
  5
50D
330
1F
100
AcDbEntity
  8
DN40_営業図
  6
CONTINUOUS
 62
     7
100
AcDbLine
 10
503.14444
 20
536.648254
 30
0.0
 11
503.14444
 21
515.648285
 31
0.0
  0
LINE
  5
50E
330
1F
100
AcDbEntity
  8
DN40_営業図
  6
CONTINUOUS
 62
     7
100
AcDbLine
 10
501.14444
 20
538.648254
 30
0.0
 11
503.14444
 21
536.648254
 31
0.0
  0
LINE
  5
50F
330
1F
100
AcDbEntity
  8
DN40_営業図
  6
CONTINUOUS
 62
     7
100
AcDbLine
 10
501.14444
 20
513.648285
 30
0.0
 11
503.14444
 21
515.648285
 31
0.0
  0
LINE
  5
510
330
1F
100
AcDbEntity
  8
DN40_営業図
  6
CONTINUOUS
 62
     7
100
AcDbLine
 10
493.144379
 20
538.648254
 30
0.0
 11
501.14444
 21
538.648254
 31
0.0
  0
LINE
  5
511
330
1F
100
AcDbEntity
  8
DN40_営業図
  6
CONTINUOUS
 62
     7
100
AcDbLine
 10
493.144379
 20
513.648285
 30
0.0
 11
501.14444
 21
513.648285
 31
0.0
  0
LINE
  5
512
330
1F
100
AcDbEntity
  8
DN40_営業図
  6
CONTINUOUS
 62
     7
100
AcDbLine
 10
501.14444
 20
538.648254
 30
0.0
 11
501.14444
 21
513.648285
 31
0.0
  0
ARC
  5
513
330
1F
100
AcDbEntity
  8
DN40_営業図
  6
CONTINUOUS
 62
     7
100
AcDbCircle
 10
522.520997
 20
526.148254
 30
0.0
 40
31.925478
100
AcDbArc
 50
156.9498131582001
 51
203.0501692417
  0
LINE
  5
514
330
1F
100
AcDbEntity
  8
DN40_営業図
  6
CONTINUOUS
 62
     7
100
AcDbLine
 10
493.144379
 20
478.148315
 30
0.0
 11
493.144379
 21
513.648285
 31
0.0
  0
LINE
  5
515
330
1F
100
AcDbEntity
  8
DN40_営業図
  6
CONTINUOUS
 62
     7
100
AcDbLine
 10
491.144379
 20
476.148315
 30
0.0
 11
493.144379
 21
478.148315
 31
0.0
  0
LINE
  5
516
330
1F
100
AcDbEntity
  8
DN40_営業図
  6
CONTINUOUS
 62
     7
100
AcDbLine
 10
471.394379
 20
461.148285
 30
0.0
 11
471.394379
 21
476.148315
 31
0.0
  0
LINE
  5
517
330
1F
100
AcDbEntity
  8
DN40_営業図
  6
CONTINUOUS
 62
     7
100
AcDbLine
 10
196.394379
 20
461.148224
 30
0.0
 11
196.394379
 21
476.148346
 31
0.0
  0
LINE
  5
518
330
1F
100
AcDbEntity
  8
DN40_営業図
  6
CONTINUOUS
 62
     7
100
AcDbLine
 10
491.144379
 20
461.148285
 30
0.0
 11
176.644379
 21
461.148285
 31
0.0
  0
LINE
  5
519
330
1F
100
AcDbEntity
  8
DN40_営業図
  6
CONTINUOUS
 62
     7
100
AcDbLine
 10
493.144379
 20
459.148285
 30
0.0
 11
491.144379
 21
461.148285
 31
0.0
  0
LINE
  5
51A
330
1F
100
AcDbEntity
  8
DN40_営業図
  6
CONTINUOUS
 62
     7
100
AcDbLine
 10
174.644379
 20
459.148285
 30
0.0
 11
176.644379
 21
461.148285
 31
0.0
  0
LINE
  5
51B
330
1F
100
AcDbEntity
  8
DN40_営業図
  6
CONTINUOUS
 62
     7
100
AcDbLine
 10
174.644379
 20
459.148285
 30
0.0
 11
493.144379
 21
459.148285
 31
0.0
  0
LINE
  5
51C
330
1F
100
AcDbEntity
  8
DN40_営業図
  6
CONTINUOUS
 62
     7
100
AcDbLine
 10
493.144379
 20
221.148285
 30
0.0
 11
493.144379
 21
459.148285
 31
0.0
  0
LINE
  5
51D
330
1F
100
AcDbEntity
  8
DN40_営業図
  6
CONTINUOUS
 62
     7
100
AcDbLine
 10
174.644379
 20
221.148285
 30
0.0
 11
174.644379
 21
459.148285
 31
0.0
  0
LINE
  5
51E
330
1F
100
AcDbEntity
  8
DN40_営業図
  6
CONTINUOUS
 62
     7
100
AcDbLine
 10
161.394379
 20
166.148315
 30
0.0
 11
161.394379
 21
191.148285
 31
0.0
  0
LINE
  5
51F
330
1F
100
AcDbEntity
  8
DN40_営業図
  6
CONTINUOUS
 62
     7
100
AcDbLine
 10
506.394379
 20
166.148315
 30
0.0
 11
506.394379
 21
191.148315
 31
0.0
  0
LINE
  5
520
330
1F
100
AcDbEntity
  8
DN40_営業図
  6
CONTINUOUS
 62
     7
100
AcDbLine
 10
506.394379
 20
191.148315
 30
0.0
 11
161.394379
 21
191.148315
 31
0.0
  0
LINE
  5
521
330
1F
100
AcDbEntity
  8
DN40_営業図
  6
CONTINUOUS
 62
     7
100
AcDbLine
 10
161.39444
 20
166.148315
 30
0.0
 11
506.39444
 21
166.148315
 31
0.0
  0
LINE
  5
522
330
1F
100
AcDbEntity
  8
DN40_営業図
  6
CONTINUOUS
 62
     7
100
AcDbLine
 10
493.144409
 20
221.148315
 30
0.0
 11
174.644379
 21
221.148315
 31
0.0
  0
LINE
  5
523
330
1F
100
AcDbEntity
  8
DN40_営業図
  6
CONTINUOUS
 62
     7
100
AcDbLine
 10
179.894409
 20
191.148285
 30
0.0
 11
179.894409
 21
221.148285
 31
0.0
  0
LINE
  5
524
330
1F
100
AcDbEntity
  8
DN40_営業図
  6
CONTINUOUS
 62
     7
100
AcDbLine
 10
487.894409
 20
191.148285
 30
0.0
 11
487.894409
 21
221.148285
 31
0.0
  0
LINE
  5
525
330
1F
100
AcDbEntity
  8
DN40_営業図
  6
CONTINUOUS
 62
     7
100
AcDbLine
 10
693.658691
 20
322.906921
 30
0.0
 11
1038.658691
 21
322.906921
 31
0.0
  0
CIRCLE
  5
526
330
1F
100
AcDbEntity
  8
DN40_営業図
  6
CONTINUOUS
 62
     7
100
AcDbCircle
 10
721.158874
 20
350.407013
 30
0.0
 40
12.50000000000001
  0
CIRCLE
  5
527
330
1F
100
AcDbEntity
  8
DN40_営業図
  6
CONTINUOUS
 62
     7
100
AcDbCircle
 10
741.158752
 20
370.406952
 30
0.0
 40
12.50000000000001
  0
LINE
  5
528
330
1F
100
AcDbEntity
  8
DN40_営業図
  6
CONTINUOUS
 62
     7
100
AcDbLine
 10
693.658691
 20
667.906921
 30
0.0
 11
693.658691
 21
322.906921
 31
0.0
  0
CIRCLE
  5
529
330
1F
100
AcDbEntity
  8
DN40_営業図
  6
CONTINUOUS
 62
     7
100
AcDbCircle
 10
1011.158691
 20
350.407074
 30
0.0
 40
12.50000000000001
  0
CIRCLE
  5
52A
330
1F
100
AcDbEntity
  8
DN40_営業図
  6
CONTINUOUS
 62
     7
100
AcDbCircle
 10
991.158813
 20
370.406952
 30
0.0
 40
12.50000000000001
  0
LINE
  5
52B
330
1F
100
AcDbEntity
  8
DN40_営業図
  6
CONTINUOUS
 62
     7
100
AcDbLine
 10
1038.658691
 20
322.906921
 30
0.0
 11
1038.658691
 21
667.906921
 31
0.0
  0
CIRCLE
  5
52C
330
1F
100
AcDbEntity
  8
DN40_営業図
  6
CONTINUOUS
 62
     7
100
AcDbCircle
 10
991.158813
 20
620.406982
 30
0.0
 40
12.50000000000001
  0
CIRCLE
  5
52D
330
1F
100
AcDbEntity
  8
DN40_営業図
  6
CONTINUOUS
 62
     7
100
AcDbCircle
 10
1011.15863
 20
640.406921
 30
0.0
 40
12.50000000000001
  0
LINE
  5
52E
330
1F
100
AcDbEntity
  8
DN40_営業図
  6
CONTINUOUS
 62
     7
100
AcDbLine
 10
1038.658691
 20
667.906921
 30
0.0
 11
693.658691
 21
667.906921
 31
0.0
  0
CIRCLE
  5
52F
330
1F
100
AcDbEntity
  8
DN40_営業図
  6
CONTINUOUS
 62
     7
100
AcDbCircle
 10
721.158813
 20
640.406799
 30
0.0
 40
12.50000000000001
  0
CIRCLE
  5
530
330
1F
100
AcDbEntity
  8
DN40_営業図
  6
CONTINUOUS
 62
     7
100
AcDbCircle
 10
741.158752
 20
620.406982
 30
0.0
 40
12.50000000000001
  0
LINE
  5
531
330
1F
100
AcDbEntity
  8
DN40_営業図
  6
EXLTYPE0
 62
     2
100
AcDbLine
 10
1005.74751684394
 20
584.3448945863498
 30
0.0
 11
991.5872715029641
 21
576.8154351009023
 31
0.0
  0
LINE
  5
532
330
1F
100
AcDbEntity
  8
DN40_営業図
  6
EXLTYPE0
 62
     2
100
AcDbLine
 10
1005.347897707385
 20
585.0370568263968
 30
0.0
 11
991.211874082788
 21
577.5214260083233
 31
0.0
  0
LINE
  5
533
330
1F
100
AcDbEntity
  8
DN40_営業図
  6
EXLTYPE0
 62
     2
100
AcDbLine
 10
1012.975432230599
 20
571.8257491119413
 30
0.0
 11
999.3747771584307
 21
563.3270135815179
 31
0.0
  0
LINE
  5
534
330
1F
100
AcDbEntity
  8
DN40_営業図
  6
EXLTYPE0
 62
     2
100
AcDbLine
 10
1013.375575010335
 20
571.1326798932153
 30
0.0
 11
999.7984478533085
 21
562.6489702459695
 31
0.0
  0
LINE
  5
535
330
1F
100
AcDbEntity
  8
DN40_営業図
  6
EXLTYPE0
 62
     2
100
AcDbLine
 10
1013.375575010335
 20
571.1326798932153
 30
0.0
 11
1005.347897707385
 21
585.0370568263968
 31
0.0
  0
LINE
  5
536
330
1F
100
AcDbEntity
  8
DN40_営業図
  6
EXLTYPE2
 62
     1
100
AcDbLine
 10
733.6588129994046
 20
640.406921
 30
0.0
 11
684.108948
 21
640.406921
 31
0.0
  0
LINE
  5
537
330
1F
100
AcDbEntity
  8
DN40_営業図
  6
EXLTYPE2
 62
     1
100
AcDbLine
 10
753.6587519998512
 20
620.406921
 30
0.0
 11
723.805359
 21
620.406921
 31
0.0
  0
LINE
  5
538
330
1F
100
AcDbEntity
  8
DN40_営業図
  6
EXLTYPE2
 62
     1
100
AcDbLine
 10
721.1586909999999
 20
619.6
 30
0.0
 11
721.158691
 21
679.844177
 31
0.0
  0
LINE
  5
539
330
1F
100
AcDbEntity
  8
DN40_営業図
  6
EXLTYPE2
 62
     1
100
AcDbLine
 10
741.158691
 20
639.103821
 30
0.0
 11
741.158691
 21
600.4
 31
0.0
  0
LINE
  5
53A
330
1F
100
AcDbEntity
  8
DN40_営業図
  6
EXLTYPE2
 62
     1
100
AcDbLine
 10
1008.998047
 20
620.406921
 30
0.0
 11
971.2
 21
620.406921
 31
0.0
  0
LINE
  5
53B
330
1F
100
AcDbEntity
  8
DN40_営業図
  6
EXLTYPE2
 62
     1
100
AcDbLine
 10
1049.239807
 20
640.406921
 30
0.0
 11
990.4
 21
640.406921
 31
0.0
  0
LINE
  5
53C
330
1F
100
AcDbEntity
  8
DN40_営業図
  6
EXLTYPE2
 62
     1
100
AcDbLine
 10
1011.158691
 20
613.2
 30
0.0
 11
1011.158691
 21
679.844177
 31
0.0
  0
LINE
  5
53D
330
1F
100
AcDbEntity
  8
DN40_営業図
  6
EXLTYPE2
 62
     1
100
AcDbLine
 10
991.158691
 20
639.103821
 30
0.0
 11
991.158691
 21
598.2
 31
0.0
  0
LINE
  5
53E
330
1F
100
AcDbEntity
  8
DN40_営業図
  6
EXLTYPE2
 62
     1
100
AcDbLine
 10
1011.158691
 20
307.777252
 30
0.0
 11
1011.158691
 21
377.6
 31
0.0
  0
LINE
  5
53F
330
1F
100
AcDbEntity
  8
DN40_営業図
  6
EXLTYPE2
 62
     1
100
AcDbLine
 10
991.158691
 20
391.6
 30
0.0
 11
991.158691
 21
349.700623
 31
0.0
  0
LINE
  5
540
330
1F
100
AcDbEntity
  8
DN40_営業図
  6
EXLTYPE2
 62
     1
100
AcDbLine
 10
1008.998047
 20
370.406921
 30
0.0
 11
972.4
 21
370.406921
 31
0.0
  0
LINE
  5
541
330
1F
100
AcDbEntity
  8
DN40_営業図
  6
EXLTYPE2
 62
     1
100
AcDbLine
 10
684.108948
 20
350.406921
 30
0.0
 11
749.0
 21
350.406921
 31
0.0
  0
LINE
  5
542
330
1F
100
AcDbEntity
  8
DN40_営業図
  6
EXLTYPE2
 62
     1
100
AcDbLine
 10
760.0
 20
370.406921
 30
0.0
 11
723.805359
 21
370.406921
 31
0.0
  0
LINE
  5
543
330
1F
100
AcDbEntity
  8
DN40_営業図
  6
EXLTYPE2
 62
     1
100
AcDbLine
 10
982.4
 20
350.4069210000001
 30
0.0
 11
1049.239807
 21
350.406921
 31
0.0
  0
LINE
  5
544
330
1F
100
AcDbEntity
  8
DN40_営業図
  6
EXLTYPE2
 62
     1
100
AcDbLine
 10
741.158691
 20
393.0
 30
0.0
 11
741.158691
 21
349.700623
 31
0.0
  0
LINE
  5
545
330
1F
100
AcDbEntity
  8
DN40_営業図
  6
EXLTYPE2
 62
     1
100
AcDbLine
 10
721.158691
 20
307.777252
 30
0.0
 11
721.158691
 21
376.6
 31
0.0
  0
LINE
  5
546
330
1F
100
AcDbEntity
  8
DN40_営業図
  6
CONTINUOUS
 62
     7
100
AcDbLine
 10
499.250671
 20
629.1762173862446
 30
0.0
 11
483.2506710000001
 21
629.7349230000001
 31
0.0
  0
LINE
  5
547
330
1F
100
AcDbEntity
  8
DN40_営業図
  6
CONTINUOUS
 62
     1
100
AcDbLine
 10
499.250671
 20
628.3761458548142
 30
0.0
 11
483.2227780000001
 21
628.9358510000001
 31
0.0
  0
LINE
  5
548
330
1F
100
AcDbEntity
  8
DN40_営業図
  6
CONTINUOUS
 62
     1
100
AcDbLine
 10
499.250671
 20
613.9204831451859
 30
0.0
 11
483.2227780000001
 21
613.3607780000001
 31
0.0
  0
LINE
  5
549
330
1F
100
AcDbEntity
  8
DN40_営業図
  6
CONTINUOUS
 62
     7
100
AcDbLine
 10
483.250671
 20
612.5617060000001
 30
0.0
 11
499.250671
 21
613.1204116137545
 31
0.0
  0
LINE
  5
54A
330
1F
100
AcDbEntity
  8
DN40_営業図
  6
CONTINUOUS
 62
     7
100
AcDbLine
 10
499.250671
 20
613.1204116137545
 30
0.0
 11
499.250671
 21
629.1762173862446
 31
0.0
  0
LINE
  5
54B
330
1F
100
AcDbEntity
  8
DN40_営業図
  6
CONTINUOUS
 62
     7
100
AcDbLine
 10
493.3644230869062
 20
629.3817598708073
 30
0.0
 11
501.394379
 21
656.148254
 31
0.0
  0
LINE
  5
54C
330
1F
100
AcDbEntity
  8
DN40_営業図
  6
CONTINUOUS
 62
     7
100
AcDbLine
 10
488.372063583307
 20
612.7405404241584
 30
0.0
 11
486.394379
 21
606.148254
 31
0.0
  0
ENDSEC
  0
SECTION
  2
OBJECTS
  0
DICTIONARY
  5
C
330
0
100
AcDbDictionary
  3
ACAD_GROUP
350
D
  3
ACAD_LAYOUT
350
1A
  3
ACAD_MATERIAL
350
43
  3
ACAD_MLEADERSTYLE
350
6B
  3
ACAD_MLINESTYLE
350
17
  3
ACAD_PLOTSETTINGS
350
19
  3
ACAD_SCALELIST
350
47
  3
ACAD_VISUALSTYLE
350
2A
  3
ACDBHEADERROUNDTRIPXREC
350
54D
  3
ACDBVARIABLEDICTIONARY
350
56E
  0
DICTIONARY
  5
577
330
8
100
AcDbDictionary
280
     1
  3
ACAD_XREC_ROUNDTRIP
360
578
  0
DICTIONARY
  5
D
102
{ACAD_REACTORS
330
C
102
}
330
C
100
AcDbDictionary
  0
DICTIONARY
  5
1A
102
{ACAD_REACTORS
330
C
102
}
330
C
100
AcDbDictionary
  0
DICTIONARY
  5
43
102
{ACAD_REACTORS
330
C
102
}
330
C
100
AcDbDictionary
  3
BYBLOCK
350
45
  3
BYLAYER
350
44
  3
GLOBAL
350
46
  0
DICTIONARY
  5
6B
102
{ACAD_REACTORS
330
C
102
}
330
C
100
AcDbDictionary
  3
STANDARD
350
6C
  0
DICTIONARY
  5
17
102
{ACAD_REACTORS
330
C
102
}
330
C
100
AcDbDictionary
  3
STANDARD
350
18
  0
DICTIONARY
  5
19
102
{ACAD_REACTORS
330
C
102
}
330
C
100
AcDbDictionary
  0
DICTIONARY
  5
47
102
{ACAD_REACTORS
330
C
102
}
330
C
100
AcDbDictionary
  3
A0
350
48
  3
A1
350
49
  3
A2
350
4A
  3
A3
350
4B
  3
A4
350
4C
  3
A5
350
4D
  3
A6
350
4E
  3
A7
350
4F
  3
A8
350
50
  3
A9
350
51
  3
B0
350
52
  3
B1
350
53
  3
B2
350
54
  3
B3
350
55
  3
B4
350
56
  3
B5
350
57
  3
B6
350
58
  3
B7
350
59
  3
B8
350
5A
  3
B9
350
5B
  3
C0
350
5C
  3
C1
350
5D
  3
C2
350
5E
  3
C3
350
5F
  3
C4
350
60
  3
C5
350
61
  3
C6
350
62
  3
C7
350
63
  3
C8
350
64
  3
C9
350
65
  3
D0
350
66
  3
D1
350
67
  3
D2
350
68
  0
DICTIONARY
  5
2A
102
{ACAD_REACTORS
330
C
102
}
330
C
100
AcDbDictionary
  3
2DWIREFRAME
350
2F
  3
BASIC
350
32
  3
BRIGHTEN
350
36
  3
COLORCHANGE
350
3A
  3
CONCEPTUAL
350
34
  3
DIM
350
35
  3
EDGECOLOROFF
350
3D
  3
FACEPATTERN
350
39
  3
FLAT
350
2B
  3
FLATWITHEDGES
350
2C
  3
GOURAUD
350
2D
  3
GOURAUDWITHEDGES
350
2E
  3
HIDDEN
350
31
  3
JITTEROFF
350
3B
  3
LINEPATTERN
350
38
  3
OVERHANGOFF
350
3C
  3
REALISTIC
350
33
  3
SHADED
350
42
  3
SHADED_WITH_EDGES
350
41
  3
SHADES_OF_GRAY
350
3E
  3
SKETCHY
350
3F
  3
THICKEN
350
37
  3
WIREFRAME
350
30
  3
X-RAY
350
40
  0
DICTIONARY
  5
54D
102
{ACAD_REACTORS
330
C
102
}
330
C
100
AcDbDictionary
  3
CEPSNID
350
557
  3
CEPSNTYPE
350
556
  3
DIMSTYLEDATA
350
56D
  3
FINGERPRINTGUID
350
558
  3
HYPERLINKBASE
350
550
  3
INSUNITS
350
555
  3
LAYOUTDICT
350
552
  3
LWETCUNION
350
554
  3
PLOTSETDICT
350
553
  3
PSVPSCALE
350
55A
  3
PUCSBASE
350
55D
  3
PUCSORGBACK
350
563
  3
PUCSORGBOTTOM
350
55F
  3
PUCSORGFRONT
350
562
  3
PUCSORGLEFT
350
560
  3
PUCSORGRIGHT
350
561
  3
PUCSORGTOP
350
55E
  3
PUCSORTHOREF
350
55B
  3
PUCSORTHOVIEW
350
55C
  3
STYLESHEET
350
551
  3
TSTACKALIGN
350
54E
  3
TSTACKSIZE
350
54F
  3
UCSBASE
350
566
  3
UCSORGBACK
350
56C
  3
UCSORGBOTTOM
350
568
  3
UCSORGFRONT
350
56B
  3
UCSORGLEFT
350
569
  3
UCSORGRIGHT
350
56A
  3
UCSORGTOP
350
567
  3
UCSORTHOREF
350
564
  3
UCSORTHOVIEW
350
565
  3
VERSIONGUID
350
559
  0
DICTIONARY
  5
56E
102
{ACAD_REACTORS
330
C
102
}
330
C
100
AcDbDictionary
  3
CANNOSCALE
350
579
  3
CMLEADERSTYLE
350
570
  3
CTABLESTYLE
350
56F
  3
DIMASSOC
350
575
  3
HIDETEXT
350
576
  3
MSLTSCALE
350
57A
  3
PSOLHEIGHT
350
572
  3
PSOLWIDTH
350
571
  0
XRECORD
  5
578
102
{ACAD_REACTORS
330
577
102
}
330
577
100
AcDbXrecord
102
VTR_0.000_0.000_1.000_1.000_VISUALSTYLE
340
2F
102
VTR_0.000_0.000_1.000_1.000_GRIDDISPLAY
 70
     3
102
VTR_0.000_0.000_1.000_1.000_GRIDMAJOR
 70
     5
102
VTR_0.000_0.000_1.000_1.000_DEFAULTLIGHTING
280
     1
102
VTR_0.000_0.000_1.000_1.000_DEFAULTLIGHTINGTYPE
 70
     1
102
VTR_0.000_0.000_1.000_1.000_BRIGHTNESS
141
0.0
102
VTR_0.000_0.000_1.000_1.000_CONTRAST
142
0.0
  0
MATERIAL
  5
45
102
{ACAD_REACTORS
330
43
102
}
102
{ACAD_XDICTIONARY
360
57D
102
}
330
43
100
AcDbMaterial
  1
BYBLOCK
  0
MATERIAL
  5
44
102
{ACAD_REACTORS
330
43
102
}
102
{ACAD_XDICTIONARY
360
57B
102
}
330
43
100
AcDbMaterial
  1
BYLAYER
  0
MATERIAL
  5
46
102
{ACAD_REACTORS
330
43
102
}
102
{ACAD_XDICTIONARY
360
57F
102
}
330
43
100
AcDbMaterial
  1
GLOBAL
  0
ACAD_PROXY_OBJECT
  5
6C
102
{ACAD_REACTORS
330
6B
102
}
330
6B
100
AcDbProxyObject
 90
      499
 91
      505
 93
      610
310
40901902A4063FBFFFFFE0000000000000020400000000000020404214DD185B99185C990000000000000104090141901A00000000000004100000000000000041025764000000000000039000
340
14
340
0
340
11
340
0
 94
        0
1001
ACAD_MLEADERVER
1070
     2
  0
MLINESTYLE
  5
18
102
{ACAD_REACTORS
330
17
102
}
330
17
100
AcDbMlineStyle
  2
Standard
 70
     0
  3

 62
   256
 51
90.0
 52
90.0
 71
     2
 49
0.5
 62
   256
  6
BYLAYER
 49
-0.5
 62
   256
  6
BYLAYER
  0
ACAD_PROXY_OBJECT
  5
48
102
{ACAD_REACTORS
330
47
102
}
330
47
100
AcDbProxyObject
 90
      499
 91
      503
 93
       41
310
903313A31580
  0
ACAD_PROXY_OBJECT
  5
49
102
{ACAD_REACTORS
330
47
102
}
330
47
100
AcDbProxyObject
 90
      499
 91
      503
 93
      105
310
903313A324000000000000004000
  0
ACAD_PROXY_OBJECT
  5
4A
102
{ACAD_REACTORS
330
47
102
}
330
47
100
AcDbProxyObject
 90
      499
 91
      503
 93
      105
310
903313A344000000000000104000
  0
ACAD_PROXY_OBJECT
  5
4B
102
{ACAD_REACTORS
330
47
102
}
330
47
100
AcDbProxyObject
 90
      499
 91
      503
 93
      105
310
903313A354000000000000144000
  0
ACAD_PROXY_OBJECT
  5
4C
102
{ACAD_REACTORS
330
47
102
}
330
47
100
AcDbProxyObject
 90
      499
 91
      503
 93
      105
310
903313A384000000000000204000
  0
ACAD_PROXY_OBJECT
  5
4D
102
{ACAD_REACTORS
330
47
102
}
330
47
100
AcDbProxyObject
 90
      499
 91
      503
 93
      113
310
904313A31304000000000000244000
  0
ACAD_PROXY_OBJECT
  5
4E
102
{ACAD_REACTORS
330
47
102
}
330
47
100
AcDbProxyObject
 90
      499
 91
      503
 93
      113
310
904313A31364000000000000304000
  0
ACAD_PROXY_OBJECT
  5
4F
102
{ACAD_REACTORS
330
47
102
}
330
47
100
AcDbProxyObject
 90
      499
 91
      503
 93
      113
310
904313A32304000000000000344000
  0
ACAD_PROXY_OBJECT
  5
50
102
{ACAD_REACTORS
330
47
102
}
330
47
100
AcDbProxyObject
 90
      499
 91
      503
 93
      113
310
904313A333040000000000003E4000
  0
ACAD_PROXY_OBJECT
  5
51
102
{ACAD_REACTORS
330
47
102
}
330
47
100
AcDbProxyObject
 90
      499
 91
      503
 93
      113
310
904313A34304000000000000444000
  0
ACAD_PROXY_OBJECT
  5
52
102
{ACAD_REACTORS
330
47
102
}
330
47
100
AcDbProxyObject
 90
      499
 91
      503
 93
      113
310
904313A35304000000000000494000
  0
ACAD_PROXY_OBJECT
  5
53
102
{ACAD_REACTORS
330
47
102
}
330
47
100
AcDbProxyObject
 90
      499
 91
      503
 93
      121
310
905313A3130304000000000000594000
  0
ACAD_PROXY_OBJECT
  5
54
102
{ACAD_REACTORS
330
47
102
}
330
47
100
AcDbProxyObject
 90
      499
 91
      503
 93
      105
310
903323A310000000000000010100
  0
ACAD_PROXY_OBJECT
  5
55
102
{ACAD_REACTORS
330
47
102
}
330
47
100
AcDbProxyObject
 90
      499
 91
      503
 93
      105
310
903343A310000000000000410100
  0
ACAD_PROXY_OBJECT
  5
56
102
{ACAD_REACTORS
330
47
102
}
330
47
100
AcDbProxyObject
 90
      499
 91
      503
 93
      105
310
903383A310000000000000810100
  0
ACAD_PROXY_OBJECT
  5
57
102
{ACAD_REACTORS
330
47
102
}
330
47
100
AcDbProxyObject
 90
      499
 91
      503
 93
      113
310
90431303A310000000000000910100
  0
ACAD_PROXY_OBJECT
  5
58
102
{ACAD_REACTORS
330
47
102
}
330
47
100
AcDbProxyObject
 90
      499
 91
      503
 93
      121
310
9053130303A310000000000001650100
  0
ACAD_PROXY_OBJECT
  5
59
102
{ACAD_REACTORS
330
47
102
}
330
47
100
AcDbProxyObject
 90
      499
 91
      503
 93
      257
310
90E312F31323822203D2031272D3022000000000000200FC000000000000284000
  0
ACAD_PROXY_OBJECT
  5
5A
102
{ACAD_REACTORS
330
47
102
}
330
47
100
AcDbProxyObject
 90
      499
 91
      503
 93
      249
310
90D312F363422203D2031272D3022000000000000240FC000000000000284000
  0
ACAD_PROXY_OBJECT
  5
5B
102
{ACAD_REACTORS
330
47
102
}
330
47
100
AcDbProxyObject
 90
      499
 91
      503
 93
      249
310
90D312F333222203D2031272D3022000000000000280FC000000000000284000
  0
ACAD_PROXY_OBJECT
  5
5C
102
{ACAD_REACTORS
330
47
102
}
330
47
100
AcDbProxyObject
 90
      499
 91
      503
 93
      249
310
90D312F313622203D2031272D30220000000000002C0FC000000000000284000
  0
ACAD_PROXY_OBJECT
  5
5D
102
{ACAD_REACTORS
330
47
102
}
330
47
100
AcDbProxyObject
 90
      499
 91
      503
 93
      249
310
90D332F333222203D2031272D30220000000000002E0FC000000000000284000
  0
ACAD_PROXY_OBJECT
  5
5E
102
{ACAD_REACTORS
330
47
102
}
330
47
100
AcDbProxyObject
 90
      499
 91
      503
 93
      241
310
90C312F3822203D2031272D3022000000000000300FC000000000000284000
  0
ACAD_PROXY_OBJECT
  5
5F
102
{ACAD_REACTORS
330
47
102
}
330
47
100
AcDbProxyObject
 90
      499
 91
      503
 93
      249
310
90D332F313622203D2031272D3022000000000000320FC000000000000284000
  0
ACAD_PROXY_OBJECT
  5
60
102
{ACAD_REACTORS
330
47
102
}
330
47
100
AcDbProxyObject
 90
      499
 91
      503
 93
      241
310
90C312F3422203D2031272D3022000000000000340FC000000000000284000
  0
ACAD_PROXY_OBJECT
  5
61
102
{ACAD_REACTORS
330
47
102
}
330
47
100
AcDbProxyObject
 90
      499
 91
      503
 93
      241
310
90C332F3822203D2031272D3022000000000000360FC000000000000284000
  0
ACAD_PROXY_OBJECT
  5
62
102
{ACAD_REACTORS
330
47
102
}
330
47
100
AcDbProxyObject
 90
      499
 91
      503
 93
      241
310
90C312F3222203D2031272D3022000000000000380FC000000000000284000
  0
ACAD_PROXY_OBJECT
  5
63
102
{ACAD_REACTORS
330
47
102
}
330
47
100
AcDbProxyObject
 90
      499
 91
      503
 93
      241
310
90C332F3422203D2031272D30220000000000003A0FC000000000000284000
  0
ACAD_PROXY_OBJECT
  5
64
102
{ACAD_REACTORS
330
47
102
}
330
47
100
AcDbProxyObject
 90
      499
 91
      503
 93
      161
310
90A3122203D2031272D30224000000000000284000
  0
ACAD_PROXY_OBJECT
  5
65
102
{ACAD_REACTORS
330
47
102
}
330
47
100
AcDbProxyObject
 90
      499
 91
      503
 93
      257
310
90E312D312F3222203D2031272D30220000000000003E0FC000000000000284000
  0
ACAD_PROXY_OBJECT
  5
66
102
{ACAD_REACTORS
330
47
102
}
330
47
100
AcDbProxyObject
 90
      499
 91
      503
 93
      225
310
90A3322203D2031272D302200000000000002100000000000000284000
  0
ACAD_PROXY_OBJECT
  5
67
102
{ACAD_REACTORS
330
47
102
}
330
47
100
AcDbProxyObject
 90
      499
 91
      503
 93
      225
310
90A3622203D2031272D302200000000000006100000000000000284000
  0
ACAD_PROXY_OBJECT
  5
68
102
{ACAD_REACTORS
330
47
102
}
330
47
100
AcDbProxyObject
 90
      499
 91
      503
 93
      249
310
90D31272D3022203D2031272D30220000000000000A100000000000000284000
  0
ACAD_PROXY_OBJECT
  5
2F
102
{ACAD_REACTORS
330
2A
102
}
330
2A
100
AcDbProxyObject
 90
      499
 91
      501
 93
      436
310
42CC9915DA5C99599C985B595049028333333333333E33F0000000000000F90107901411070040501600405405064090741402480A0340
1001
ACAD
1000
AcDbSavedByObjectVersion
1070
     0
  0
ACAD_PROXY_OBJECT
  5
32
102
{ACAD_REACTORS
330
2A
102
}
330
2A
100
AcDbProxyObject
 90
      499
 91
      501
 93
      388
310
4150985CDA58D07406404333333333333E33F0000000000000F90107A41107004050150841D405064090741402480A0350
1001
ACAD
1000
AcDbSavedByObjectVersion
1070
     0
  0
ACAD_PROXY_OBJECT
  5
36
102
{ACAD_REACTORS
330
2A
102
}
330
2A
100
AcDbProxyObject
 90
      499
 91
      501
 93
      428
310
42109C9A59DA1D195B90C409028333333333333E33F0000000000000F9010790141107004050150841D405064090741402480A029950
1001
ACAD
1000
AcDbSavedByObjectVersion
1070
     0
  0
ACAD_PROXY_OBJECT
  5
3A
102
{ACAD_REACTORS
330
2A
102
}
330
2A
100
AcDbProxyObject
 90
      499
 91
      501
 93
      452
310
42D0DBDB1BDC90DA185B99D95104090240C333333333333E33F0000000000000F90108901411070040501508421405064090741402480A0350
1001
ACAD
1000
AcDbSavedByObjectVersion
1070
     0
  0
ACAD_PROXY_OBJECT
  5
34
102
{ACAD_REACTORS
330
2A
102
}
330
2A
100
AcDbProxyObject
 90
      499
 91
      501
 93
      500
310
4290DBDB98D95C1D1D585B10940D028333333333333E33F0000000000000F90107902409070040501000000000018199010841D405064090740C02480A0340
1001
ACAD
1000
AcDbSavedByObjectVersion
1070
     0
  0
ACAD_PROXY_OBJECT
  5
35
102
{ACAD_REACTORS
330
2A
102
}
330
2A
100
AcDbProxyObject
 90
      499
 91
      501
 93
      412
310
40D11A5B50B409028333333333333E33F0000000000000F9010790141107004050150841D405064090741402480A02677FFFFFD0
1001
ACAD
1000
AcDbSavedByObjectVersion
1070
     0
  0
ACAD_PROXY_OBJECT
  5
3D
102
{ACAD_REACTORS
330
2A
102
}
330
2A
100
AcDbProxyObject
 90
      499
 91
      501
 93
      452
310
43115919D950DBDB1BDC93D999916409028333333333333E33F0000000000000F9010790141107004050150841D405064090741402480A0350
1001
ACAD
1000
AcDbSavedByObjectVersion
1070
     0
  0
ACAD_PROXY_OBJECT
  5
39
102
{ACAD_REACTORS
330
2A
102
}
330
2A
100
AcDbProxyObject
 90
      499
 91
      501
 93
      444
310
42D19858D95C185D1D195C9B90F409028333333333333E33F0000000000000F9010790141107004050150841D405064090741402480A0350
1001
ACAD
1000
AcDbSavedByObjectVersion
1070
     0
  0
ACAD_PROXY_OBJECT
  5
2B
102
{ACAD_REACTORS
330
2A
102
}
330
2A
100
AcDbProxyObject
 90
      499
 91
      501
 93
      380
310
41119B185D240901404333333333333E33F0000000000000F9010740A907004050150841D405064090741402480A1B50
1001
ACAD
1000
AcDbSavedByObjectVersion
1070
     0
  0
ACAD_PROXY_OBJECT
  5
2C
102
{ACAD_REACTORS
330
2A
102
}
330
2A
100
AcDbProxyObject
 90
      499
 91
      501
 93
      468
310
43519B185D15DA5D1A115919D95CD0140901404333333333333E33F0000000000000F90107409019070040501600405405064090741402480A1B50
1001
ACAD
1000
AcDbSavedByObjectVersion
1070
     0
  0
ACAD_PROXY_OBJECT
  5
2D
102
{ACAD_REACTORS
330
2A
102
}
330
2A
100
AcDbProxyObject
 90
      499
 91
      501
 93
      404
310
41D1DBDD5C985D5910240902404333333333333E33F0000000000000F9010740A9070040501641D405064090741402480A1B50
1001
ACAD
1000
AcDbSavedByObjectVersion
1070
     0
  0
ACAD_PROXY_OBJECT
  5
2E
102
{ACAD_REACTORS
330
2A
102
}
330
2A
100
AcDbProxyObject
 90
      499
 91
      501
 93
      492
310
4411DBDD5C985D5915DA5D1A115919D95CD0340902404333333333333E33F0000000000000F90107409019070040501600405405064090741402480A1B50
1001
ACAD
1000
AcDbSavedByObjectVersion
1070
     0
  0
ACAD_PROXY_OBJECT
  5
31
102
{ACAD_REACTORS
330
2A
102
}
330
2A
100
AcDbProxyObject
 90
      499
 91
      501
 93
      476
310
41921A5919195B90640502408333333333333E33F0000000000000F901079024090700405020000000000001110200405405064090740C02480A0340
1001
ACAD
1000
AcDbSavedByObjectVersion
1070
     0
  0
ACAD_PROXY_OBJECT
  5
3B
102
{ACAD_REACTORS
330
2A
102
}
330
2A
100
AcDbProxyObject
 90
      499
 91
      501
 93
      428
310
42529A5D1D195C93D999914409028333333333333E33F0000000000000F9010790141107004050150A41D405064090741402480A0350
1001
ACAD
1000
AcDbSavedByObjectVersion
1070
     0
  0
ACAD_PROXY_OBJECT
  5
38
102
{ACAD_REACTORS
330
2A
102
}
330
2A
100
AcDbProxyObject
 90
      499
 91
      501
 93
      444
310
42D31A5B995C185D1D195C9B90E409028333333333333E33F0000000000000F9010790141107004050750841D405064090741402483A0350
1001
ACAD
1000
AcDbSavedByObjectVersion
1070
     0
  0
ACAD_PROXY_OBJECT
  5
3C
102
{ACAD_REACTORS
330
2A
102
}
330
2A
100
AcDbProxyObject
 90
      499
 91
      501
 93
      444
310
42D3DD995C9A185B99D3D999915409028333333333333E33F0000000000000F9010790141107004050150941D405064090741402480A0350
1001
ACAD
1000
AcDbSavedByObjectVersion
1070
     0
  0
ACAD_PROXY_OBJECT
  5
33
102
{ACAD_REACTORS
330
2A
102
}
330
2A
100
AcDbProxyObject
 90
      499
 91
      501
 93
      428
310
425499585B1A5CDD1A58D08409038333333333333E33F0000000000000F9010740A907004050150800405405064090740C02480A1B40
1001
ACAD
1000
AcDbSavedByObjectVersion
1070
     0
  0
ACAD_PROXY_OBJECT
  5
42
102
{ACAD_REACTORS
330
2A
102
}
330
2A
100
AcDbProxyObject
 90
      499
 91
      501
 93
      420
310
4194DA1859195911B40902404333333333333E33F0000000000000F9010740A41107004050150800405405064090840C02480A0B40
1001
ACAD
1000
AcDbSavedByObjectVersion
1070
     0
  0
ACAD_PROXY_OBJECT
  5
41
102
{ACAD_REACTORS
330
2A
102
}
330
2A
100
AcDbProxyObject
 90
      499
 91
      501
 93
      516
310
4454DA18591959081DDA5D1A08195919D95CD1A40902404333333333333E33F0000000000000F901074090142907004050250800405405064090740C02480A0B40
1001
ACAD
1000
AcDbSavedByObjectVersion
1070
     0
  0
ACAD_PROXY_OBJECT
  5
3E
102
{ACAD_REACTORS
330
2A
102
}
330
2A
100
AcDbProxyObject
 90
      499
 91
      501
 93
      532
310
4394DA1859195CC81BD98811DC985E5174090240C333333333333E33F0000000000000F901079024090741D01000000000000111010841D405064090740C02480A0340
1001
ACAD
1000
AcDbSavedByObjectVersion
1070
     0
  0
ACAD_PROXY_OBJECT
  5
3F
102
{ACAD_REACTORS
330
2A
102
}
330
2A
100
AcDbProxyObject
 90
      499
 91
      501
 93
      476
310
41D4DAD95D18DA1E51840502408333333333333E33F0000000000000F901079024090741D01000000000000111010B41D405064090741802480A0340
1001
ACAD
1000
AcDbSavedByObjectVersion
1070
     0
  0
ACAD_PROXY_OBJECT
  5
37
102
{ACAD_REACTORS
330
2A
102
}
330
2A
100
AcDbProxyObject
 90
      499
 91
      501
 93
      412
310
41D51A1A58DAD95B90D409028333333333333E33F0000000000000F9010790141107004050150C41D405064090741402480A0350
1001
ACAD
1000
AcDbSavedByObjectVersion
1070
     0
  0
ACAD_PROXY_OBJECT
  5
30
102
{ACAD_REACTORS
330
2A
102
}
330
2A
100
AcDbProxyObject
 90
      499
 91
      501
 93
      420
310
4255DA5C99599C985B595059028333333333333E33F0000000000000F90107901411070040501600405405064090740C02480A0340
1001
ACAD
1000
AcDbSavedByObjectVersion
1070
     0
  0
ACAD_PROXY_OBJECT
  5
40
102
{ACAD_REACTORS
330
2A
102
}
330
2A
100
AcDbProxyObject
 90
      499
 91
      501
 93
      404
310
41560B54985E51940902404000000000000E03F0000000000000F9010740501907004050150841D405064090740C02480A1B40
1001
ACAD
1000
AcDbSavedByObjectVersion
1070
     0
  0
XRECORD
  5
557
102
{ACAD_REACTORS
330
54D
102
}
330
54D
100
AcDbXrecord
340
0
  0
XRECORD
  5
556
102
{ACAD_REACTORS
330
54D
102
}
330
54D
100
AcDbXrecord
 90
        0
  0
XRECORD
  5
56D
102
{ACAD_REACTORS
330
54D
102
}
330
54D
100
AcDbXrecord
1000
DSTYLE
1002
{
1070
   340
340
11
1002
}
  0
XRECORD
  5
558
102
{ACAD_REACTORS
330
54D
102
}
330
54D
100
AcDbXrecord
  1
{6E7104CB-F3C3-49A8-BAE1-ED0CCB1255AF}
  0
XRECORD
  5
550
102
{ACAD_REACTORS
330
54D
102
}
330
54D
100
AcDbXrecord
  1

  0
XRECORD
  5
555
102
{ACAD_REACTORS
330
54D
102
}
330
54D
100
AcDbXrecord
 90
        4
  0
XRECORD
  5
552
102
{ACAD_REACTORS
330
54D
102
}
330
54D
100
AcDbXrecord
340
1A
  0
XRECORD
  5
554
102
{ACAD_REACTORS
330
54D
102
}
330
54D
100
AcDbXrecord
 90
    10781
  0
XRECORD
  5
553
102
{ACAD_REACTORS
330
54D
102
}
330
54D
100
AcDbXrecord
340
19
  0
XRECORD
  5
55A
102
{ACAD_REACTORS
330
54D
102
}
330
54D
100
AcDbXrecord
 40
0.0
  0
XRECORD
  5
55D
102
{ACAD_REACTORS
330
54D
102
}
330
54D
100
AcDbXrecord
340
0
  0
XRECORD
  5
563
102
{ACAD_REACTORS
330
54D
102
}
330
54D
100
AcDbXrecord
 10
0.0
 20
0.0
 30
0.0
  0
XRECORD
  5
55F
102
{ACAD_REACTORS
330
54D
102
}
330
54D
100
AcDbXrecord
 10
0.0
 20
0.0
 30
0.0
  0
XRECORD
  5
562
102
{ACAD_REACTORS
330
54D
102
}
330
54D
100
AcDbXrecord
 10
0.0
 20
0.0
 30
0.0
  0
XRECORD
  5
560
102
{ACAD_REACTORS
330
54D
102
}
330
54D
100
AcDbXrecord
 10
0.0
 20
0.0
 30
0.0
  0
XRECORD
  5
561
102
{ACAD_REACTORS
330
54D
102
}
330
54D
100
AcDbXrecord
 10
0.0
 20
0.0
 30
0.0
  0
XRECORD
  5
55E
102
{ACAD_REACTORS
330
54D
102
}
330
54D
100
AcDbXrecord
 10
0.0
 20
0.0
 30
0.0
  0
XRECORD
  5
55B
102
{ACAD_REACTORS
330
54D
102
}
330
54D
100
AcDbXrecord
340
0
  0
XRECORD
  5
55C
102
{ACAD_REACTORS
330
54D
102
}
330
54D
100
AcDbXrecord
 70
     0
  0
XRECORD
  5
551
102
{ACAD_REACTORS
330
54D
102
}
330
54D
100
AcDbXrecord
  1

  0
XRECORD
  5
54E
102
{ACAD_REACTORS
330
54D
102
}
330
54D
100
AcDbXrecord
 90
        1
  0
XRECORD
  5
54F
102
{ACAD_REACTORS
330
54D
102
}
330
54D
100
AcDbXrecord
 90
       70
  0
XRECORD
  5
566
102
{ACAD_REACTORS
330
54D
102
}
330
54D
100
AcDbXrecord
340
0
  0
XRECORD
  5
56C
102
{ACAD_REACTORS
330
54D
102
}
330
54D
100
AcDbXrecord
 10
0.0
 20
0.0
 30
0.0
  0
XRECORD
  5
568
102
{ACAD_REACTORS
330
54D
102
}
330
54D
100
AcDbXrecord
 10
0.0
 20
0.0
 30
0.0
  0
XRECORD
  5
56B
102
{ACAD_REACTORS
330
54D
102
}
330
54D
100
AcDbXrecord
 10
0.0
 20
0.0
 30
0.0
  0
XRECORD
  5
569
102
{ACAD_REACTORS
330
54D
102
}
330
54D
100
AcDbXrecord
 10
0.0
 20
0.0
 30
0.0
  0
XRECORD
  5
56A
102
{ACAD_REACTORS
330
54D
102
}
330
54D
100
AcDbXrecord
 10
0.0
 20
0.0
 30
0.0
  0
XRECORD
  5
567
102
{ACAD_REACTORS
330
54D
102
}
330
54D
100
AcDbXrecord
 10
0.0
 20
0.0
 30
0.0
  0
XRECORD
  5
564
102
{ACAD_REACTORS
330
54D
102
}
330
54D
100
AcDbXrecord
340
0
  0
XRECORD
  5
565
102
{ACAD_REACTORS
330
54D
102
}
330
54D
100
AcDbXrecord
 70
     0
  0
XRECORD
  5
559
102
{ACAD_REACTORS
330
54D
102
}
330
54D
100
AcDbXrecord
  1
{FAEB1C32-E019-11D5-929B-00C0DF256EC4}
  0
DICTIONARYVAR
  5
579
102
{ACAD_REACTORS
330
56E
102
}
330
56E
100
DictionaryVariables
280
     0
  1
1:1
  0
DICTIONARYVAR
  5
570
102
{ACAD_REACTORS
330
56E
102
}
330
56E
100
DictionaryVariables
280
     0
  1
Standard
  0
DICTIONARYVAR
  5
56F
102
{ACAD_REACTORS
330
56E
102
}
330
56E
100
DictionaryVariables
280
     0
  1
Standard
  0
DICTIONARYVAR
  5
575
102
{ACAD_REACTORS
330
56E
102
}
330
56E
100
DictionaryVariables
280
     0
  1
2
  0
DICTIONARYVAR
  5
576
102
{ACAD_REACTORS
330
56E
102
}
330
56E
100
DictionaryVariables
280
     0
  1
1
  0
DICTIONARYVAR
  5
57A
102
{ACAD_REACTORS
330
56E
102
}
330
56E
100
DictionaryVariables
280
     0
  1
1
  0
DICTIONARYVAR
  5
572
102
{ACAD_REACTORS
330
56E
102
}
330
56E
100
DictionaryVariables
280
     0
  1
80.000000
  0
DICTIONARYVAR
  5
571
102
{ACAD_REACTORS
330
56E
102
}
330
56E
100
DictionaryVariables
280
     0
  1
5.000000
  0
DICTIONARY
  5
57D
330
45
100
AcDbDictionary
280
     1
  3
ACAD_XREC_ROUNDTRIP
360
57E
  0
DICTIONARY
  5
57B
330
44
100
AcDbDictionary
280
     1
  3
ACAD_XREC_ROUNDTRIP
360
57C
  0
DICTIONARY
  5
57F
330
46
100
AcDbDictionary
280
     1
  3
ACAD_XREC_ROUNDTRIP
360
580
  0
XRECORD
  5
57E
102
{ACAD_REACTORS
330
57D
102
}
330
57D
100
AcDbXrecord
102
MATERIAL
148
0.0
149
0.0
149
0.0
 93
        0
 94
      127
282
     0
 72
     1
 77
     1
171
     1
175
     1
179
     1
273
     0
  0
XRECORD
  5
57C
102
{ACAD_REACTORS
330
57B
102
}
330
57B
100
AcDbXrecord
102
MATERIAL
148
0.0
149
0.0
149
0.0
 93
        0
 94
      127
282
     0
 72
     1
 77
     1
171
     1
175
     1
179
     1
273
     0
  0
XRECORD
  5
580
102
{ACAD_REACTORS
330
57F
102
}
330
57F
100
AcDbXrecord
102
MATERIAL
148
0.0
149
0.0
149
0.0
 93
        0
 94
      127
282
     0
 72
     1
 77
     1
171
     1
175
     1
179
     1
273
     0
  0
ENDSEC
  0
EOF
