  0
SECTION
  2
HEADER
  9
$ACADVER
  1
AC1014
  9
$ACADMAINTVER
 70
     9
  9
$DWGCODEPAGE
  3
ANSI_932
  9
$INSBASE
 10
0.0
 20
0.0
 30
0.0
  9
$EXTMIN
 10
0.0
 20
0.0
 30
0.0
  9
$EXTMAX
 10
1028.78787878685
 20
724.74747474675
 30
0.0
  9
$LIMMIN
 10
0.0
 20
0.0
  9
$LIMMAX
 10
420.0
 20
297.0
  9
$ORTHOMODE
 70
     0
  9
$REGENMODE
 70
     1
  9
$FILLMODE
 70
     1
  9
$QTEXTMODE
 70
     0
  9
$MIRRTEXT
 70
     1
  9
$DRAGMODE
 70
     2
  9
$LTSCALE
 40
1.0
  9
$OSMODE
 70
    37
  9
$ATTMODE
 70
     1
  9
$TEXTSIZE
 40
2.5
  9
$TRACEWID
 40
1.0
  9
$TEXTSTYLE
  7
STANDARD
  9
$CLAYER
  8
営業図
  9
$CELTYPE
  6
BYLAYER
  9
$CECOLOR
 62
   256
  9
$CELTSCALE
 40
1.0
  9
$DELOBJ
 70
     1
  9
$DISPSILH
 70
     0
  9
$DIMSCALE
 40
1.0
  9
$DIMASZ
 40
2.5
  9
$DIMEXO
 40
0.625
  9
$DIMDLI
 40
3.75
  9
$DIMRND
 40
0.0
  9
$DIMDLE
 40
0.0
  9
$DIMEXE
 40
1.25
  9
$DIMTP
 40
0.0
  9
$DIMTM
 40
0.0
  9
$DIMTXT
 40
2.5
  9
$DIMCEN
 40
2.5
  9
$DIMTSZ
 40
0.0
  9
$DIMTOL
 70
     0
  9
$DIMLIM
 70
     0
  9
$DIMTIH
 70
     0
  9
$DIMTOH
 70
     0
  9
$DIMSE1
 70
     0
  9
$DIMSE2
 70
     0
  9
$DIMTAD
 70
     1
  9
$DIMZIN
 70
     8
  9
$DIMBLK
  1

  9
$DIMASO
 70
     1
  9
$DIMSHO
 70
     1
  9
$DIMPOST
  1

  9
$DIMAPOST
  1

  9
$DIMALT
 70
     0
  9
$DIMALTD
 70
     3
  9
$DIMALTF
 40
0.03937007874016
  9
$DIMLFAC
 40
1.0
  9
$DIMTOFL
 70
     1
  9
$DIMTVP
 40
0.0
  9
$DIMTIX
 70
     0
  9
$DIMSOXD
 70
     0
  9
$DIMSAH
 70
     0
  9
$DIMBLK1
  1

  9
$DIMBLK2
  1

  9
$DIMSTYLE
  2
ISO-25
  9
$DIMCLRD
 70
     0
  9
$DIMCLRE
 70
     0
  9
$DIMCLRT
 70
     0
  9
$DIMTFAC
 40
1.0
  9
$DIMGAP
 40
0.625
  9
$DIMJUST
 70
     0
  9
$DIMSD1
 70
     0
  9
$DIMSD2
 70
     0
  9
$DIMTOLJ
 70
     0
  9
$DIMTZIN
 70
     8
  9
$DIMALTZ
 70
     0
  9
$DIMALTTZ
 70
     0
  9
$DIMFIT
 70
     3
  9
$DIMUPT
 70
     0
  9
$DIMUNIT
 70
     2
  9
$DIMDEC
 70
     2
  9
$DIMTDEC
 70
     2
  9
$DIMALTU
 70
     2
  9
$DIMALTTD
 70
     3
  9
$DIMTXSTY
  7
STANDARD
  9
$DIMAUNIT
 70
     0
  9
$LUNITS
 70
     2
  9
$LUPREC
 70
     4
  9
$SKETCHINC
 40
1.0
  9
$FILLETRAD
 40
10.0
  9
$AUNITS
 70
     0
  9
$AUPREC
 70
     0
  9
$MENU
  1
.
  9
$ELEVATION
 40
0.0
  9
$PELEVATION
 40
0.0
  9
$THICKNESS
 40
0.0
  9
$LIMCHECK
 70
     0
  9
$CHAMFERA
 40
0.0
  9
$CHAMFERB
 40
0.0
  9
$CHAMFERC
 40
0.0
  9
$CHAMFERD
 40
0.0
  9
$SKPOLY
 70
     0
  9
$TDCREATE
 40
2457806.577164572
  9
$TDUPDATE
 40
2457806.577164641
  9
$TDINDWG
 40
0.0000000116
  9
$TDUSRTIMER
 40
0.0000000116
  9
$USRTIMER
 70
     1
  9
$ANGBASE
 50
0.0
  9
$ANGDIR
 70
     0
  9
$PDMODE
 70
     0
  9
$PDSIZE
 40
0.0
  9
$PLINEWID
 40
0.0
  9
$COORDS
 70
     1
  9
$SPLFRAME
 70
     0
  9
$SPLINETYPE
 70
     6
  9
$SPLINESEGS
 70
     8
  9
$ATTDIA
 70
     0
  9
$ATTREQ
 70
     1
  9
$HANDLING
 70
     1
  9
$HANDSEED
  5
467
  9
$SURFTAB1
 70
     6
  9
$SURFTAB2
 70
     6
  9
$SURFTYPE
 70
     6
  9
$SURFU
 70
     6
  9
$SURFV
 70
     6
  9
$UCSNAME
  2

  9
$UCSORG
 10
0.0
 20
0.0
 30
0.0
  9
$UCSXDIR
 10
1.0
 20
0.0
 30
0.0
  9
$UCSYDIR
 10
0.0
 20
1.0
 30
0.0
  9
$PUCSNAME
  2

  9
$PUCSORG
 10
0.0
 20
0.0
 30
0.0
  9
$PUCSXDIR
 10
1.0
 20
0.0
 30
0.0
  9
$PUCSYDIR
 10
0.0
 20
1.0
 30
0.0
  9
$USERI1
 70
     0
  9
$USERI2
 70
     0
  9
$USERI3
 70
     0
  9
$USERI4
 70
     0
  9
$USERI5
 70
     0
  9
$USERR1
 40
0.0
  9
$USERR2
 40
0.0
  9
$USERR3
 40
0.0
  9
$USERR4
 40
0.0
  9
$USERR5
 40
0.0
  9
$WORLDVIEW
 70
     1
  9
$SHADEDGE
 70
     3
  9
$SHADEDIF
 70
    70
  9
$TILEMODE
 70
     1
  9
$MAXACTVP
 70
    64
  9
$PINSBASE
 10
0.0
 20
0.0
 30
0.0
  9
$PLIMCHECK
 70
     0
  9
$PEXTMIN
 10
1.000000000000000E+20
 20
1.000000000000000E+20
 30
1.000000000000000E+20
  9
$PEXTMAX
 10
-1.000000000000000E+20
 20
-1.000000000000000E+20
 30
-1.000000000000000E+20
  9
$PLIMMIN
 10
0.0
 20
0.0
  9
$PLIMMAX
 10
420.0
 20
297.0
  9
$UNITMODE
 70
     0
  9
$VISRETAIN
 70
     1
  9
$PLINEGEN
 70
     0
  9
$PSLTSCALE
 70
     1
  9
$TREEDEPTH
 70
  3020
  9
$PICKSTYLE
 70
     1
  9
$CMLSTYLE
  2
STANDARD
  9
$CMLJUST
 70
     0
  9
$CMLSCALE
 40
20.0
  9
$PROXYGRAPHICS
 70
     1
  9
$MEASUREMENT
 70
     1
  0
ENDSEC
  0
SECTION
  2
CLASSES
  0
CLASS
  1
ACDBDICTIONARYWDFLT
  2
AcDbDictionaryWithDefault
  3
ObjectDBX Classes
 90
        0
280
     0
281
     0
  0
CLASS
  1
VISUALSTYLE
  2
AcDbVisualStyle
  3
ObjectDBX Classes
 90
     4095
280
     0
281
     0
  0
CLASS
  1
MATERIAL
  2
AcDbMaterial
  3
ObjectDBX Classes
 90
     1153
280
     0
281
     0
  0
CLASS
  1
SCALE
  2
AcDbScale
  3
ObjectDBX Classes
 90
     1153
280
     0
281
     0
  0
CLASS
  1
TABLESTYLE
  2
AcDbTableStyle
  3
ObjectDBX Classes
 90
     4095
280
     0
281
     0
  0
CLASS
  1
MLEADERSTYLE
  2
AcDbMLeaderStyle
  3
ACDB_MLEADERSTYLE_CLASS
 90
     4095
280
     0
281
     0
  0
CLASS
  1
SUN
  2
AcDbSun
  3
SCENEOE
 90
     1153
280
     0
281
     0
  0
CLASS
  1
DICTIONARYVAR
  2
AcDbDictionaryVar
  3
ObjectDBX Classes
 90
        0
280
     0
281
     0
  0
CLASS
  1
XRECORD
  2
AcDbXrecord
  3
ObjectDBX Classes
 90
        0
280
     0
281
     0
  0
CLASS
  1
LWPOLYLINE
  2
AcDbPolyline
  3
ObjectDBX Classes
 90
        0
280
     0
281
     1
  0
CLASS
  1
HATCH
  2
AcDbHatch
  3
ObjectDBX Classes
 90
        0
280
     0
281
     1
  0
CLASS
  1
ACDBPLACEHOLDER
  2
AcDbPlaceHolder
  3
ObjectDBX Classes
 90
        0
280
     0
281
     0
  0
CLASS
  1
LAYOUT
  2
AcDbLayout
  3
ObjectDBX Classes
 90
        0
280
     0
281
     0
  0
ENDSEC
  0
SECTION
  2
TABLES
  0
TABLE
  2
VPORT
  5
8
102
{ACAD_XDICTIONARY
360
45C
102
}
330
0
100
AcDbSymbolTable
 70
     1
  0
VPORT
  5
29
330
8
100
AcDbSymbolTableRecord
100
AcDbViewportTableRecord
  2
*ACTIVE
 70
     0
 10
0.0
 20
0.0
 11
1.0
 21
1.0
 12
514.393939393425
 22
362.373737373375
 13
0.0
 23
0.0
 14
10.0
 24
10.0
 15
10.0
 25
10.0
 16
0.0
 26
0.0
 36
1.0
 17
0.0
 27
0.0
 37
0.0
 40
724.74747474675
 41
1.419512195121951
 42
50.0
 43
0.0
 44
0.0
 50
0.0
 51
0.0
 71
     0
 72
  1000
 73
     1
 74
     3
 75
     0
 76
     0
 77
     0
 78
     0
  0
ENDTAB
  0
TABLE
  2
LTYPE
  5
5
330
0
100
AcDbSymbolTable
 70
     7
  0
LTYPE
  5
14
330
5
100
AcDbSymbolTableRecord
100
AcDbLinetypeTableRecord
  2
BYBLOCK
 70
     0
  3

 72
    65
 73
     0
 40
0.0
  0
LTYPE
  5
15
330
5
100
AcDbSymbolTableRecord
100
AcDbLinetypeTableRecord
  2
BYLAYER
 70
     0
  3

 72
    65
 73
     0
 40
0.0
  0
LTYPE
  5
16
330
5
100
AcDbSymbolTableRecord
100
AcDbLinetypeTableRecord
  2
CONTINUOUS
 70
     0
  3
Solid line
 72
    65
 73
     0
 40
0.0
  0
LTYPE
  5
6E
330
5
100
AcDbSymbolTableRecord
100
AcDbLinetypeTableRecord
  2
EXLTYPE0
 70
     0
  3
破線
 72
    65
 73
     2
 40
4.0
 49
3.0
 74
     0
 49
-1.0
 74
     0
  0
LTYPE
  5
6F
330
5
100
AcDbSymbolTableRecord
100
AcDbLinetypeTableRecord
  2
EXLTYPE1
 70
     0
  3
点線
 72
    65
 73
     2
 40
2.0
 49
1.0
 74
     0
 49
-1.0
 74
     0
  0
LTYPE
  5
70
330
5
100
AcDbSymbolTableRecord
100
AcDbLinetypeTableRecord
  2
EXLTYPE2
 70
     0
  3
一点鎖線
 72
    65
 73
     4
 40
33.0
 49
30.0
 74
     0
 49
-1.0
 74
     0
 49
1.0
 74
     0
 49
-1.0
 74
     0
  0
LTYPE
  5
71
330
5
100
AcDbSymbolTableRecord
100
AcDbLinetypeTableRecord
  2
EXLTYPE3
 70
     0
  3
二点鎖線
 72
    65
 73
     6
 40
35.0
 49
30.0
 74
     0
 49
-1.0
 74
     0
 49
1.0
 74
     0
 49
-1.0
 74
     0
 49
1.0
 74
     0
 49
-1.0
 74
     0
  0
LTYPE
  5
72
330
5
100
AcDbSymbolTableRecord
100
AcDbLinetypeTableRecord
  2
EXLTYPE4
 70
     0
  3
三点鎖線
 72
    65
 73
     8
 40
37.0
 49
30.0
 74
     0
 49
-1.0
 74
     0
 49
1.0
 74
     0
 49
-1.0
 74
     0
 49
1.0
 74
     0
 49
-1.0
 74
     0
 49
1.0
 74
     0
 49
-1.0
 74
     0
  0
LTYPE
  5
73
330
5
100
AcDbSymbolTableRecord
100
AcDbLinetypeTableRecord
  2
EXLTYPE5
 70
     0
  3
四点鎖線
 72
    65
 73
    10
 40
39.0
 49
30.0
 74
     0
 49
-1.0
 74
     0
 49
1.0
 74
     0
 49
-1.0
 74
     0
 49
1.0
 74
     0
 49
-1.0
 74
     0
 49
1.0
 74
     0
 49
-1.0
 74
     0
 49
1.0
 74
     0
 49
-1.0
 74
     0
  0
ENDTAB
  0
TABLE
  2
LAYER
  5
2
330
0
100
AcDbSymbolTable
 70
     3
  0
LAYER
  5
10
330
2
100
AcDbSymbolTableRecord
100
AcDbLayerTableRecord
  2
0
 70
     0
 62
     7
  6
CONTINUOUS
  0
LAYER
  5
76
330
2
100
AcDbSymbolTableRecord
100
AcDbLayerTableRecord
  2
営業図
 70
     0
 62
     7
  6
CONTINUOUS
  0
LAYER
  5
D8
330
2
100
AcDbSymbolTableRecord
100
AcDbLayerTableRecord
  2
DEFPOINTS
 70
     0
 62
     7
  6
CONTINUOUS
  0
ENDTAB
  0
TABLE
  2
STYLE
  5
3
330
0
100
AcDbSymbolTable
 70
     4
  0
STYLE
  5
11
330
3
100
AcDbSymbolTableRecord
100
AcDbTextStyleTableRecord
  2
STANDARD
 70
     0
 40
0.0
 41
1.0
 50
0.0
 71
     0
 42
2.5
  3
monotxt
  4
extfont
  0
STYLE
  5
74
330
3
100
AcDbSymbolTableRecord
100
AcDbTextStyleTableRecord
  2
EXCADSTD
 70
     0
 40
0.0
 41
1.0
 50
0.0
 71
     0
 42
2.5
  3
monotxt
  4
extfont
  0
STYLE
  5
75
330
3
100
AcDbSymbolTableRecord
100
AcDbTextStyleTableRecord
  2
EXCADVERT
 70
     4
 40
0.0
 41
1.0
 50
0.0
 71
     0
 42
2.5
  3
monotxt
  4
extfont
  0
STYLE
  5
D6
330
3
100
AcDbSymbolTableRecord
100
AcDbTextStyleTableRecord
  2
EXCADDIM1
 70
     0
 40
0.0
 41
0.84
 50
0.0
 71
     0
 42
2.5
  3
monotxt
  4
extfont
  0
ENDTAB
  0
TABLE
  2
VIEW
  5
6
330
0
100
AcDbSymbolTable
 70
     0
  0
ENDTAB
  0
TABLE
  2
UCS
  5
7
330
0
100
AcDbSymbolTable
 70
     0
  0
ENDTAB
  0
TABLE
  2
APPID
  5
9
330
0
100
AcDbSymbolTable
 70
     2
  0
APPID
  5
12
330
9
100
AcDbSymbolTableRecord
100
AcDbRegAppTableRecord
  2
ACAD
 70
     0
  0
APPID
  5
466
330
9
100
AcDbSymbolTableRecord
100
AcDbRegAppTableRecord
  2
ACAD_MLEADERVER
 70
     0
  0
ENDTAB
  0
TABLE
  2
DIMSTYLE
  5
A
330
0
100
AcDbSymbolTable
 70
     1
  0
DIMSTYLE
105
27
102
{ACAD_REACTORS
330
D7
330
E5
102
}
330
A
100
AcDbSymbolTableRecord
100
AcDbDimStyleTableRecord
  2
ISO-25
 70
     0
  3

  4

  5

  6

  7

 40
1.0
 41
2.5
 42
0.625
 43
3.75
 44
1.25
 45
0.0
 46
0.0
 47
0.0
 48
0.0
140
2.5
141
2.5
142
0.0
143
0.03937007874016
144
1.0
145
0.0
146
1.0
147
0.625
 71
     0
 72
     0
 73
     0
 74
     0
 75
     0
 76
     0
 77
     1
 78
     8
170
     0
171
     3
172
     1
173
     0
174
     0
175
     0
176
     0
177
     0
178
     0
270
     2
271
     2
272
     2
273
     2
274
     3
340
11
275
     0
280
     0
281
     0
282
     0
283
     0
284
     8
285
     0
286
     0
287
     5
288
     0
  0
ENDTAB
  0
TABLE
  2
BLOCK_RECORD
  5
1
330
0
100
AcDbSymbolTable
 70
    17
  0
BLOCK_RECORD
  5
1F
330
1
100
AcDbSymbolTableRecord
100
AcDbBlockTableRecord
  2
*MODEL_SPACE
  0
BLOCK_RECORD
  5
1B
330
1
100
AcDbSymbolTableRecord
100
AcDbBlockTableRecord
  2
*PAPER_SPACE
  0
BLOCK_RECORD
  5
77
330
1
100
AcDbSymbolTableRecord
100
AcDbBlockTableRecord
  2
EX_NORM
  0
BLOCK_RECORD
  5
7A
330
1
100
AcDbSymbolTableRecord
100
AcDbBlockTableRecord
  2
EX_BNORM
  0
BLOCK_RECORD
  5
7D
330
1
100
AcDbSymbolTableRecord
100
AcDbBlockTableRecord
  2
EX_BCIR
  0
BLOCK_RECORD
  5
80
330
1
100
AcDbSymbolTableRecord
100
AcDbBlockTableRecord
  2
EX_RCIVIL
  0
BLOCK_RECORD
  5
83
330
1
100
AcDbSymbolTableRecord
100
AcDbBlockTableRecord
  2
EX_SLANT
  0
BLOCK_RECORD
  5
86
330
1
100
AcDbSymbolTableRecord
100
AcDbBlockTableRecord
  2
EX_NONE
  0
BLOCK_RECORD
  5
89
330
1
100
AcDbSymbolTableRecord
100
AcDbBlockTableRecord
  2
EX_CIVIL
  0
BLOCK_RECORD
  5
8C
330
1
100
AcDbSymbolTableRecord
100
AcDbBlockTableRecord
  2
EX_WCIR
  0
BLOCK_RECORD
  5
8F
330
1
100
AcDbSymbolTableRecord
100
AcDbBlockTableRecord
  2
EX_WCIR2
  0
BLOCK_RECORD
  5
92
330
1
100
AcDbSymbolTableRecord
100
AcDbBlockTableRecord
  2
EX_WNORM
  0
BLOCK_RECORD
  5
95
330
1
100
AcDbSymbolTableRecord
100
AcDbBlockTableRecord
  2
EX_NNORM
  0
BLOCK_RECORD
  5
98
330
1
100
AcDbSymbolTableRecord
100
AcDbBlockTableRecord
  2
EX_BBOX
  0
BLOCK_RECORD
  5
9B
330
1
100
AcDbSymbolTableRecord
100
AcDbBlockTableRecord
  2
EX_WBOX
  0
BLOCK_RECORD
  5
9E
330
1
100
AcDbSymbolTableRecord
100
AcDbBlockTableRecord
  2
EX_INTEGRAL
  0
BLOCK_RECORD
  5
D9
330
1
100
AcDbSymbolTableRecord
100
AcDbBlockTableRecord
  2
*D15
  0
BLOCK_RECORD
  5
E6
330
1
100
AcDbSymbolTableRecord
100
AcDbBlockTableRecord
  2
*D16
  0
ENDTAB
  0
ENDSEC
  0
SECTION
  2
BLOCKS
  0
BLOCK
  5
20
330
1F
100
AcDbEntity
  8
0
100
AcDbBlockBegin
  2
*MODEL_SPACE
 70
     0
 10
0.0
 20
0.0
 30
0.0
  3
*MODEL_SPACE
  1

  0
ENDBLK
  5
21
330
1F
100
AcDbEntity
  8
0
100
AcDbBlockEnd
  0
BLOCK
  5
1C
330
1B
100
AcDbEntity
 67
     1
  8
0
100
AcDbBlockBegin
  2
*PAPER_SPACE
 70
     0
 10
0.0
 20
0.0
 30
0.0
  3
*PAPER_SPACE
  1

  0
ENDBLK
  5
1D
330
1B
100
AcDbEntity
 67
     1
  8
0
100
AcDbBlockEnd
  0
BLOCK
  5
78
330
77
100
AcDbEntity
  8
0
100
AcDbBlockBegin
  2
EX_NORM
 70
     0
 10
0.0
 20
0.0
 30
0.0
  3
EX_NORM
  1

  0
LINE
  5
A1
330
77
100
AcDbEntity
  8
0
  6
CONTINUOUS
 62
     0
100
AcDbLine
 10
0.0
 20
0.0
 30
0.0
 11
-1.0
 21
0.0
 31
0.0
  0
LINE
  5
A2
330
77
100
AcDbEntity
  8
0
  6
CONTINUOUS
 62
     0
100
AcDbLine
 10
0.0
 20
0.0
 30
0.0
 11
-1.0
 21
0.166666667
 31
0.0
  0
LINE
  5
A3
330
77
100
AcDbEntity
  8
0
  6
CONTINUOUS
 62
     0
100
AcDbLine
 10
0.0
 20
0.0
 30
0.0
 11
-1.0
 21
-0.166666667
 31
0.0
  0
ENDBLK
  5
79
330
77
100
AcDbEntity
  8
0
100
AcDbBlockEnd
  0
BLOCK
  5
7B
330
7A
100
AcDbEntity
  8
0
100
AcDbBlockBegin
  2
EX_BNORM
 70
     0
 10
0.0
 20
0.0
 30
0.0
  3
EX_BNORM
  1

  0
LINE
  5
A4
330
7A
100
AcDbEntity
  8
0
  6
CONTINUOUS
 62
     0
100
AcDbLine
 10
0.0
 20
0.0
 30
0.0
 11
-1.0
 21
0.0
 31
0.0
  0
LINE
  5
A5
330
7A
100
AcDbEntity
  8
0
  6
CONTINUOUS
 62
     0
100
AcDbLine
 10
0.0
 20
0.0
 30
0.0
 11
-1.0
 21
0.166666667
 31
0.0
  0
LINE
  5
A6
330
7A
100
AcDbEntity
  8
0
  6
CONTINUOUS
 62
     0
100
AcDbLine
 10
0.0
 20
0.0
 30
0.0
 11
-1.0
 21
-0.166666667
 31
0.0
  0
LINE
  5
A7
330
7A
100
AcDbEntity
  8
0
  6
CONTINUOUS
 62
     0
100
AcDbLine
 10
0.0
 20
0.0
 30
0.0
 11
-1.0
 21
0.083333333
 31
0.0
  0
LINE
  5
A8
330
7A
100
AcDbEntity
  8
0
  6
CONTINUOUS
 62
     0
100
AcDbLine
 10
0.0
 20
0.0
 30
0.0
 11
-1.0
 21
-0.083333333
 31
0.0
  0
LINE
  5
A9
330
7A
100
AcDbEntity
  8
0
  6
CONTINUOUS
 62
     0
100
AcDbLine
 10
-1.0
 20
0.166666667
 30
0.0
 11
-1.0
 21
-0.166666667
 31
0.0
  0
ENDBLK
  5
7C
330
7A
100
AcDbEntity
  8
0
100
AcDbBlockEnd
  0
BLOCK
  5
7E
330
7D
100
AcDbEntity
  8
0
100
AcDbBlockBegin
  2
EX_BCIR
 70
     0
 10
0.0
 20
0.0
 30
0.0
  3
EX_BCIR
  1

  0
LINE
  5
AA
330
7D
100
AcDbEntity
  8
0
  6
CONTINUOUS
 62
     0
100
AcDbLine
 10
0.0
 20
0.0
 30
0.0
 11
-1.0
 21
0.0
 31
0.0
  0
CIRCLE
  5
AB
330
7D
100
AcDbEntity
  8
0
  6
CONTINUOUS
 62
     0
100
AcDbCircle
 10
0.0
 20
0.0
 30
0.0
 40
0.5
  0
CIRCLE
  5
AC
330
7D
100
AcDbEntity
  8
0
  6
CONTINUOUS
 62
     0
100
AcDbCircle
 10
0.0
 20
0.0
 30
0.0
 40
0.25
  0
ENDBLK
  5
7F
330
7D
100
AcDbEntity
  8
0
100
AcDbBlockEnd
  0
BLOCK
  5
81
330
80
100
AcDbEntity
  8
0
100
AcDbBlockBegin
  2
EX_RCIVIL
 70
     0
 10
0.0
 20
0.0
 30
0.0
  3
EX_RCIVIL
  1

  0
LINE
  5
AD
330
80
100
AcDbEntity
  8
0
  6
CONTINUOUS
 62
     0
100
AcDbLine
 10
0.0
 20
0.0
 30
0.0
 11
-1.0
 21
0.0
 31
0.0
  0
LINE
  5
AE
330
80
100
AcDbEntity
  8
0
  6
CONTINUOUS
 62
     0
100
AcDbLine
 10
-1.0
 20
-0.25
 30
0.0
 11
0.0
 21
-0.25
 31
0.0
  0
LINE
  5
AF
330
80
100
AcDbEntity
  8
0
  6
CONTINUOUS
 62
     0
100
AcDbLine
 10
-1.0
 20
-0.125
 30
0.0
 11
0.0
 21
-0.125
 31
0.0
  0
ENDBLK
  5
82
330
80
100
AcDbEntity
  8
0
100
AcDbBlockEnd
  0
BLOCK
  5
84
330
83
100
AcDbEntity
  8
0
100
AcDbBlockBegin
  2
EX_SLANT
 70
     0
 10
0.0
 20
0.0
 30
0.0
  3
EX_SLANT
  1

  0
LINE
  5
B0
330
83
100
AcDbEntity
  8
0
  6
CONTINUOUS
 62
     0
100
AcDbLine
 10
0.0
 20
0.0
 30
0.0
 11
-1.0
 21
0.0
 31
0.0
  0
LINE
  5
B1
330
83
100
AcDbEntity
  8
0
  6
CONTINUOUS
 62
     0
100
AcDbLine
 10
0.707106781
 20
0.707106781
 30
0.0
 11
-0.707106781
 21
-0.707106781
 31
0.0
  0
ENDBLK
  5
85
330
83
100
AcDbEntity
  8
0
100
AcDbBlockEnd
  0
BLOCK
  5
87
330
86
100
AcDbEntity
  8
0
100
AcDbBlockBegin
  2
EX_NONE
 70
     0
 10
0.0
 20
0.0
 30
0.0
  3
EX_NONE
  1

  0
LINE
  5
B2
330
86
100
AcDbEntity
  8
0
  6
CONTINUOUS
 62
     0
100
AcDbLine
 10
0.0
 20
0.0
 30
0.0
 11
-1.0
 21
0.0
 31
0.0
  0
ENDBLK
  5
88
330
86
100
AcDbEntity
  8
0
100
AcDbBlockEnd
  0
BLOCK
  5
8A
330
89
100
AcDbEntity
  8
0
100
AcDbBlockBegin
  2
EX_CIVIL
 70
     0
 10
0.0
 20
0.0
 30
0.0
  3
EX_CIVIL
  1

  0
LINE
  5
B3
330
89
100
AcDbEntity
  8
0
  6
CONTINUOUS
 62
     0
100
AcDbLine
 10
0.0
 20
0.0
 30
0.0
 11
-1.0
 21
0.0
 31
0.0
  0
LINE
  5
B4
330
89
100
AcDbEntity
  8
0
  6
CONTINUOUS
 62
     0
100
AcDbLine
 10
-1.0
 20
0.25
 30
0.0
 11
0.0
 21
0.25
 31
0.0
  0
LINE
  5
B5
330
89
100
AcDbEntity
  8
0
  6
CONTINUOUS
 62
     0
100
AcDbLine
 10
-1.0
 20
0.125
 30
0.0
 11
0.0
 21
0.125
 31
0.0
  0
ENDBLK
  5
8B
330
89
100
AcDbEntity
  8
0
100
AcDbBlockEnd
  0
BLOCK
  5
8D
330
8C
100
AcDbEntity
  8
0
100
AcDbBlockBegin
  2
EX_WCIR
 70
     0
 10
0.0
 20
0.0
 30
0.0
  3
EX_WCIR
  1

  0
LINE
  5
B6
330
8C
100
AcDbEntity
  8
0
  6
CONTINUOUS
 62
     0
100
AcDbLine
 10
0.0
 20
0.0
 30
0.0
 11
-1.0
 21
0.0
 31
0.0
  0
CIRCLE
  5
B7
330
8C
100
AcDbEntity
  8
0
  6
CONTINUOUS
 62
     0
100
AcDbCircle
 10
0.0
 20
0.0
 30
0.0
 40
0.5
  0
ENDBLK
  5
8E
330
8C
100
AcDbEntity
  8
0
100
AcDbBlockEnd
  0
BLOCK
  5
90
330
8F
100
AcDbEntity
  8
0
100
AcDbBlockBegin
  2
EX_WCIR2
 70
     0
 10
0.0
 20
0.0
 30
0.0
  3
EX_WCIR2
  1

  0
LINE
  5
B8
330
8F
100
AcDbEntity
  8
0
  6
CONTINUOUS
 62
     0
100
AcDbLine
 10
-0.5
 20
0.0
 30
0.0
 11
-1.0
 21
0.0
 31
0.0
  0
CIRCLE
  5
B9
330
8F
100
AcDbEntity
  8
0
  6
CONTINUOUS
 62
     0
100
AcDbCircle
 10
0.0
 20
0.0
 30
0.0
 40
0.5
  0
ENDBLK
  5
91
330
8F
100
AcDbEntity
  8
0
100
AcDbBlockEnd
  0
BLOCK
  5
93
330
92
100
AcDbEntity
  8
0
100
AcDbBlockBegin
  2
EX_WNORM
 70
     0
 10
0.0
 20
0.0
 30
0.0
  3
EX_WNORM
  1

  0
LINE
  5
BA
330
92
100
AcDbEntity
  8
0
  6
CONTINUOUS
 62
     0
100
AcDbLine
 10
-1.0
 20
0.0
 30
0.0
 11
-1.0
 21
0.0
 31
0.0
  0
LINE
  5
BB
330
92
100
AcDbEntity
  8
0
  6
CONTINUOUS
 62
     0
100
AcDbLine
 10
0.0
 20
0.0
 30
0.0
 11
-1.0
 21
0.166666667
 31
0.0
  0
LINE
  5
BC
330
92
100
AcDbEntity
  8
0
  6
CONTINUOUS
 62
     0
100
AcDbLine
 10
0.0
 20
0.0
 30
0.0
 11
-1.0
 21
-0.166666667
 31
0.0
  0
LINE
  5
BD
330
92
100
AcDbEntity
  8
0
  6
CONTINUOUS
 62
     0
100
AcDbLine
 10
-1.0
 20
0.166666667
 30
0.0
 11
-1.0
 21
-0.166666667
 31
0.0
  0
ENDBLK
  5
94
330
92
100
AcDbEntity
  8
0
100
AcDbBlockEnd
  0
BLOCK
  5
96
330
95
100
AcDbEntity
  8
0
100
AcDbBlockBegin
  2
EX_NNORM
 70
     0
 10
0.0
 20
0.0
 30
0.0
  3
EX_NNORM
  1

  0
LINE
  5
BE
330
95
100
AcDbEntity
  8
0
  6
CONTINUOUS
 62
     0
100
AcDbLine
 10
0.0
 20
0.0
 30
0.0
 11
-1.0
 21
0.0
 31
0.0
  0
LINE
  5
BF
330
95
100
AcDbEntity
  8
0
  6
CONTINUOUS
 62
     0
100
AcDbLine
 10
0.0
 20
0.0
 30
0.0
 11
-1.0
 21
0.166666667
 31
0.0
  0
LINE
  5
C0
330
95
100
AcDbEntity
  8
0
  6
CONTINUOUS
 62
     0
100
AcDbLine
 10
0.0
 20
0.0
 30
0.0
 11
-1.0
 21
-0.166666667
 31
0.0
  0
LINE
  5
C1
330
95
100
AcDbEntity
  8
0
  6
CONTINUOUS
 62
     0
100
AcDbLine
 10
-1.0
 20
0.166666667
 30
0.0
 11
-1.0
 21
-0.166666667
 31
0.0
  0
ENDBLK
  5
97
330
95
100
AcDbEntity
  8
0
100
AcDbBlockEnd
  0
BLOCK
  5
99
330
98
100
AcDbEntity
  8
0
100
AcDbBlockBegin
  2
EX_BBOX
 70
     0
 10
0.0
 20
0.0
 30
0.0
  3
EX_BBOX
  1

  0
LINE
  5
C2
330
98
100
AcDbEntity
  8
0
  6
CONTINUOUS
 62
     0
100
AcDbLine
 10
0.0
 20
0.0
 30
0.0
 11
-1.0
 21
0.0
 31
0.0
  0
LINE
  5
C3
330
98
100
AcDbEntity
  8
0
  6
CONTINUOUS
 62
     0
100
AcDbLine
 10
-0.5
 20
0.5
 30
0.0
 11
0.5
 21
0.5
 31
0.0
  0
LINE
  5
C4
330
98
100
AcDbEntity
  8
0
  6
CONTINUOUS
 62
     0
100
AcDbLine
 10
0.5
 20
0.5
 30
0.0
 11
0.5
 21
-0.5
 31
0.0
  0
LINE
  5
C5
330
98
100
AcDbEntity
  8
0
  6
CONTINUOUS
 62
     0
100
AcDbLine
 10
0.5
 20
-0.5
 30
0.0
 11
-0.5
 21
-0.5
 31
0.0
  0
LINE
  5
C6
330
98
100
AcDbEntity
  8
0
  6
CONTINUOUS
 62
     0
100
AcDbLine
 10
-0.5
 20
-0.5
 30
0.0
 11
-0.5
 21
0.5
 31
0.0
  0
LINE
  5
C7
330
98
100
AcDbEntity
  8
0
  6
CONTINUOUS
 62
     0
100
AcDbLine
 10
-0.25
 20
0.25
 30
0.0
 11
0.25
 21
0.25
 31
0.0
  0
LINE
  5
C8
330
98
100
AcDbEntity
  8
0
  6
CONTINUOUS
 62
     0
100
AcDbLine
 10
0.25
 20
0.25
 30
0.0
 11
0.25
 21
-0.25
 31
0.0
  0
LINE
  5
C9
330
98
100
AcDbEntity
  8
0
  6
CONTINUOUS
 62
     0
100
AcDbLine
 10
0.25
 20
-0.25
 30
0.0
 11
-0.25
 21
-0.25
 31
0.0
  0
LINE
  5
CA
330
98
100
AcDbEntity
  8
0
  6
CONTINUOUS
 62
     0
100
AcDbLine
 10
-0.25
 20
-0.25
 30
0.0
 11
-0.25
 21
0.25
 31
0.0
  0
ENDBLK
  5
9A
330
98
100
AcDbEntity
  8
0
100
AcDbBlockEnd
  0
BLOCK
  5
9C
330
9B
100
AcDbEntity
  8
0
100
AcDbBlockBegin
  2
EX_WBOX
 70
     0
 10
0.0
 20
0.0
 30
0.0
  3
EX_WBOX
  1

  0
LINE
  5
CB
330
9B
100
AcDbEntity
  8
0
  6
CONTINUOUS
 62
     0
100
AcDbLine
 10
-0.5
 20
0.0
 30
0.0
 11
-1.0
 21
0.0
 31
0.0
  0
LINE
  5
CC
330
9B
100
AcDbEntity
  8
0
  6
CONTINUOUS
 62
     0
100
AcDbLine
 10
-0.5
 20
0.5
 30
0.0
 11
0.5
 21
0.5
 31
0.0
  0
LINE
  5
CD
330
9B
100
AcDbEntity
  8
0
  6
CONTINUOUS
 62
     0
100
AcDbLine
 10
0.5
 20
0.5
 30
0.0
 11
0.5
 21
-0.5
 31
0.0
  0
LINE
  5
CE
330
9B
100
AcDbEntity
  8
0
  6
CONTINUOUS
 62
     0
100
AcDbLine
 10
0.5
 20
-0.5
 30
0.0
 11
-0.5
 21
-0.5
 31
0.0
  0
LINE
  5
CF
330
9B
100
AcDbEntity
  8
0
  6
CONTINUOUS
 62
     0
100
AcDbLine
 10
-0.5
 20
-0.5
 30
0.0
 11
-0.5
 21
0.5
 31
0.0
  0
ENDBLK
  5
9D
330
9B
100
AcDbEntity
  8
0
100
AcDbBlockEnd
  0
BLOCK
  5
9F
330
9E
100
AcDbEntity
  8
0
100
AcDbBlockBegin
  2
EX_INTEGRAL
 70
     0
 10
0.0
 20
0.0
 30
0.0
  3
EX_INTEGRAL
  1

  0
LINE
  5
D0
330
9E
100
AcDbEntity
  8
0
  6
CONTINUOUS
 62
     0
100
AcDbLine
 10
0.0
 20
0.0
 30
0.0
 11
-1.0
 21
0.0
 31
0.0
  0
ARC
  5
D1
330
9E
100
AcDbEntity
  8
0
  6
CONTINUOUS
 62
     0
100
AcDbCircle
 10
0.542115
 20
0.164992
 30
0.0
 40
0.56667
100
AcDbArc
 50
73.07249033629006
 51
196.9275130221199
  0
ARC
  5
D2
330
9E
100
AcDbEntity
  8
0
  6
CONTINUOUS
 62
     0
100
AcDbCircle
 10
-0.542115
 20
-0.164992
 30
0.0
 40
0.56667
100
AcDbArc
 50
253.0724869220464
 51
16.9275130559125
  0
ENDBLK
  5
A0
330
9E
100
AcDbEntity
  8
0
100
AcDbBlockEnd
  0
BLOCK
  5
DA
330
D9
100
AcDbEntity
  8
0
100
AcDbBlockBegin
  2
*D15
 70
     1
 10
0.0
 20
0.0
 30
0.0
  3
*D15
  1

  0
LINE
  5
DC
330
D9
100
AcDbEntity
  8
営業図
  6
CONTINUOUS
 62
     1
100
AcDbLine
 10
267.361755
 20
501.369995
 30
0.0
 11
235.361755
 21
501.369995
 31
0.0
  0
LINE
  5
DD
330
D9
100
AcDbEntity
  8
営業図
  6
CONTINUOUS
 62
     1
100
AcDbLine
 10
267.361755
 20
331.369995
 30
0.0
 11
235.361755
 21
331.369995
 31
0.0
  0
LINE
  5
DE
330
D9
100
AcDbEntity
  8
営業図
  6
CONTINUOUS
 62
     1
100
AcDbLine
 10
239.111755
 20
497.619995
 30
0.0
 11
239.111755
 21
335.119995
 31
0.0
  0
INSERT
  5
DF
330
D9
100
AcDbEntity
  8
営業図
 62
     1
100
AcDbBlockReference
  2
EX_BCIR
 10
239.111755
 20
501.369995
 30
0.0
 41
3.75
 42
3.75
 43
3.75
 50
90.0
  0
INSERT
  5
E0
330
D9
100
AcDbEntity
  8
営業図
 62
     1
100
AcDbBlockReference
  2
EX_BCIR
 10
239.111755
 20
331.369995
 30
0.0
 41
3.75
 42
3.75
 43
3.75
 50
270.0
  0
MTEXT
  5
E1
330
D9
100
AcDbEntity
  8
営業図
 62
     1
100
AcDbMText
 10
233.111755
 20
420.3699950000001
 30
0.0
 40
7.795275999999999
 41
0.0
 71
     5
 72
     1
  1
%%c170
  7
EXCADDIM1
 11
-6.049014748177263E-16
 21
1.0
 31
0.0
  0
POINT
  5
E2
330
D9
100
AcDbEntity
  8
DEFPOINTS
 62
     0
100
AcDbPoint
 10
271.111755
 20
501.369995
 30
0.0
  0
POINT
  5
E3
330
D9
100
AcDbEntity
  8
DEFPOINTS
 62
     0
100
AcDbPoint
 10
271.111755
 20
331.369995
 30
0.0
  0
POINT
  5
E4
330
D9
100
AcDbEntity
  8
DEFPOINTS
 62
     0
100
AcDbPoint
 10
239.111755
 20
331.369995
 30
0.0
  0
ENDBLK
  5
DB
330
D9
100
AcDbEntity
  8
0
100
AcDbBlockEnd
  0
BLOCK
  5
E7
330
E6
100
AcDbEntity
  8
0
100
AcDbBlockBegin
  2
*D16
 70
     1
 10
0.0
 20
0.0
 30
0.0
  3
*D16
  1

  0
LINE
  5
E9
330
E6
100
AcDbEntity
  8
営業図
  6
CONTINUOUS
 62
     1
100
AcDbLine
 10
327.361755
 20
523.869995
 30
0.0
 11
215.361755
 21
523.869995
 31
0.0
  0
LINE
  5
EA
330
E6
100
AcDbEntity
  8
営業図
  6
CONTINUOUS
 62
     1
100
AcDbLine
 10
327.361755
 20
308.869965
 30
0.0
 11
215.361755
 21
308.869965
 31
0.0
  0
LINE
  5
EB
330
E6
100
AcDbEntity
  8
営業図
  6
CONTINUOUS
 62
     1
100
AcDbLine
 10
219.111755
 20
520.119995
 30
0.0
 11
219.111755
 21
312.619965
 31
0.0
  0
INSERT
  5
EC
330
E6
100
AcDbEntity
  8
営業図
 62
     1
100
AcDbBlockReference
  2
EX_BCIR
 10
219.111755
 20
523.869995
 30
0.0
 41
3.75
 42
3.75
 43
3.75
 50
90.0
  0
INSERT
  5
ED
330
E6
100
AcDbEntity
  8
営業図
 62
     1
100
AcDbBlockReference
  2
EX_BCIR
 10
219.111755
 20
308.869965
 30
0.0
 41
3.75
 42
3.75
 43
3.75
 50
270.0
  0
MTEXT
  5
EE
330
E6
100
AcDbEntity
  8
営業図
 62
     1
100
AcDbMText
 10
213.111755
 20
420.3699950000001
 30
0.0
 40
7.795275999999999
 41
0.0
 71
     5
 72
     1
  1
%%c215
  7
EXCADDIM1
 11
-6.049014748177263E-16
 21
1.0
 31
0.0
  0
POINT
  5
EF
330
E6
100
AcDbEntity
  8
DEFPOINTS
 62
     0
100
AcDbPoint
 10
331.111755
 20
523.869995
 30
0.0
  0
POINT
  5
F0
330
E6
100
AcDbEntity
  8
DEFPOINTS
 62
     0
100
AcDbPoint
 10
331.111755
 20
308.869965
 30
0.0
  0
POINT
  5
F1
330
E6
100
AcDbEntity
  8
DEFPOINTS
 62
     0
100
AcDbPoint
 10
219.111755
 20
308.869965
 30
0.0
  0
ENDBLK
  5
E8
330
E6
100
AcDbEntity
  8
0
100
AcDbBlockEnd
  0
ENDSEC
  0
SECTION
  2
ENTITIES
  0
LEADER
  5
D3
330
1F
100
AcDbEntity
  8
営業図
  6
CONTINUOUS
 62
     1
100
AcDbLeader
  3
ISO-25
 76
     3
 10
759.400452
 20
564.477112
 30
0.0
 10
794.400452
 20
625.098877
 30
0.0
 10
890.0
 20
625.098877
 30
0.0
1001
ACAD
1000
DSTYLE
1002
{
1070
     5
1000
EX_BCIR
1070
    41
1040
3.75
1070
   341
1005
7D
1002
}
  0
LEADER
  5
D4
330
1F
100
AcDbEntity
  8
営業図
  6
CONTINUOUS
 62
     1
100
AcDbLeader
  3
ISO-25
 76
     3
 10
805.611755
 20
553.369995
 30
0.0
 10
830.611755
 20
596.671265
 30
0.0
 10
934.2500000000001
 20
596.671265
 30
0.0
1001
ACAD
1000
DSTYLE
1002
{
1070
     5
1000
EX_BCIR
1070
    41
1040
3.75
1070
   341
1005
7D
1002
}
  0
LEADER
  5
D5
330
1F
100
AcDbEntity
  8
営業図
  6
CONTINUOUS
 62
     1
100
AcDbLeader
  3
ISO-25
 76
     3
 10
409.611725
 20
553.369995
 30
0.0
 10
384.6117250000001
 20
596.671265
 30
0.0
 10
284.5000000000001
 20
596.671265
 30
0.0
1001
ACAD
1000
DSTYLE
1002
{
1070
     5
1000
EX_BCIR
1070
    41
1040
3.75
1070
   341
1005
7D
1002
}
  0
DIMENSION
  5
D7
330
1F
100
AcDbEntity
  8
営業図
  6
CONTINUOUS
 62
     1
100
AcDbDimension
  2
*D15
 10
239.111755
 20
331.369995
 30
0.0
 11
233.111755
 21
420.3699950000001
 31
0.0
 70
   160
  1
%%c<>
 53
90.00000000000004
  3
ISO-25
100
AcDbAlignedDimension
 13
271.111755
 23
501.369995
 33
0.0
 14
271.111755
 24
331.369995
 34
0.0
 50
90.0
100
AcDbRotatedDimension
1001
ACAD
1000
DSTYLE
1002
{
1070
   270
1070
     2
1070
     6
1000
EX_BCIR
1070
     7
1000
EX_BCIR
1070
    41
1040
3.75
1070
    42
1040
3.75
1070
    44
1040
3.75
1070
    73
1070
     0
1070
    74
1070
     0
1070
    75
1070
     0
1070
    76
1070
     0
1070
    77
1070
     1
1070
    78
1070
     0
1070
   140
1040
7.795275999999999
1070
   147
1040
0.0
1070
   173
1070
     1
1070
   176
1070
     1
1070
   177
1070
     1
1070
   178
1070
     1
1070
   271
1070
     0
1070
   277
1070
     2
1070
   279
1070
     2
1070
   280
1070
     0
1070
   287
1070
     5
1070
   340
1005
D6
1002
}
  0
DIMENSION
  5
E5
330
1F
100
AcDbEntity
  8
営業図
  6
CONTINUOUS
 62
     1
100
AcDbDimension
  2
*D16
 10
219.111755
 20
308.869965
 30
0.0
 11
213.111755
 21
420.3699950000001
 31
0.0
 70
   160
  1
%%c<>
 53
90.00000000000004
  3
ISO-25
100
AcDbAlignedDimension
 13
331.111755
 23
523.869995
 33
0.0
 14
331.111755
 24
308.869965
 34
0.0
 50
90.0
100
AcDbRotatedDimension
1001
ACAD
1000
DSTYLE
1002
{
1070
   270
1070
     2
1070
     6
1000
EX_BCIR
1070
     7
1000
EX_BCIR
1070
    41
1040
3.75
1070
    42
1040
3.75
1070
    44
1040
3.75
1070
    73
1070
     0
1070
    74
1070
     0
1070
    75
1070
     0
1070
    76
1070
     0
1070
    77
1070
     1
1070
    78
1070
     0
1070
   140
1040
7.795275999999999
1070
   147
1040
0.0
1070
   173
1070
     1
1070
   176
1070
     1
1070
   177
1070
     1
1070
   178
1070
     1
1070
   271
1070
     0
1070
   277
1070
     2
1070
   279
1070
     2
1070
   280
1070
     0
1070
   287
1070
     5
1070
   340
1005
D6
1002
}
  0
POINT
  5
F2
330
1F
100
AcDbEntity
  8
営業図
  6
CONTINUOUS
 62
     3
100
AcDbPoint
 10
0.0
 20
0.0
 30
0.0
  0
POINT
  5
F3
330
1F
100
AcDbEntity
  8
営業図
  6
CONTINUOUS
 62
     3
100
AcDbPoint
 10
0.0
 20
0.0
 30
0.0
  0
POINT
  5
F4
330
1F
100
AcDbEntity
  8
営業図
  6
CONTINUOUS
 62
     3
100
AcDbPoint
 10
0.0
 20
0.0
 30
0.0
  0
POINT
  5
F5
330
1F
100
AcDbEntity
  8
営業図
  6
CONTINUOUS
 62
     3
100
AcDbPoint
 10
0.0
 20
0.0
 30
0.0
  0
POINT
  5
F6
330
1F
100
AcDbEntity
  8
営業図
  6
CONTINUOUS
 62
     3
100
AcDbPoint
 10
0.0
 20
0.0
 30
0.0
  0
POINT
  5
F7
330
1F
100
AcDbEntity
  8
営業図
  6
CONTINUOUS
 62
     3
100
AcDbPoint
 10
0.0
 20
0.0
 30
0.0
  0
LINE
  5
F8
330
1F
100
AcDbEntity
  8
営業図
  6
CONTINUOUS
 62
     7
100
AcDbLine
 10
331.111755
 20
308.869965
 30
0.0
 11
857.111755
 21
308.869965
 31
0.0
  0
LINE
  5
F9
330
1F
100
AcDbEntity
  8
営業図
  6
CONTINUOUS
 62
     7
100
AcDbLine
 10
859.111755
 20
310.869965
 30
0.0
 11
859.111755
 21
521.869995
 31
0.0
  0
LINE
  5
FA
330
1F
100
AcDbEntity
  8
営業図
  6
CONTINUOUS
 62
     7
100
AcDbLine
 10
331.111755
 20
523.869995
 30
0.0
 11
857.111755
 21
523.869995
 31
0.0
  0
LINE
  5
FB
330
1F
100
AcDbEntity
  8
営業図
  6
CONTINUOUS
 62
     7
100
AcDbLine
 10
329.111755
 20
310.869965
 30
0.0
 11
329.111755
 21
521.869995
 31
0.0
  0
LINE
  5
FC
330
1F
100
AcDbEntity
  8
営業図
  6
CONTINUOUS
 62
     7
100
AcDbLine
 10
329.111755
 20
521.869995
 30
0.0
 11
331.111755
 21
523.869995
 31
0.0
  0
LINE
  5
FD
330
1F
100
AcDbEntity
  8
営業図
  6
CONTINUOUS
 62
     7
100
AcDbLine
 10
331.111755
 20
308.869965
 30
0.0
 11
329.111755
 21
310.869965
 31
0.0
  0
LINE
  5
FE
330
1F
100
AcDbEntity
  8
営業図
  6
CONTINUOUS
 62
     7
100
AcDbLine
 10
331.111755
 20
523.869995
 30
0.0
 11
331.111755
 21
308.869965
 31
0.0
  0
LINE
  5
FF
330
1F
100
AcDbEntity
  8
営業図
  6
CONTINUOUS
 62
     7
100
AcDbLine
 10
859.111755
 20
521.869995
 30
0.0
 11
857.111755
 21
523.869995
 31
0.0
  0
LINE
  5
100
330
1F
100
AcDbEntity
  8
営業図
  6
CONTINUOUS
 62
     7
100
AcDbLine
 10
857.111755
 20
308.869965
 30
0.0
 11
859.111755
 21
310.869965
 31
0.0
  0
LINE
  5
101
330
1F
100
AcDbEntity
  8
営業図
  6
CONTINUOUS
 62
     7
100
AcDbLine
 10
857.111755
 20
523.869995
 30
0.0
 11
857.111755
 21
308.869965
 31
0.0
  0
ARC
  5
102
330
1F
100
AcDbEntity
  8
営業図
  6
CONTINUOUS
 62
     7
100
AcDbCircle
 10
419.111725
 20
538.536621
 30
0.0
 40
14.833333
100
AcDbArc
 50
64.01078757623995
 51
115.9892322716
  0
ARC
  5
103
330
1F
100
AcDbEntity
  8
営業図
  6
CONTINUOUS
 62
     7
100
AcDbCircle
 10
419.111725
 20
519.536377
 30
0.0
 40
14.833605
100
AcDbArc
 50
64.01130323824995
 51
115.9887166096
  0
ARC
  5
104
330
1F
100
AcDbEntity
  8
営業図
  6
CONTINUOUS
 62
     7
100
AcDbCircle
 10
419.111725
 20
541.203369
 30
0.0
 40
14.833333
100
AcDbArc
 50
244.0108074241001
 51
295.9892521194002
  0
LINE
  5
105
330
1F
100
AcDbEntity
  8
営業図
  6
CONTINUOUS
 62
     7
100
AcDbLine
 10
412.611725
 20
527.869995
 30
0.0
 11
412.611725
 21
532.870056
 31
0.0
  0
LINE
  5
106
330
1F
100
AcDbEntity
  8
営業図
  6
CONTINUOUS
 62
     7
100
AcDbLine
 10
425.611725
 20
527.869934
 30
0.0
 11
425.611725
 21
532.870117
 31
0.0
  0
LINE
  5
107
330
1F
100
AcDbEntity
  8
営業図
  6
CONTINUOUS
 62
     7
100
AcDbLine
 10
412.611725
 20
544.869995
 30
0.0
 11
419.111725
 21
543.369995
 31
0.0
  0
LINE
  5
108
330
1F
100
AcDbEntity
  8
営業図
  6
CONTINUOUS
 62
     7
100
AcDbLine
 10
419.111725
 20
543.369995
 30
0.0
 11
425.611725
 21
544.869995
 31
0.0
  0
LINE
  5
109
330
1F
100
AcDbEntity
  8
営業図
  6
CONTINUOUS
 62
     7
100
AcDbLine
 10
412.611725
 20
551.869995
 30
0.0
 11
412.611725
 21
544.869995
 31
0.0
  0
LINE
  5
10A
330
1F
100
AcDbEntity
  8
営業図
  6
CONTINUOUS
 62
     7
100
AcDbLine
 10
425.611725
 20
544.869995
 30
0.0
 11
425.611725
 21
551.869995
 31
0.0
  0
ARC
  5
10B
330
1F
100
AcDbEntity
  8
営業図
  6
CONTINUOUS
 62
     7
100
AcDbCircle
 10
409.611725
 20
549.619995
 30
0.0
 40
3.75
100
AcDbArc
 50
36.86989141245
 51
143.1300711396
  0
ARC
  5
10C
330
1F
100
AcDbEntity
  8
営業図
  6
CONTINUOUS
 62
     7
100
AcDbCircle
 10
428.611725
 20
549.619995
 30
0.0
 40
3.75
100
AcDbArc
 50
36.86989141245
 51
143.1300711396
  0
ARC
  5
10D
330
1F
100
AcDbEntity
  8
営業図
  6
CONTINUOUS
 62
     7
100
AcDbCircle
 10
409.611725
 20
530.619873
 30
0.0
 40
3.750046
100
AcDbArc
 50
36.87080814491997
 51
143.1291544071
  0
ARC
  5
10E
330
1F
100
AcDbEntity
  8
営業図
  6
CONTINUOUS
 62
     7
100
AcDbCircle
 10
428.611725
 20
530.619934
 30
0.0
 40
3.750046
100
AcDbArc
 50
36.87080814491997
 51
143.1291544071
  0
ARC
  5
10F
330
1F
100
AcDbEntity
  8
営業図
  6
CONTINUOUS
 62
     7
100
AcDbCircle
 10
409.611725
 20
530.119995
 30
0.0
 40
3.750023
100
AcDbArc
 50
216.8700831476001
 51
323.1293461423001
  0
ARC
  5
110
330
1F
100
AcDbEntity
  8
営業図
  6
CONTINUOUS
 62
     7
100
AcDbCircle
 10
428.611725
 20
530.120056
 30
0.0
 40
3.750046
100
AcDbArc
 50
216.8708279928
 51
323.1291742550001
  0
LINE
  5
111
330
1F
100
AcDbEntity
  8
営業図
  6
CONTINUOUS
 62
     7
100
AcDbLine
 10
406.611725
 20
532.870056
 30
0.0
 11
406.611725
 21
527.869995
 31
0.0
  0
LINE
  5
112
330
1F
100
AcDbEntity
  8
営業図
  6
CONTINUOUS
 62
     7
100
AcDbLine
 10
431.611725
 20
532.870056
 30
0.0
 11
431.611725
 21
527.869995
 31
0.0
  0
LINE
  5
113
330
1F
100
AcDbEntity
  8
営業図
  6
CONTINUOUS
 62
     7
100
AcDbLine
 10
406.611725
 20
551.869995
 30
0.0
 11
406.611725
 21
544.869995
 31
0.0
  0
LINE
  5
114
330
1F
100
AcDbEntity
  8
営業図
  6
CONTINUOUS
 62
     7
100
AcDbLine
 10
431.611725
 20
544.869995
 30
0.0
 11
431.611725
 21
551.869995
 31
0.0
  0
LINE
  5
115
330
1F
100
AcDbEntity
  8
営業図
  6
CONTINUOUS
 62
     7
100
AcDbLine
 10
406.611725
 20
544.869995
 30
0.0
 11
409.611725
 21
543.369995
 31
0.0
  0
LINE
  5
116
330
1F
100
AcDbEntity
  8
営業図
  6
CONTINUOUS
 62
     7
100
AcDbLine
 10
409.611725
 20
543.369995
 30
0.0
 11
412.611725
 21
544.869995
 31
0.0
  0
LINE
  5
117
330
1F
100
AcDbEntity
  8
営業図
  6
CONTINUOUS
 62
     7
100
AcDbLine
 10
425.611725
 20
544.869995
 30
0.0
 11
428.611725
 21
543.369995
 31
0.0
  0
LINE
  5
118
330
1F
100
AcDbEntity
  8
営業図
  6
CONTINUOUS
 62
     7
100
AcDbLine
 10
428.611725
 20
543.369995
 30
0.0
 11
431.611725
 21
544.869995
 31
0.0
  0
LINE
  5
119
330
1F
100
AcDbEntity
  8
営業図
  6
CONTINUOUS
 62
     7
100
AcDbLine
 10
409.611725
 20
534.369995
 30
0.0
 11
428.611725
 21
534.369995
 31
0.0
  0
LINE
  5
11A
330
1F
100
AcDbEntity
  8
営業図
  6
CONTINUOUS
 62
     7
100
AcDbLine
 10
428.611725
 20
526.369995
 30
0.0
 11
409.611725
 21
526.369995
 31
0.0
  0
LINE
  5
11B
330
1F
100
AcDbEntity
  8
営業図
  6
CONTINUOUS
 62
     7
100
AcDbLine
 10
409.611725
 20
553.369995
 30
0.0
 11
428.611725
 21
553.369995
 31
0.0
  0
LINE
  5
11C
330
1F
100
AcDbEntity
  8
営業図
  6
CONTINUOUS
 62
     7
100
AcDbLine
 10
428.611725
 20
538.870056
 30
0.0
 11
409.611725
 21
538.869995
 31
0.0
  0
LINE
  5
11D
330
1F
100
AcDbEntity
  8
営業図
  6
CONTINUOUS
 62
     7
100
AcDbLine
 10
412.223907
 20
538.869995
 30
0.0
 11
412.223907
 21
534.369568
 31
0.0
  0
LINE
  5
11E
330
1F
100
AcDbEntity
  8
営業図
  6
CONTINUOUS
 62
     7
100
AcDbLine
 10
426.223907
 20
534.369629
 30
0.0
 11
426.223907
 21
538.869995
 31
0.0
  0
LINE
  5
11F
330
1F
100
AcDbEntity
  8
営業図
  6
CONTINUOUS
 62
     7
100
AcDbLine
 10
409.611725
 20
534.369995
 30
0.0
 11
409.611725
 21
538.869995
 31
0.0
  0
LINE
  5
120
330
1F
100
AcDbEntity
  8
営業図
  6
CONTINUOUS
 62
     7
100
AcDbLine
 10
428.611725
 20
534.369995
 30
0.0
 11
428.611725
 21
538.869995
 31
0.0
  0
LINE
  5
121
330
1F
100
AcDbEntity
  8
営業図
  6
CONTINUOUS
 62
     7
100
AcDbLine
 10
408.111725
 20
544.119995
 30
0.0
 11
409.611725
 21
538.869995
 31
0.0
  0
LINE
  5
122
330
1F
100
AcDbEntity
  8
営業図
  6
CONTINUOUS
 62
     7
100
AcDbLine
 10
430.111725
 20
544.119995
 30
0.0
 11
428.611725
 21
538.869995
 31
0.0
  0
LINE
  5
123
330
1F
100
AcDbEntity
  8
営業図
  6
CONTINUOUS
 62
     7
100
AcDbLine
 10
419.111725
 20
538.870483
 30
0.0
 11
419.111725
 21
534.369995
 31
0.0
  0
LINE
  5
124
330
1F
100
AcDbEntity
  8
営業図
  6
CONTINUOUS
 62
     7
100
AcDbLine
 10
411.111725
 20
526.369995
 30
0.0
 11
411.111725
 21
523.869995
 31
0.0
  0
LINE
  5
125
330
1F
100
AcDbEntity
  8
営業図
  6
CONTINUOUS
 62
     7
100
AcDbLine
 10
427.111725
 20
526.369995
 30
0.0
 11
427.111725
 21
523.869995
 31
0.0
  0
ARC
  5
126
330
1F
100
AcDbEntity
  8
営業図
  6
CONTINUOUS
 62
     7
100
AcDbCircle
 10
796.111755
 20
538.536621
 30
0.0
 40
14.833333
100
AcDbArc
 50
64.01078757623995
 51
115.9892322716
  0
ARC
  5
127
330
1F
100
AcDbEntity
  8
営業図
  6
CONTINUOUS
 62
     7
100
AcDbCircle
 10
796.111755
 20
519.536377
 30
0.0
 40
14.833605
100
AcDbArc
 50
64.01130323824995
 51
115.9887166096
  0
ARC
  5
128
330
1F
100
AcDbEntity
  8
営業図
  6
CONTINUOUS
 62
     7
100
AcDbCircle
 10
796.111755
 20
541.203369
 30
0.0
 40
14.833333
100
AcDbArc
 50
244.0108074241001
 51
295.9892521194002
  0
LINE
  5
129
330
1F
100
AcDbEntity
  8
営業図
  6
CONTINUOUS
 62
     7
100
AcDbLine
 10
789.611755
 20
527.869995
 30
0.0
 11
789.611755
 21
532.870056
 31
0.0
  0
LINE
  5
12A
330
1F
100
AcDbEntity
  8
営業図
  6
CONTINUOUS
 62
     7
100
AcDbLine
 10
802.611755
 20
527.869934
 30
0.0
 11
802.611755
 21
532.870117
 31
0.0
  0
LINE
  5
12B
330
1F
100
AcDbEntity
  8
営業図
  6
CONTINUOUS
 62
     7
100
AcDbLine
 10
789.611755
 20
544.869995
 30
0.0
 11
796.111755
 21
543.369995
 31
0.0
  0
LINE
  5
12C
330
1F
100
AcDbEntity
  8
営業図
  6
CONTINUOUS
 62
     7
100
AcDbLine
 10
796.111755
 20
543.369995
 30
0.0
 11
802.611755
 21
544.869995
 31
0.0
  0
LINE
  5
12D
330
1F
100
AcDbEntity
  8
営業図
  6
CONTINUOUS
 62
     7
100
AcDbLine
 10
789.611755
 20
551.869995
 30
0.0
 11
789.611755
 21
544.869995
 31
0.0
  0
LINE
  5
12E
330
1F
100
AcDbEntity
  8
営業図
  6
CONTINUOUS
 62
     7
100
AcDbLine
 10
802.611755
 20
544.869995
 30
0.0
 11
802.611755
 21
551.869995
 31
0.0
  0
ARC
  5
12F
330
1F
100
AcDbEntity
  8
営業図
  6
CONTINUOUS
 62
     7
100
AcDbCircle
 10
786.611755
 20
549.619995
 30
0.0
 40
3.75
100
AcDbArc
 50
36.86989141245
 51
143.1300711396
  0
ARC
  5
130
330
1F
100
AcDbEntity
  8
営業図
  6
CONTINUOUS
 62
     7
100
AcDbCircle
 10
805.611755
 20
549.619995
 30
0.0
 40
3.75
100
AcDbArc
 50
36.86989141245
 51
143.1300711396
  0
ARC
  5
131
330
1F
100
AcDbEntity
  8
営業図
  6
CONTINUOUS
 62
     7
100
AcDbCircle
 10
786.611755
 20
530.619873
 30
0.0
 40
3.750046
100
AcDbArc
 50
36.87080814491997
 51
143.1291544071
  0
ARC
  5
132
330
1F
100
AcDbEntity
  8
営業図
  6
CONTINUOUS
 62
     7
100
AcDbCircle
 10
805.611755
 20
530.619934
 30
0.0
 40
3.750046
100
AcDbArc
 50
36.87080814491997
 51
143.1291544071
  0
ARC
  5
133
330
1F
100
AcDbEntity
  8
営業図
  6
CONTINUOUS
 62
     7
100
AcDbCircle
 10
786.611755
 20
530.119995
 30
0.0
 40
3.750023
100
AcDbArc
 50
216.8700831476001
 51
323.1293461423001
  0
ARC
  5
134
330
1F
100
AcDbEntity
  8
営業図
  6
CONTINUOUS
 62
     7
100
AcDbCircle
 10
805.611755
 20
530.120056
 30
0.0
 40
3.750046
100
AcDbArc
 50
216.8708279928
 51
323.1291742550001
  0
LINE
  5
135
330
1F
100
AcDbEntity
  8
営業図
  6
CONTINUOUS
 62
     7
100
AcDbLine
 10
783.611755
 20
532.870056
 30
0.0
 11
783.611755
 21
527.869995
 31
0.0
  0
LINE
  5
136
330
1F
100
AcDbEntity
  8
営業図
  6
CONTINUOUS
 62
     7
100
AcDbLine
 10
808.611755
 20
532.870056
 30
0.0
 11
808.611755
 21
527.869995
 31
0.0
  0
LINE
  5
137
330
1F
100
AcDbEntity
  8
営業図
  6
CONTINUOUS
 62
     7
100
AcDbLine
 10
783.611755
 20
551.869995
 30
0.0
 11
783.611755
 21
544.869995
 31
0.0
  0
LINE
  5
138
330
1F
100
AcDbEntity
  8
営業図
  6
CONTINUOUS
 62
     7
100
AcDbLine
 10
808.611755
 20
544.869995
 30
0.0
 11
808.611755
 21
551.869995
 31
0.0
  0
LINE
  5
139
330
1F
100
AcDbEntity
  8
営業図
  6
CONTINUOUS
 62
     7
100
AcDbLine
 10
783.611755
 20
544.869995
 30
0.0
 11
786.611755
 21
543.369995
 31
0.0
  0
LINE
  5
13A
330
1F
100
AcDbEntity
  8
営業図
  6
CONTINUOUS
 62
     7
100
AcDbLine
 10
786.611755
 20
543.369995
 30
0.0
 11
789.611755
 21
544.869995
 31
0.0
  0
LINE
  5
13B
330
1F
100
AcDbEntity
  8
営業図
  6
CONTINUOUS
 62
     7
100
AcDbLine
 10
802.611755
 20
544.869995
 30
0.0
 11
805.611755
 21
543.369995
 31
0.0
  0
LINE
  5
13C
330
1F
100
AcDbEntity
  8
営業図
  6
CONTINUOUS
 62
     7
100
AcDbLine
 10
805.611755
 20
543.369995
 30
0.0
 11
808.611755
 21
544.869995
 31
0.0
  0
LINE
  5
13D
330
1F
100
AcDbEntity
  8
営業図
  6
CONTINUOUS
 62
     7
100
AcDbLine
 10
786.611755
 20
534.369995
 30
0.0
 11
805.611755
 21
534.369995
 31
0.0
  0
LINE
  5
13E
330
1F
100
AcDbEntity
  8
営業図
  6
CONTINUOUS
 62
     7
100
AcDbLine
 10
805.611755
 20
526.369995
 30
0.0
 11
786.611755
 21
526.369995
 31
0.0
  0
LINE
  5
13F
330
1F
100
AcDbEntity
  8
営業図
  6
CONTINUOUS
 62
     7
100
AcDbLine
 10
786.611755
 20
553.369995
 30
0.0
 11
805.611755
 21
553.369995
 31
0.0
  0
LINE
  5
140
330
1F
100
AcDbEntity
  8
営業図
  6
CONTINUOUS
 62
     7
100
AcDbLine
 10
805.611755
 20
538.870056
 30
0.0
 11
786.611755
 21
538.869995
 31
0.0
  0
LINE
  5
141
330
1F
100
AcDbEntity
  8
営業図
  6
CONTINUOUS
 62
     7
100
AcDbLine
 10
789.223938
 20
538.869995
 30
0.0
 11
789.223938
 21
534.369568
 31
0.0
  0
LINE
  5
142
330
1F
100
AcDbEntity
  8
営業図
  6
CONTINUOUS
 62
     7
100
AcDbLine
 10
803.223938
 20
534.369629
 30
0.0
 11
803.223938
 21
538.869995
 31
0.0
  0
LINE
  5
143
330
1F
100
AcDbEntity
  8
営業図
  6
CONTINUOUS
 62
     7
100
AcDbLine
 10
786.611755
 20
534.369995
 30
0.0
 11
786.611755
 21
538.869995
 31
0.0
  0
LINE
  5
144
330
1F
100
AcDbEntity
  8
営業図
  6
CONTINUOUS
 62
     7
100
AcDbLine
 10
805.611755
 20
534.369995
 30
0.0
 11
805.611755
 21
538.869995
 31
0.0
  0
LINE
  5
145
330
1F
100
AcDbEntity
  8
営業図
  6
CONTINUOUS
 62
     7
100
AcDbLine
 10
785.111755
 20
544.119995
 30
0.0
 11
786.611755
 21
538.869995
 31
0.0
  0
LINE
  5
146
330
1F
100
AcDbEntity
  8
営業図
  6
CONTINUOUS
 62
     7
100
AcDbLine
 10
807.111755
 20
544.119995
 30
0.0
 11
805.611755
 21
538.869995
 31
0.0
  0
LINE
  5
147
330
1F
100
AcDbEntity
  8
営業図
  6
CONTINUOUS
 62
     7
100
AcDbLine
 10
796.111755
 20
538.870483
 30
0.0
 11
796.111755
 21
534.369995
 31
0.0
  0
LINE
  5
148
330
1F
100
AcDbEntity
  8
営業図
  6
CONTINUOUS
 62
     7
100
AcDbLine
 10
788.111755
 20
526.369995
 30
0.0
 11
788.111755
 21
523.869995
 31
0.0
  0
LINE
  5
149
330
1F
100
AcDbEntity
  8
営業図
  6
CONTINUOUS
 62
     7
100
AcDbLine
 10
804.111755
 20
526.369995
 30
0.0
 11
804.111755
 21
523.869995
 31
0.0
  0
CIRCLE
  5
14A
330
1F
100
AcDbEntity
  8
営業図
  6
CONTINUOUS
 62
     7
100
AcDbCircle
 10
739.111755
 20
549.869995
 30
0.0
 40
15.0
  0
LINE
  5
14B
330
1F
100
AcDbEntity
  8
営業図
  6
CONTINUOUS
 62
     7
100
AcDbLine
 10
726.611755
 20
523.869995
 30
0.0
 11
728.111755
 21
532.869995
 31
0.0
  0
LINE
  5
14C
330
1F
100
AcDbEntity
  8
営業図
  6
CONTINUOUS
 62
     7
100
AcDbLine
 10
751.611755
 20
523.869995
 30
0.0
 11
750.111755
 21
532.869995
 31
0.0
  0
LINE
  5
14D
330
1F
100
AcDbEntity
  8
営業図
  6
CONTINUOUS
 62
     7
100
AcDbLine
 10
728.111755
 20
532.869995
 30
0.0
 11
739.111755
 21
534.869995
 31
0.0
  0
LINE
  5
14E
330
1F
100
AcDbEntity
  8
営業図
  6
CONTINUOUS
 62
     7
100
AcDbLine
 10
739.111755
 20
534.869995
 30
0.0
 11
750.111755
 21
532.869995
 31
0.0
  0
LINE
  5
14F
330
1F
100
AcDbEntity
  8
営業図
  6
CONTINUOUS
 62
     7
100
AcDbLine
 10
728.111755
 20
532.869995
 30
0.0
 11
750.111755
 21
532.869995
 31
0.0
  0
ARC
  5
150
330
1F
100
AcDbEntity
  8
営業図
  6
CONTINUOUS
 62
     7
100
AcDbCircle
 10
739.111755
 20
549.869995
 30
0.0
 40
24.999975
100
AcDbArc
 50
306.5069237731001
 51
233.4930608745
  0
ARC
  5
151
330
1F
100
AcDbEntity
  8
営業図
  6
CONTINUOUS
 62
     7
100
AcDbCircle
 10
758.067322
 20
524.705383
 30
0.0
 40
6.509377000000001
100
AcDbArc
 50
128.8424517856
 51
187.3737001923
  0
ARC
  5
152
330
1F
100
AcDbEntity
  8
営業図
  6
CONTINUOUS
 62
     7
100
AcDbCircle
 10
720.136597
 20
524.69751
 30
0.0
 40
6.527846000000005
100
AcDbArc
 50
352.717115866
 51
51.06673665165997
  0
LINE
  5
153
330
1F
100
AcDbEntity
  8
営業図
  6
CONTINUOUS
 62
     1
100
AcDbLine
 10
774.111755
 20
549.869995
 30
0.0
 11
704.111755
 21
549.869995
 31
0.0
  0
LINE
  5
154
330
1F
100
AcDbEntity
  8
営業図
  6
CONTINUOUS
 62
     1
100
AcDbLine
 10
739.111755
 20
584.869995
 30
0.0
 11
739.111755
 21
509.869995
 31
0.0
  0
LINE
  5
155
330
1F
100
AcDbEntity
  8
営業図
  6
CONTINUOUS
 62
     1
100
AcDbLine
 10
419.111725
 20
563.369995
 30
0.0
 11
419.111725
 21
513.869995
 31
0.0
  0
LINE
  5
156
330
1F
100
AcDbEntity
  8
営業図
  6
CONTINUOUS
 62
     1
100
AcDbLine
 10
796.111755
 20
563.369995
 30
0.0
 11
796.111755
 21
513.869995
 31
0.0
  0
CIRCLE
  5
157
330
1F
100
AcDbEntity
  8
営業図
  6
CONTINUOUS
 62
     7
100
AcDbCircle
 10
469.111664
 20
549.869995
 30
0.0
 40
15.0
  0
LINE
  5
158
330
1F
100
AcDbEntity
  8
営業図
  6
CONTINUOUS
 62
     7
100
AcDbLine
 10
456.611664
 20
523.869995
 30
0.0
 11
458.111664
 21
532.869995
 31
0.0
  0
LINE
  5
159
330
1F
100
AcDbEntity
  8
営業図
  6
CONTINUOUS
 62
     7
100
AcDbLine
 10
481.611664
 20
523.869995
 30
0.0
 11
480.111664
 21
532.869995
 31
0.0
  0
LINE
  5
15A
330
1F
100
AcDbEntity
  8
営業図
  6
CONTINUOUS
 62
     7
100
AcDbLine
 10
458.111664
 20
532.869995
 30
0.0
 11
469.111664
 21
534.869995
 31
0.0
  0
LINE
  5
15B
330
1F
100
AcDbEntity
  8
営業図
  6
CONTINUOUS
 62
     7
100
AcDbLine
 10
469.111664
 20
534.869995
 30
0.0
 11
480.111664
 21
532.869995
 31
0.0
  0
LINE
  5
15C
330
1F
100
AcDbEntity
  8
営業図
  6
CONTINUOUS
 62
     7
100
AcDbLine
 10
458.111664
 20
532.869995
 30
0.0
 11
480.111664
 21
532.869995
 31
0.0
  0
ARC
  5
15D
330
1F
100
AcDbEntity
  8
営業図
  6
CONTINUOUS
 62
     7
100
AcDbCircle
 10
469.111664
 20
549.869995
 30
0.0
 40
24.999975
100
AcDbArc
 50
306.5069237731001
 51
233.4930608745
  0
ARC
  5
15E
330
1F
100
AcDbEntity
  8
営業図
  6
CONTINUOUS
 62
     7
100
AcDbCircle
 10
488.06723
 20
524.705383
 30
0.0
 40
6.509377000000001
100
AcDbArc
 50
128.8424517856
 51
187.3737001923
  0
ARC
  5
15F
330
1F
100
AcDbEntity
  8
営業図
  6
CONTINUOUS
 62
     7
100
AcDbCircle
 10
450.136505
 20
524.69751
 30
0.0
 40
6.527846000000005
100
AcDbArc
 50
352.717115866
 51
51.06673665165997
  0
LINE
  5
160
330
1F
100
AcDbEntity
  8
営業図
  6
CONTINUOUS
 62
     1
100
AcDbLine
 10
504.111664
 20
549.869995
 30
0.0
 11
434.111664
 21
549.869995
 31
0.0
  0
LINE
  5
161
330
1F
100
AcDbEntity
  8
営業図
  6
CONTINUOUS
 62
     1
100
AcDbLine
 10
469.111664
 20
584.869995
 30
0.0
 11
469.111664
 21
509.869995
 31
0.0
  0
LINE
  5
162
330
1F
100
AcDbEntity
  8
営業図
  6
CONTINUOUS
 62
     1
100
AcDbLine
 10
859.111755
 20
240.869965
 30
0.0
 11
859.111755
 21
237.869965
 31
0.0
  0
CIRCLE
  5
163
330
1F
100
AcDbEntity
  8
営業図
  6
CONTINUOUS
 62
     1
100
AcDbCircle
 10
859.111755
 20
240.869965
 30
0.0
 40
0.7500000000000001
  0
CIRCLE
  5
164
330
1F
100
AcDbEntity
  8
営業図
  6
CONTINUOUS
 62
     1
100
AcDbCircle
 10
859.111755
 20
240.869965
 30
0.0
 40
1.5
  0
LINE
  5
165
330
1F
100
AcDbEntity
  8
営業図
  6
CONTINUOUS
 62
     1
100
AcDbLine
 10
859.111755
 20
307.869965
 30
0.0
 11
859.111755
 21
240.869949
 31
0.0
  0
TEXT
  5
166
330
1F
100
AcDbEntity
  8
営業図
  6
CONTINUOUS
 62
     1
100
AcDbText
 10
801.100464
 20
627.43746
 30
0.0
 40
7.795275999999999
  1
Ｍ１２　アイボルト
 41
0.902307560833472
  7
EXCADSTD
 72
     5
 11
889.500464
 21
627.43746
 31
0.0
100
AcDbText
  0
TEXT
  5
167
330
1F
100
AcDbEntity
  8
営業図
  6
CONTINUOUS
 62
     1
100
AcDbText
 10
837.311768
 20
599.0098479999999
 30
0.0
 40
7.795275999999999
  1
ＰＴ３／８（加圧用）
 41
0.9513890292434792
  7
EXCADSTD
 72
     5
 11
935.711768
 21
599.0098479999999
 31
0.0
100
AcDbText
  0
LINE
  5
168
330
1F
100
AcDbEntity
  8
営業図
  6
CONTINUOUS
 62
     7
100
AcDbLine
 10
269.111755
 20
333.369995
 30
0.0
 11
269.111755
 21
499.369995
 31
0.0
  0
LINE
  5
169
330
1F
100
AcDbEntity
  8
営業図
  6
CONTINUOUS
 62
     7
100
AcDbLine
 10
314.111755
 20
333.369995
 30
0.0
 11
314.111755
 21
499.369995
 31
0.0
  0
LINE
  5
16A
330
1F
100
AcDbEntity
  8
営業図
  6
CONTINUOUS
 62
     7
100
AcDbLine
 10
271.111755
 20
501.369995
 30
0.0
 11
312.111755
 21
501.369995
 31
0.0
  0
LINE
  5
16B
330
1F
100
AcDbEntity
  8
営業図
  6
CONTINUOUS
 62
     7
100
AcDbLine
 10
269.111755
 20
499.369995
 30
0.0
 11
271.111755
 21
501.369995
 31
0.0
  0
LINE
  5
16C
330
1F
100
AcDbEntity
  8
営業図
  6
CONTINUOUS
 62
     7
100
AcDbLine
 10
314.111755
 20
499.369995
 30
0.0
 11
312.111755
 21
501.369995
 31
0.0
  0
LINE
  5
16D
330
1F
100
AcDbEntity
  8
営業図
  6
CONTINUOUS
 62
     7
100
AcDbLine
 10
269.111755
 20
333.369995
 30
0.0
 11
271.111755
 21
331.369995
 31
0.0
  0
LINE
  5
16E
330
1F
100
AcDbEntity
  8
営業図
  6
CONTINUOUS
 62
     7
100
AcDbLine
 10
271.111755
 20
331.369995
 30
0.0
 11
312.111755
 21
331.369995
 31
0.0
  0
LINE
  5
16F
330
1F
100
AcDbEntity
  8
営業図
  6
CONTINUOUS
 62
     7
100
AcDbLine
 10
314.111755
 20
333.369995
 30
0.0
 11
312.111755
 21
331.369995
 31
0.0
  0
LINE
  5
170
330
1F
100
AcDbEntity
  8
営業図
  6
CONTINUOUS
 62
     7
100
AcDbLine
 10
271.111755
 20
501.369995
 30
0.0
 11
271.111755
 21
331.369995
 31
0.0
  0
LINE
  5
171
330
1F
100
AcDbEntity
  8
営業図
  6
CONTINUOUS
 62
     7
100
AcDbLine
 10
312.111755
 20
331.369995
 30
0.0
 11
312.111755
 21
501.369995
 31
0.0
  0
LINE
  5
172
330
1F
100
AcDbEntity
  8
営業図
  6
CONTINUOUS
 62
     1
100
AcDbLine
 10
269.111755
 20
240.869965
 30
0.0
 11
269.111755
 21
237.869965
 31
0.0
  0
CIRCLE
  5
173
330
1F
100
AcDbEntity
  8
営業図
  6
CONTINUOUS
 62
     1
100
AcDbCircle
 10
269.111755
 20
240.869965
 30
0.0
 40
0.7500000000000001
  0
CIRCLE
  5
174
330
1F
100
AcDbEntity
  8
営業図
  6
CONTINUOUS
 62
     1
100
AcDbCircle
 10
269.111755
 20
240.869965
 30
0.0
 40
1.5
  0
LINE
  5
175
330
1F
100
AcDbEntity
  8
営業図
  6
CONTINUOUS
 62
     1
100
AcDbLine
 10
269.111755
 20
330.369995
 30
0.0
 11
269.111755
 21
240.869949
 31
0.0
  0
TEXT
  5
176
330
1F
100
AcDbEntity
  8
営業図
  6
CONTINUOUS
 62
     1
100
AcDbText
 10
536.111755
 20
243.208548
 30
0.0
 40
7.795275999999999
  1
５８０～８８０
 41
0.997334052473319
  7
EXCADSTD
 72
     5
 11
604.511755
 21
243.208548
 31
0.0
100
AcDbText
  0
LINE
  5
177
330
1F
100
AcDbEntity
  8
営業図
  6
CONTINUOUS
 62
     7
100
AcDbLine
 10
314.111755
 20
353.869995
 30
0.0
 11
329.111786
 21
353.869995
 31
0.0
  0
LINE
  5
178
330
1F
100
AcDbEntity
  8
営業図
  6
CONTINUOUS
 62
     7
100
AcDbLine
 10
314.111755
 20
478.869995
 30
0.0
 11
329.111786
 21
478.869995
 31
0.0
  0
LINE
  5
179
330
1F
100
AcDbEntity
  8
営業図
  6
CONTINUOUS
 62
     1
100
AcDbLine
 10
859.111755
 20
240.869949
 30
0.0
 11
269.111755
 21
240.869949
 31
0.0
  0
LINE
  5
17A
330
1F
100
AcDbEntity
  8
営業図
  6
EXLTYPE2
 62
     1
100
AcDbLine
 10
874.111755
 20
416.369995
 30
0.0
 11
254.11174
 21
416.369995
 31
0.0
  0
TEXT
  5
17B
330
1F
100
AcDbEntity
  8
営業図
  6
CONTINUOUS
 62
     6
100
AcDbText
 10
798.5000000000001
 20
22.338583
 30
0.0
 40
7.795275999999999
  1
オイルジャッキ　ＤＰ－１０Ｊ
 41
0.9143710409327966
  7
EXCADSTD
 72
     5
 11
936.9000000000001
 21
22.338583
 31
0.0
100
AcDbText
  0
TEXT
  5
17C
330
1F
100
AcDbEntity
  8
営業図
  6
CONTINUOUS
 62
     1
100
AcDbText
 10
283.683136
 20
599.0098479999999
 30
0.0
 40
7.795275999999999
  1
ＰＴ３／８（戻し用）
 41
0.981267851368352
  7
EXCADSTD
 72
     5
 11
382.083136
 21
599.0098479999999
 31
0.0
100
AcDbText
  0
LINE
  5
17D
330
1F
100
AcDbEntity
  8
営業図
  6
CONTINUOUS
 62
    54
100
AcDbLine
 10
560.7070707065109
 20
34.00176000493407
 30
0.0
 11
560.7330884793217
 21
34.02777777774494
 31
0.0
  0
LINE
  5
17E
330
1F
100
AcDbEntity
  8
営業図
  6
CONTINUOUS
 62
    54
100
AcDbLine
 10
560.7070707065099
 20
33.50178551318563
 30
0.0
 11
561.2330629710701
 21
34.02777777774584
 31
0.0
  0
LINE
  5
17F
330
1F
100
AcDbEntity
  8
営業図
  6
CONTINUOUS
 62
    54
100
AcDbLine
 10
560.7070707065112
 20
33.00181102143939
 30
0.0
 11
561.7330374628164
 21
34.02777777774448
 31
0.0
  0
LINE
  5
180
330
1F
100
AcDbEntity
  8
営業図
  6
CONTINUOUS
 62
    54
100
AcDbLine
 10
560.7070707065127
 20
32.50183652969327
 30
0.0
 11
562.2330119545626
 21
34.02777777774318
 31
0.0
  0
LINE
  5
181
330
1F
100
AcDbEntity
  8
営業図
  6
CONTINUOUS
 62
    54
100
AcDbLine
 10
560.7070707065095
 20
32.00186203794252
 30
0.0
 11
562.7329864463132
 21
34.02777777774634
 31
0.0
  0
LINE
  5
182
330
1F
100
AcDbEntity
  8
営業図
  6
CONTINUOUS
 62
    54
100
AcDbLine
 10
560.7070707065085
 20
31.50188754619407
 30
0.0
 11
563.2329609380594
 21
34.02777777774499
 31
0.0
  0
LINE
  5
183
330
1F
100
AcDbEntity
  8
営業図
  6
CONTINUOUS
 62
    54
100
AcDbLine
 10
560.7070707065099
 20
31.00191305444789
 30
0.0
 11
563.6997085621589
 21
33.99455091009689
 31
0.0
  0
LINE
  5
184
330
1F
100
AcDbEntity
  8
営業図
  6
CONTINUOUS
 62
    54
100
AcDbLine
 10
560.7070707065112
 20
30.50193856270171
 30
0.0
 11
564.0793086724702
 21
33.8741765286607
 31
0.0
  0
LINE
  5
185
330
1F
100
AcDbEntity
  8
営業図
  6
CONTINUOUS
 62
    54
100
AcDbLine
 10
560.7070707065102
 20
30.00196407095327
 30
0.0
 11
562.4747474741852
 21
31.76964083862814
 31
0.0
  0
LINE
  5
186
330
1F
100
AcDbEntity
  8
営業図
  6
CONTINUOUS
 62
    54
100
AcDbLine
 10
560.7070707065093
 20
29.50198957920477
 30
0.0
 11
562.4747474741852
 21
31.26966634688052
 31
0.0
  0
LINE
  5
187
330
1F
100
AcDbEntity
  8
営業図
  6
CONTINUOUS
 62
    54
100
AcDbLine
 10
560.7070707065106
 20
29.00201508745859
 30
0.0
 11
562.4747474741852
 21
30.7696918551331
 31
0.0
  0
LINE
  5
188
330
1F
100
AcDbEntity
  8
営業図
  6
CONTINUOUS
 62
    54
100
AcDbLine
 10
560.7070707065097
 20
28.5020405957101
 30
0.0
 11
562.4747474741852
 21
30.26971736338548
 31
0.0
  0
LINE
  5
189
330
1F
100
AcDbEntity
  8
営業図
  6
CONTINUOUS
 62
    54
100
AcDbLine
 10
560.7070707065112
 20
28.00206610396397
 30
0.0
 11
562.4747474741852
 21
29.76974287163802
 31
0.0
  0
LINE
  5
18A
330
1F
100
AcDbEntity
  8
営業図
  6
CONTINUOUS
 62
    54
100
AcDbLine
 10
560.7070707065102
 20
27.50209161221548
 30
0.0
 11
562.4747474741852
 21
29.26976837989043
 31
0.0
  0
LINE
  5
18B
330
1F
100
AcDbEntity
  8
営業図
  6
CONTINUOUS
 62
    54
100
AcDbLine
 10
560.7070707065116
 20
27.0021171204693
 30
0.0
 11
562.4747474741852
 21
28.76979388814294
 31
0.0
  0
LINE
  5
18C
330
1F
100
AcDbEntity
  8
営業図
  6
CONTINUOUS
 62
    54
100
AcDbLine
 10
560.7070707065106
 20
26.5021426287208
 30
0.0
 11
562.4747474741852
 21
28.26981939639531
 31
0.0
  0
LINE
  5
18D
330
1F
100
AcDbEntity
  8
営業図
  6
CONTINUOUS
 62
    54
100
AcDbLine
 10
560.7070707065097
 20
26.00216813697241
 30
0.0
 11
562.4747474741852
 21
27.76984490464784
 31
0.0
  0
LINE
  5
18E
330
1F
100
AcDbEntity
  8
営業図
  6
CONTINUOUS
 62
    54
100
AcDbLine
 10
560.707070706511
 20
25.50219364522618
 30
0.0
 11
562.4747474741852
 21
27.26987041290027
 31
0.0
  0
LINE
  5
18F
330
1F
100
AcDbEntity
  8
営業図
  6
CONTINUOUS
 62
    54
100
AcDbLine
 10
560.7070707065124
 20
25.00221915348
 30
0.0
 11
562.4747474741852
 21
26.7698959211528
 31
0.0
  0
LINE
  5
190
330
1F
100
AcDbEntity
  8
営業図
  6
CONTINUOUS
 62
    54
100
AcDbLine
 10
560.7070707065114
 20
24.50224466173156
 30
0.0
 11
562.4747474741852
 21
26.26992142940527
 31
0.0
  0
LINE
  5
191
330
1F
100
AcDbEntity
  8
営業図
  6
CONTINUOUS
 62
    54
100
AcDbLine
 10
560.7070707065129
 20
24.00227016998538
 30
0.0
 11
562.4747474741852
 21
25.76994693765769
 31
0.0
  0
LINE
  5
192
330
1F
100
AcDbEntity
  8
営業図
  6
CONTINUOUS
 62
    54
100
AcDbLine
 10
560.7070707065097
 20
23.50229567823462
 30
0.0
 11
562.4747474741852
 21
25.26997244591011
 31
0.0
  0
LINE
  5
193
330
1F
100
AcDbEntity
  8
営業図
  6
CONTINUOUS
 62
    54
100
AcDbLine
 10
560.707070706511
 20
23.00232118648844
 30
0.0
 11
562.4747474741852
 21
24.76999795416262
 31
0.0
  0
LINE
  5
194
330
1F
100
AcDbEntity
  8
営業図
  6
CONTINUOUS
 62
    54
100
AcDbLine
 10
560.7070707065101
 20
22.50234669473995
 30
0.0
 11
562.4747474741852
 21
24.27002346241508
 31
0.0
  0
LINE
  5
195
330
1F
100
AcDbEntity
  8
営業図
  6
CONTINUOUS
 62
    54
100
AcDbLine
 10
560.7070707065114
 20
22.00237220299382
 30
0.0
 11
562.4747474741852
 21
23.77004897066754
 31
0.0
  0
LINE
  5
196
330
1F
100
AcDbEntity
  8
営業図
  6
CONTINUOUS
 62
    54
100
AcDbLine
 10
560.7070707065127
 20
21.50239771124759
 30
0.0
 11
562.4747474741852
 21
23.27007447892004
 31
0.0
  0
LINE
  5
197
330
1F
100
AcDbEntity
  8
営業図
  6
CONTINUOUS
 62
    54
100
AcDbLine
 10
560.7070707065095
 20
21.00242321949688
 30
0.0
 11
562.4747474741852
 21
22.77009998717249
 31
0.0
  0
LINE
  5
198
330
1F
100
AcDbEntity
  8
営業図
  6
CONTINUOUS
 62
    54
100
AcDbLine
 10
560.7070707065109
 20
20.50244872775065
 30
0.0
 11
562.4747474741852
 21
22.27012549542489
 31
0.0
  0
LINE
  5
199
330
1F
100
AcDbEntity
  8
営業図
  6
CONTINUOUS
 62
    54
100
AcDbLine
 10
560.7070707065122
 20
20.00247423600452
 30
0.0
 11
562.4747474741852
 21
21.77015100367741
 31
0.0
  0
LINE
  5
19A
330
1F
100
AcDbEntity
  8
営業図
  6
CONTINUOUS
 62
    54
100
AcDbLine
 10
560.7070707065113
 20
19.50249974425608
 30
0.0
 11
562.4747474741852
 21
21.27017651192991
 31
0.0
  0
LINE
  5
19B
330
1F
100
AcDbEntity
  8
営業図
  6
CONTINUOUS
 62
    54
100
AcDbLine
 10
560.7070707065081
 20
19.00252525250533
 30
0.0
 11
562.4747474741852
 21
20.77020202018237
 31
0.0
  0
LINE
  5
19C
330
1F
100
AcDbEntity
  8
営業図
  6
CONTINUOUS
 62
    54
100
AcDbLine
 10
561.2070451982567
 20
19.00252525250628
 30
0.0
 11
565.1262626256955
 21
22.92174267994514
 31
0.0
  0
LINE
  5
19D
330
1F
100
AcDbEntity
  8
営業図
  6
CONTINUOUS
 62
    54
100
AcDbLine
 10
561.7070196900029
 20
19.00252525250487
 30
0.0
 11
565.1262626256968
 21
22.42176818819891
 31
0.0
  0
LINE
  5
19E
330
1F
100
AcDbEntity
  8
営業図
  6
CONTINUOUS
 62
    54
100
AcDbLine
 10
562.2069941817513
 20
19.00252525250583
 30
0.0
 11
565.1262626256981
 21
21.92179369645277
 31
0.0
  0
LINE
  5
19F
330
1F
100
AcDbEntity
  8
営業図
  6
CONTINUOUS
 62
    54
100
AcDbLine
 10
562.7069686734974
 20
19.00252525250447
 30
0.0
 11
565.1262626256972
 21
21.42181920470428
 31
0.0
  0
LINE
  5
1A0
330
1F
100
AcDbEntity
  8
営業図
  6
CONTINUOUS
 62
    54
100
AcDbLine
 10
563.2069431652437
 20
19.00252525250312
 30
0.0
 11
565.1262626256985
 21
20.9218447129581
 31
0.0
  0
LINE
  5
1A1
330
1F
100
AcDbEntity
  8
営業図
  6
CONTINUOUS
 62
    54
100
AcDbLine
 10
563.751032094322
 20
19.04663968983395
 30
0.0
 11
565.08214818837
 21
20.37775578388199
 31
0.0
  0
LINE
  5
1A2
330
1F
100
AcDbEntity
  8
営業図
  6
CONTINUOUS
 62
    54
100
AcDbLine
 10
561.2070451982576
 20
19.00252525250618
 30
0.0
 11
560.707070706508
 21
19.50249974425558
 31
0.0
  0
LINE
  5
1A3
330
1F
100
AcDbEntity
  8
営業図
  6
CONTINUOUS
 62
    54
100
AcDbLine
 10
561.7070196900061
 20
19.00252525250533
 30
0.0
 11
560.7070707065095
 21
20.00247423600181
 31
0.0
  0
LINE
  5
1A4
330
1F
100
AcDbEntity
  8
営業図
  6
CONTINUOUS
 62
    54
100
AcDbLine
 10
562.2069941817522
 20
19.00252525250663
 30
0.0
 11
560.7070707065109
 21
20.50244872774794
 31
0.0
  0
LINE
  5
1A5
330
1F
100
AcDbEntity
  8
営業図
  6
CONTINUOUS
 62
    54
100
AcDbLine
 10
562.7069686735006
 20
19.00252525250573
 30
0.0
 11
560.7070707065099
 21
21.00242321949643
 31
0.0
  0
LINE
  5
1A6
330
1F
100
AcDbEntity
  8
営業図
  6
CONTINUOUS
 62
    54
100
AcDbLine
 10
563.2069431652491
 20
19.00252525250477
 30
0.0
 11
560.7070707065112
 21
21.50239771124262
 31
0.0
  0
LINE
  5
1A7
330
1F
100
AcDbEntity
  8
営業図
  6
CONTINUOUS
 62
    54
100
AcDbLine
 10
563.677847551568
 20
19.03159535793339
 30
0.0
 11
560.707070706508
 21
22.00237220299336
 31
0.0
  0
LINE
  5
1A8
330
1F
100
AcDbEntity
  8
営業図
  6
CONTINUOUS
 62
    54
100
AcDbLine
 10
564.0612388057098
 20
19.14817859553907
 30
0.0
 11
560.7070707065095
 21
22.50234669473955
 31
0.0
  0
LINE
  5
1A9
330
1F
100
AcDbEntity
  8
営業図
  6
CONTINUOUS
 62
    54
100
AcDbLine
 10
564.3811083527473
 20
19.32828354024912
 30
0.0
 11
562.8537870260526
 21
20.85560486694387
 31
0.0
  0
LINE
  5
1AA
330
1F
100
AcDbEntity
  8
営業図
  6
CONTINUOUS
 62
    54
100
AcDbLine
 10
564.6481618492189
 20
19.56120453552501
 30
0.0
 11
563.1387048446801
 21
21.07066154006402
 31
0.0
  0
LINE
  5
1AB
330
1F
100
AcDbEntity
  8
営業図
  6
CONTINUOUS
 62
    54
100
AcDbLine
 10
564.8646255460861
 20
19.84471533040535
 30
0.0
 11
563.3184900503531
 21
21.39085082613841
 31
0.0
  0
LINE
  5
1AC
330
1F
100
AcDbEntity
  8
営業図
  6
CONTINUOUS
 62
    54
100
AcDbLine
 10
565.0259945197707
 20
20.18332084846826
 30
0.0
 11
563.3585858580219
 21
21.85072951021716
 31
0.0
  0
LINE
  5
1AD
330
1F
100
AcDbEntity
  8
営業図
  6
CONTINUOUS
 62
    54
100
AcDbLine
 10
565.117260283618
 20
20.59202957636856
 30
0.0
 11
563.3585858580219
 21
22.35070400196454
 31
0.0
  0
LINE
  5
1AE
330
1F
100
AcDbEntity
  8
営業図
  6
CONTINUOUS
 62
    54
100
AcDbLine
 10
565.1262626256967
 20
21.08300172603748
 30
0.0
 11
563.3585858580219
 21
22.85067849371215
 31
0.0
  0
LINE
  5
1AF
330
1F
100
AcDbEntity
  8
営業図
  6
CONTINUOUS
 62
    54
100
AcDbLine
 10
565.126262625698
 20
21.58297621778366
 30
0.0
 11
563.3585858580219
 21
23.35065298545966
 31
0.0
  0
LINE
  5
1B0
330
1F
100
AcDbEntity
  8
営業図
  6
CONTINUOUS
 62
    54
100
AcDbLine
 10
565.1262626256994
 20
22.08295070952989
 30
0.0
 11
563.3585858580219
 21
23.85062747720728
 31
0.0
  0
LINE
  5
1B1
330
1F
100
AcDbEntity
  8
営業図
  6
CONTINUOUS
 62
    54
100
AcDbLine
 10
565.1262626256984
 20
22.58292520127828
 30
0.0
 11
563.3585858580219
 21
24.35060196895466
 31
0.0
  0
LINE
  5
1B2
330
1F
100
AcDbEntity
  8
営業図
  6
CONTINUOUS
 62
    54
100
AcDbLine
 10
565.1262626256976
 20
23.08289969302677
 30
0.0
 11
563.3585858580219
 21
24.85057646070235
 31
0.0
  0
LINE
  5
1B3
330
1F
100
AcDbEntity
  8
営業図
  6
CONTINUOUS
 62
    54
100
AcDbLine
 10
565.1262626256965
 20
23.58287418477521
 30
0.0
 11
563.3585858580219
 21
25.35055095244989
 31
0.0
  0
LINE
  5
1B4
330
1F
100
AcDbEntity
  8
営業図
  6
CONTINUOUS
 62
    54
100
AcDbLine
 10
565.126262625698
 20
24.08284867652144
 30
0.0
 11
563.3585858580219
 21
25.85052544419743
 31
0.0
  0
LINE
  5
1B5
330
1F
100
AcDbEntity
  8
営業図
  6
CONTINUOUS
 62
    54
100
AcDbLine
 10
565.1262626256993
 20
24.58282316826758
 30
0.0
 11
563.3585858580219
 21
26.35049993594484
 31
0.0
  0
LINE
  5
1B6
330
1F
100
AcDbEntity
  8
営業図
  6
CONTINUOUS
 62
    54
100
AcDbLine
 10
565.1262626256984
 20
25.08279766001607
 30
0.0
 11
563.3585858580219
 21
26.85047442769246
 31
0.0
  0
LINE
  5
1B7
330
1F
100
AcDbEntity
  8
営業図
  6
CONTINUOUS
 62
    54
100
AcDbLine
 10
565.1262626256973
 20
25.58277215176451
 30
0.0
 11
563.3585858580219
 21
27.35044891943991
 31
0.0
  0
LINE
  5
1B8
330
1F
100
AcDbEntity
  8
営業図
  6
CONTINUOUS
 62
    54
100
AcDbLine
 10
565.1262626256987
 20
26.08274664351075
 30
0.0
 11
563.3585858580219
 21
27.85042341118757
 31
0.0
  0
LINE
  5
1B9
330
1F
100
AcDbEntity
  8
営業図
  6
CONTINUOUS
 62
    54
100
AcDbLine
 10
565.1262626256979
 20
26.58272113525918
 30
0.0
 11
563.3585858580219
 21
28.35039790293509
 31
0.0
  0
LINE
  5
1BA
330
1F
100
AcDbEntity
  8
営業図
  6
CONTINUOUS
 62
    54
100
AcDbLine
 10
565.1262626256992
 20
27.08269562700537
 30
0.0
 11
563.3585858580219
 21
28.85037239468259
 31
0.0
  0
LINE
  5
1BB
330
1F
100
AcDbEntity
  8
営業図
  6
CONTINUOUS
 62
    54
100
AcDbLine
 10
565.1262626256982
 20
27.58267011875381
 30
0.0
 11
563.3585858580219
 21
29.35034688643015
 31
0.0
  0
LINE
  5
1BC
330
1F
100
AcDbEntity
  8
営業図
  6
CONTINUOUS
 62
    54
100
AcDbLine
 10
565.1262626256973
 20
28.0826446105023
 30
0.0
 11
563.3585858580219
 21
29.8503213781777
 31
0.0
  0
LINE
  5
1BD
330
1F
100
AcDbEntity
  8
営業図
  6
CONTINUOUS
 62
    54
100
AcDbLine
 10
565.1262626256987
 20
28.58261910224843
 30
0.0
 11
563.3585858580219
 21
30.35029586992522
 31
0.0
  0
LINE
  5
1BE
330
1F
100
AcDbEntity
  8
営業図
  6
CONTINUOUS
 62
    54
100
AcDbLine
 10
565.1262626256978
 20
29.08259359399693
 30
0.0
 11
563.3585858580219
 21
30.85027036167278
 31
0.0
  0
LINE
  5
1BF
330
1F
100
AcDbEntity
  8
営業図
  6
CONTINUOUS
 62
    54
100
AcDbLine
 10
565.1262626256992
 20
29.58256808574311
 30
0.0
 11
563.3585858580219
 21
31.35024485342037
 31
0.0
  0
LINE
  5
1C0
330
1F
100
AcDbEntity
  8
営業図
  6
CONTINUOUS
 62
    54
100
AcDbLine
 10
565.1262626256981
 20
30.08254257749155
 30
0.0
 11
561.1810274254439
 21
34.02777777774579
 31
0.0
  0
LINE
  5
1C1
330
1F
100
AcDbEntity
  8
営業図
  6
CONTINUOUS
 62
    54
100
AcDbLine
 10
565.1262626256973
 20
30.58251706924004
 30
0.0
 11
561.6810019171924
 21
34.02777777774488
 31
0.0
  0
LINE
  5
1C2
330
1F
100
AcDbEntity
  8
営業図
  6
CONTINUOUS
 62
    54
100
AcDbLine
 10
565.1262626256985
 20
31.08249156098617
 30
0.0
 11
562.1809764089409
 21
34.02777777774394
 31
0.0
  0
LINE
  5
1C3
330
1F
100
AcDbEntity
  8
営業図
  6
CONTINUOUS
 62
    54
100
AcDbLine
 10
565.1262626256978
 20
31.58246605273467
 30
0.0
 11
562.6809509006871
 21
34.02777777774534
 31
0.0
  0
LINE
  5
1C4
330
1F
100
AcDbEntity
  8
営業図
  6
CONTINUOUS
 62
    54
100
AcDbLine
 10
565.1262626256992
 20
32.08244054448085
 30
0.0
 11
563.1809253924355
 21
34.02777777774438
 31
0.0
  0
LINE
  5
1C5
330
1F
100
AcDbEntity
  8
営業図
  6
CONTINUOUS
 62
    54
100
AcDbLine
 10
565.0893838489235
 20
32.61929381300394
 30
0.0
 11
563.7177786609608
 21
33.99089900096657
 31
0.0
  0
LINE
  5
1C6
330
1F
100
AcDbEntity
  8
営業図
  6
CONTINUOUS
 62
    54
100
AcDbLine
 10
562.4747474741852
 20
32.23408323725707
 30
0.0
 11
560.7070707065086
 21
34.00176000493362
 31
0.0
  0
LINE
  5
1C7
330
1F
100
AcDbEntity
  8
営業図
  6
CONTINUOUS
 62
    54
100
AcDbLine
 10
563.1507369119199
 20
31.9456557846153
 30
0.0
 11
564.6606833754179
 21
33.45560224811328
 31
0.0
  0
LINE
  5
1C8
330
1F
100
AcDbEntity
  8
営業図
  6
CONTINUOUS
 62
    54
100
AcDbLine
 10
563.3244787575906
 20
31.61942313853849
 30
0.0
 11
564.8744546643726
 21
33.16939904532052
 31
0.0
  0
LINE
  5
1C9
330
1F
100
AcDbEntity
  8
営業図
  6
CONTINUOUS
 62
    54
100
AcDbLine
 10
562.4747474741852
 20
31.234134253762
 30
0.0
 11
560.7070707065104
 21
33.00181102143669
 31
0.0
  0
LINE
  5
1CA
330
1F
100
AcDbEntity
  8
営業図
  6
CONTINUOUS
 62
    54
100
AcDbLine
 10
563.3585858580219
 20
30.65358125547475
 30
0.0
 11
565.1195065035536
 21
32.41450190100649
 31
0.0
  0
LINE
  5
1CB
330
1F
100
AcDbEntity
  8
営業図
  6
CONTINUOUS
 62
    54
100
AcDbLine
 10
562.4747474741852
 20
30.23418527026692
 30
0.0
 11
560.7070707065101
 21
32.00186203794206
 31
0.0
  0
LINE
  5
1CC
330
1F
100
AcDbEntity
  8
営業図
  6
CONTINUOUS
 62
    54
100
AcDbLine
 10
563.3585858580219
 20
30.15360676372721
 30
0.0
 11
565.1262626256985
 21
31.92128353140373
 31
0.0
  0
LINE
  5
1CD
330
1F
100
AcDbEntity
  8
営業図
  6
CONTINUOUS
 62
    54
100
AcDbLine
 10
563.3585858580219
 20
29.65363227197966
 30
0.0
 11
565.1262626256976
 21
31.42130903965529
 31
0.0
  0
LINE
  5
1CE
330
1F
100
AcDbEntity
  8
営業図
  6
CONTINUOUS
 62
    54
100
AcDbLine
 10
562.4747474741852
 20
29.23423628677186
 30
0.0
 11
560.7070707065074
 21
31.0019130544497
 31
0.0
  0
LINE
  5
1CF
330
1F
100
AcDbEntity
  8
営業図
  6
CONTINUOUS
 62
    54
100
AcDbLine
 10
562.4747474741852
 20
28.73426179502438
 30
0.0
 11
560.7070707065083
 21
30.50193856270126
 31
0.0
  0
LINE
  5
1D0
330
1F
100
AcDbEntity
  8
営業図
  6
CONTINUOUS
 62
    54
100
AcDbLine
 10
562.4747474741852
 20
28.23428730327676
 30
0.0
 11
560.7070707065114
 21
30.0019640709505
 31
0.0
  0
LINE
  5
1D1
330
1F
100
AcDbEntity
  8
営業図
  6
CONTINUOUS
 62
    54
100
AcDbLine
 10
562.4747474741852
 20
27.73431281152921
 30
0.0
 11
560.7070707065101
 21
29.50198957920432
 31
0.0
  0
LINE
  5
1D2
330
1F
100
AcDbEntity
  8
営業図
  6
CONTINUOUS
 62
    54
100
AcDbLine
 10
563.3585858580219
 20
27.153759813242
 30
0.0
 11
565.1262626256974
 21
28.9214365809175
 31
0.0
  0
LINE
  5
1D3
330
1F
100
AcDbEntity
  8
営業図
  6
CONTINUOUS
 62
    54
100
AcDbLine
 10
562.4747474741852
 20
27.23433831978168
 30
0.0
 11
560.7070707065087
 21
29.00201508745809
 31
0.0
  0
LINE
  5
1D4
330
1F
100
AcDbEntity
  8
営業図
  6
CONTINUOUS
 62
    54
100
AcDbLine
 10
562.4747474741852
 20
26.73436382803421
 30
0.0
 11
560.7070707065097
 21
28.5020405957097
 31
0.0
  0
LINE
  5
1D5
330
1F
100
AcDbEntity
  8
営業図
  6
CONTINUOUS
 62
    54
100
AcDbLine
 10
563.3585858580219
 20
26.15381082974695
 30
0.0
 11
565.1262626256955
 21
27.92148759742057
 31
0.0
  0
LINE
  5
1D6
330
1F
100
AcDbEntity
  8
営業図
  6
CONTINUOUS
 62
    54
100
AcDbLine
 10
562.4747474741852
 20
26.23438933628665
 30
0.0
 11
560.7070707065106
 21
28.00206610396121
 31
0.0
  0
LINE
  5
1D7
330
1F
100
AcDbEntity
  8
営業図
  6
CONTINUOUS
 62
    54
100
AcDbLine
 10
563.3585858580219
 20
25.65383633799942
 30
0.0
 11
565.126262625697
 21
27.42151310567444
 31
0.0
  0
LINE
  5
1D8
330
1F
100
AcDbEntity
  8
営業図
  6
CONTINUOUS
 62
    54
100
AcDbLine
 10
563.3585858580219
 20
25.15386184625185
 30
0.0
 11
565.1262626256984
 21
26.92153861392821
 31
0.0
  0
LINE
  5
1D9
330
1F
100
AcDbEntity
  8
営業図
  6
CONTINUOUS
 62
    54
100
AcDbLine
 10
562.4747474741852
 20
25.23444035279149
 30
0.0
 11
560.7070707065102
 21
27.00211712046654
 31
0.0
  0
LINE
  5
1DA
330
1F
100
AcDbEntity
  8
営業図
  6
CONTINUOUS
 62
    54
100
AcDbLine
 10
563.3585858580219
 20
24.65388735450436
 30
0.0
 11
565.1262626256973
 21
26.42156412217976
 31
0.0
  0
LINE
  5
1DB
330
1F
100
AcDbEntity
  8
営業図
  6
CONTINUOUS
 62
    54
100
AcDbLine
 10
562.4747474741852
 20
24.73446586104414
 30
0.0
 11
560.7070707065088
 21
26.5021426287204
 31
0.0
  0
LINE
  5
1DC
330
1F
100
AcDbEntity
  8
営業図
  6
CONTINUOUS
 62
    54
100
AcDbLine
 10
563.3585858580219
 20
24.15391286275678
 30
0.0
 11
565.1262626256987
 21
25.92158963043358
 31
0.0
  0
LINE
  5
1DD
330
1F
100
AcDbEntity
  8
営業図
  6
CONTINUOUS
 62
    54
100
AcDbLine
 10
562.4747474741852
 20
23.73451687754896
 30
0.0
 11
560.7070707065106
 21
25.50219364522347
 31
0.0
  0
LINE
  5
1DE
330
1F
100
AcDbEntity
  8
営業図
  6
CONTINUOUS
 62
    54
100
AcDbLine
 10
563.3585858580219
 20
23.65393837100934
 30
0.0
 11
565.1262626256955
 21
25.42161513868287
 31
0.0
  0
LINE
  5
1DF
330
1F
100
AcDbEntity
  8
営業図
  6
CONTINUOUS
 62
    54
100
AcDbLine
 10
562.4747474741852
 20
23.23454238580137
 30
0.0
 11
560.7070707065093
 21
25.00221915347723
 31
0.0
  0
LINE
  5
1E0
330
1F
100
AcDbEntity
  8
営業図
  6
CONTINUOUS
 62
    54
100
AcDbLine
 10
562.4747474741852
 20
22.73456789405396
 30
0.0
 11
560.707070706508
 21
24.50224466173111
 31
0.0
  0
LINE
  5
1E1
330
1F
100
AcDbEntity
  8
営業図
  6
CONTINUOUS
 62
    54
100
AcDbLine
 10
563.3585858580219
 20
22.65398938751424
 30
0.0
 11
565.1262626256981
 21
24.42166615519046
 31
0.0
  0
LINE
  5
1E2
330
1F
100
AcDbEntity
  8
営業図
  6
CONTINUOUS
 62
    54
100
AcDbLine
 10
562.4747474741852
 20
22.23459340230631
 30
0.0
 11
560.7070707065088
 21
24.00227016998261
 31
0.0
  0
LINE
  5
1E3
330
1F
100
AcDbEntity
  8
営業図
  6
CONTINUOUS
 62
    54
100
AcDbLine
 10
563.3585858580219
 20
22.15401489576668
 30
0.0
 11
565.1262626256973
 21
23.92169166344207
 31
0.0
  0
LINE
  5
1E4
330
1F
100
AcDbEntity
  8
営業図
  6
CONTINUOUS
 62
    54
100
AcDbLine
 10
562.4747474741852
 20
21.73461891055882
 30
0.0
 11
560.7070707065099
 21
23.50229567823417
 31
0.0
  0
LINE
  5
1E5
330
1F
100
AcDbEntity
  8
営業図
  6
CONTINUOUS
 62
    54
100
AcDbLine
 10
562.8712687352889
 20
32.16616209973189
 30
0.0
 11
564.3962605446317
 21
33.69115390907463
 31
0.0
  0
LINE
  5
1E6
330
1F
100
AcDbEntity
  8
営業図
  6
CONTINUOUS
 62
    54
100
AcDbLine
 10
562.4747474741852
 20
31.73410874550955
 30
0.0
 11
560.7070707065095
 21
33.50178551318518
 31
0.0
  0
LINE
  5
1E7
330
1F
100
AcDbEntity
  8
営業図
  6
CONTINUOUS
 62
    54
100
AcDbLine
 10
563.3585858580219
 20
31.15355574722235
 30
0.0
 11
565.0326751438605
 21
32.8276450330609
 31
0.0
  0
LINE
  5
1E8
330
1F
100
AcDbEntity
  8
営業図
  6
CONTINUOUS
 62
    54
100
AcDbLine
 10
562.4747474741852
 20
30.73415976201452
 30
0.0
 11
560.7070707065092
 21
32.50183652969056
 31
0.0
  0
LINE
  5
1E9
330
1F
100
AcDbEntity
  8
営業図
  6
CONTINUOUS
 62
    54
100
AcDbLine
 10
562.4747474741852
 20
29.73421077851938
 30
0.0
 11
560.7070707065086
 21
31.50188754619588
 31
0.0
  0
LINE
  5
1EA
330
1F
100
AcDbEntity
  8
営業図
  6
CONTINUOUS
 62
    54
100
AcDbLine
 10
563.3585858580219
 20
29.15365778023212
 30
0.0
 11
565.1262626256989
 21
30.92133454790906
 31
0.0
  0
LINE
  5
1EB
330
1F
100
AcDbEntity
  8
営業図
  6
CONTINUOUS
 62
    54
100
AcDbLine
 10
563.3585858580219
 20
28.6536832884846
 30
0.0
 11
565.126262625698
 21
30.42136005616062
 31
0.0
  0
LINE
  5
1EC
330
1F
100
AcDbEntity
  8
営業図
  6
CONTINUOUS
 62
    54
100
AcDbLine
 10
563.3585858580219
 20
28.15370879673707
 30
0.0
 11
565.126262625697
 21
29.92138556441217
 31
0.0
  0
LINE
  5
1ED
330
1F
100
AcDbEntity
  8
営業図
  6
CONTINUOUS
 62
    54
100
AcDbLine
 10
563.3585858580219
 20
27.65373430498958
 30
0.0
 11
565.1262626256984
 21
29.42141107266599
 31
0.0
  0
LINE
  5
1EE
330
1F
100
AcDbEntity
  8
営業図
  6
CONTINUOUS
 62
    54
100
AcDbLine
 10
563.3585858580219
 20
26.65378532149452
 30
0.0
 11
565.1262626256987
 21
28.42146208917137
 31
0.0
  0
LINE
  5
1EF
330
1F
100
AcDbEntity
  8
営業図
  6
CONTINUOUS
 62
    54
100
AcDbLine
 10
562.4747474741852
 20
25.73441484453917
 30
0.0
 11
560.7070707065093
 21
27.50209161221503
 31
0.0
  0
LINE
  5
1F0
330
1F
100
AcDbEntity
  8
営業図
  6
CONTINUOUS
 62
    54
100
AcDbLine
 10
562.4747474741852
 20
24.23449136929645
 30
0.0
 11
560.7070707065075
 21
26.00216813697417
 31
0.0
  0
LINE
  5
1F1
330
1F
100
AcDbEntity
  8
営業図
  6
CONTINUOUS
 62
    54
100
AcDbLine
 10
563.3585858580219
 20
23.1539638792617
 30
0.0
 11
565.126262625697
 21
24.92164064693664
 31
0.0
  0
LINE
  5
1F2
330
1F
100
AcDbEntity
  8
営業図
  6
CONTINUOUS
 62
    54
100
AcDbLine
 10
563.3585858580219
 20
21.65404040401911
 30
0.0
 11
565.1262626256987
 21
23.42171717169584
 31
0.0
  0
LINE
  5
1F3
330
1F
100
AcDbEntity
  8
営業図
  6
CONTINUOUS
 62
    54
100
AcDbLine
 10
562.4747474741852
 20
21.23464441881129
 30
0.0
 11
560.7070707065085
 21
23.00232118648799
 31
0.0
  0
LINE
  5
1F4
330
1F
100
AcDbEntity
  8
営業図
  6
CONTINUOUS
 62
    54
100
AcDbLine
 10
566.029495045439
 20
32.52123056559481
 30
0.0
 11
567.5166482216823
 21
34.00838374183812
 31
0.0
  0
LINE
  5
1F5
330
1F
100
AcDbEntity
  8
営業図
  6
CONTINUOUS
 62
    54
100
AcDbLine
 10
566.0101010095325
 20
32.00186203794076
 30
0.0
 11
568.0360167493341
 21
34.02777777774232
 31
0.0
  0
LINE
  5
1F6
330
1F
100
AcDbEntity
  8
営業図
  6
CONTINUOUS
 62
    54
100
AcDbLine
 10
566.0101010095339
 20
31.50188754619462
 30
0.0
 11
568.5359912410804
 21
34.02777777774102
 31
0.0
  0
LINE
  5
1F7
330
1F
100
AcDbEntity
  8
営業図
  6
CONTINUOUS
 62
    54
100
AcDbLine
 10
566.010101009533
 20
31.00191305444613
 30
0.0
 11
569.002738865182
 21
33.99455091009509
 31
0.0
  0
LINE
  5
1F8
330
1F
100
AcDbEntity
  8
営業図
  6
CONTINUOUS
 62
    54
100
AcDbLine
 10
566.0101010095367
 20
30.50193856270226
 30
0.0
 11
569.3823389754956
 21
33.87417652866125
 31
0.0
  0
LINE
  5
1F9
330
1F
100
AcDbEntity
  8
営業図
  6
CONTINUOUS
 62
    54
100
AcDbLine
 10
566.0101010095357
 20
30.00196407095377
 30
0.0
 11
567.7777777772094
 21
31.7696408386275
 31
0.0
  0
LINE
  5
1FA
330
1F
100
AcDbEntity
  8
営業図
  6
CONTINUOUS
 62
    54
100
AcDbLine
 10
566.0101010095348
 20
29.50198957920533
 30
0.0
 11
567.7777777772094
 21
31.26966634688
 31
0.0
  0
LINE
  5
1FB
330
1F
100
AcDbEntity
  8
営業図
  6
CONTINUOUS
 62
    54
100
AcDbLine
 10
566.0101010095339
 20
29.00201508745683
 30
0.0
 11
567.7777777772094
 21
30.76969185513246
 31
0.0
  0
LINE
  5
1FC
330
1F
100
AcDbEntity
  8
営業図
  6
CONTINUOUS
 62
    54
100
AcDbLine
 10
566.0101010095351
 20
28.50204059571066
 30
0.0
 11
567.7777777772094
 21
30.26971736338503
 31
0.0
  0
LINE
  5
1FD
330
1F
100
AcDbEntity
  8
営業図
  6
CONTINUOUS
 62
    54
100
AcDbLine
 10
566.0101010095342
 20
28.00206610396216
 30
0.0
 11
567.7777777772094
 21
29.76974287163742
 31
0.0
  0
LINE
  5
1FE
330
1F
100
AcDbEntity
  8
営業図
  6
CONTINUOUS
 62
    54
100
AcDbLine
 10
566.0101010095356
 20
27.50209161221603
 30
0.0
 11
567.7777777772094
 21
29.26976837988992
 31
0.0
  0
LINE
  5
1FF
330
1F
100
AcDbEntity
  8
営業図
  6
CONTINUOUS
 62
    54
100
AcDbLine
 10
566.0101010095368
 20
27.0021171204698
 30
0.0
 11
567.7777777772094
 21
28.76979388814234
 31
0.0
  0
LINE
  5
200
330
1F
100
AcDbEntity
  8
営業図
  6
CONTINUOUS
 62
    54
100
AcDbLine
 10
566.0101010095336
 20
26.5021426287191
 30
0.0
 11
567.7777777772094
 21
28.26981939639489
 31
0.0
  0
LINE
  5
201
330
1F
100
AcDbEntity
  8
営業図
  6
CONTINUOUS
 62
    54
100
AcDbLine
 10
566.0101010095351
 20
26.00216813697291
 30
0.0
 11
567.7777777772094
 21
27.76984490464729
 31
0.0
  0
LINE
  5
202
330
1F
100
AcDbEntity
  8
営業図
  6
CONTINUOUS
 62
    54
100
AcDbLine
 10
566.0101010095342
 20
25.50219364522447
 30
0.0
 11
567.7777777772094
 21
27.26987041289979
 31
0.0
  0
LINE
  5
203
330
1F
100
AcDbEntity
  8
営業図
  6
CONTINUOUS
 62
    54
100
AcDbLine
 10
566.0101010095354
 20
25.00221915347824
 30
0.0
 11
567.7777777772094
 21
26.76989592115224
 31
0.0
  0
LINE
  5
204
330
1F
100
AcDbEntity
  8
営業図
  6
CONTINUOUS
 62
    54
100
AcDbLine
 10
566.0101010095368
 20
24.50224466173206
 30
0.0
 11
567.7777777772094
 21
26.2699214294047
 31
0.0
  0
LINE
  5
205
330
1F
100
AcDbEntity
  8
営業図
  6
CONTINUOUS
 62
    54
100
AcDbLine
 10
566.0101010095336
 20
24.00227016998136
 30
0.0
 11
567.7777777772094
 21
25.76994693765712
 31
0.0
  0
LINE
  5
206
330
1F
100
AcDbEntity
  8
営業図
  6
CONTINUOUS
 62
    54
100
AcDbLine
 10
566.0101010095351
 20
23.50229567823518
 30
0.0
 11
567.7777777772094
 21
25.26997244590959
 31
0.0
  0
LINE
  5
207
330
1F
100
AcDbEntity
  8
営業図
  6
CONTINUOUS
 62
    54
100
AcDbLine
 10
566.0101010095341
 20
23.00232118648673
 30
0.0
 11
567.7777777772094
 21
24.76999795416212
 31
0.0
  0
LINE
  5
208
330
1F
100
AcDbEntity
  8
営業図
  6
CONTINUOUS
 62
    54
100
AcDbLine
 10
566.0101010095354
 20
22.5023466947405
 30
0.0
 11
567.7777777772094
 21
24.27002346241454
 31
0.0
  0
LINE
  5
209
330
1F
100
AcDbEntity
  8
営業図
  6
CONTINUOUS
 62
    54
100
AcDbLine
 10
566.0101010095323
 20
22.0023722029898
 30
0.0
 11
567.7777777772094
 21
23.77004897066703
 31
0.0
  0
LINE
  5
20A
330
1F
100
AcDbEntity
  8
営業図
  6
CONTINUOUS
 62
    54
100
AcDbLine
 10
566.0101010095336
 20
21.50239771124362
 30
0.0
 11
567.9294204699858
 21
23.42171717169577
 31
0.0
  0
LINE
  5
20B
330
1F
100
AcDbEntity
  8
営業図
  6
CONTINUOUS
 62
    54
100
AcDbLine
 10
566.010101009535
 20
21.00242321949743
 30
0.0
 11
568.4293949617332
 21
23.42171717169577
 31
0.0
  0
LINE
  5
20C
330
1F
100
AcDbEntity
  8
営業図
  6
CONTINUOUS
 62
    54
100
AcDbLine
 10
566.0101010095341
 20
20.50244872774894
 30
0.0
 11
570.4292929287222
 21
24.9216406469372
 31
0.0
  0
LINE
  5
20D
330
1F
100
AcDbEntity
  8
営業図
  6
CONTINUOUS
 62
    54
100
AcDbLine
 10
566.0101010095353
 20
20.00247423600276
 30
0.0
 11
570.4292929287236
 21
24.42166615519102
 31
0.0
  0
LINE
  5
20E
330
1F
100
AcDbEntity
  8
営業図
  6
CONTINUOUS
 62
    54
100
AcDbLine
 10
566.0101010095321
 20
19.50249974425201
 30
0.0
 11
567.7777777772097
 21
21.27017651192962
 31
0.0
  0
LINE
  5
20F
330
1F
100
AcDbEntity
  8
営業図
  6
CONTINUOUS
 62
    54
100
AcDbLine
 10
568.1616416693003
 20
21.65404040402014
 30
0.0
 11
570.4292929287227
 21
23.92169166344253
 31
0.0
  0
LINE
  5
210
330
1F
100
AcDbEntity
  8
営業図
  6
CONTINUOUS
 62
    54
100
AcDbLine
 10
566.0101010095312
 20
19.00252525250362
 30
0.0
 11
567.7777777772111
 21
20.77020202018344
 31
0.0
  0
LINE
  5
211
330
1F
100
AcDbEntity
  8
営業図
  6
CONTINUOUS
 62
    54
100
AcDbLine
 10
568.6616161610466
 20
21.65404040401883
 30
0.0
 11
570.4292929287241
 21
23.42171717169639
 31
0.0
  0
LINE
  5
212
330
1F
100
AcDbEntity
  8
営業図
  6
CONTINUOUS
 62
    54
100
AcDbLine
 10
566.5100755012797
 20
19.00252525250447
 30
0.0
 11
567.7777777772125
 21
20.27022752843721
 31
0.0
  0
LINE
  5
213
330
1F
100
AcDbEntity
  8
営業図
  6
CONTINUOUS
 62
    54
100
AcDbLine
 10
568.6616161610477
 20
21.1540659122726
 30
0.0
 11
570.4292929287209
 21
22.92174267994564
 31
0.0
  0
LINE
  5
214
330
1F
100
AcDbEntity
  8
営業図
  6
CONTINUOUS
 62
    54
100
AcDbLine
 10
567.0100499930281
 20
19.00252525250543
 30
0.0
 11
567.7777777772093
 21
19.77025303668651
 31
0.0
  0
LINE
  5
215
330
1F
100
AcDbEntity
  8
営業図
  6
CONTINUOUS
 62
    54
100
AcDbLine
 10
568.6616161610492
 20
20.65409142052642
 30
0.0
 11
570.4292929287221
 21
22.42176818819946
 31
0.0
  0
LINE
  5
216
330
1F
100
AcDbEntity
  8
営業図
  6
CONTINUOUS
 62
    54
100
AcDbLine
 10
567.5100244847742
 20
19.00252525250407
 30
0.0
 11
567.7777777772106
 21
19.27027854494033
 31
0.0
  0
LINE
  5
217
330
1F
100
AcDbEntity
  8
営業図
  6
CONTINUOUS
 62
    54
100
AcDbLine
 10
568.6616161610483
 20
20.15411692877798
 30
0.0
 11
570.4292929287236
 21
21.92179369645327
 31
0.0
  0
LINE
  5
218
330
1F
100
AcDbEntity
  8
営業図
  6
CONTINUOUS
 62
    54
100
AcDbLine
 10
568.6616161610496
 20
19.65414243703179
 30
0.0
 11
570.4292929287226
 21
21.42181920470483
 31
0.0
  0
LINE
  5
219
330
1F
100
AcDbEntity
  8
営業図
  6
CONTINUOUS
 62
    54
100
AcDbLine
 10
568.6616161610509
 20
19.15416794528556
 30
0.0
 11
570.429292928724
 21
20.9218447129586
 31
0.0
  0
LINE
  5
21A
330
1F
100
AcDbEntity
  8
営業図
  6
CONTINUOUS
 62
    54
100
AcDbLine
 10
569.0099479600174
 20
19.00252525250457
 30
0.0
 11
570.4292929287208
 21
20.4218702212079
 31
0.0
  0
LINE
  5
21B
330
1F
100
AcDbEntity
  8
営業図
  6
CONTINUOUS
 62
    54
100
AcDbLine
 10
569.5099224517683
 20
19.00252525250774
 30
0.0
 11
570.4292929287221
 21
19.92189572946167
 31
0.0
  0
LINE
  5
21C
330
1F
100
AcDbEntity
  8
営業図
  6
CONTINUOUS
 62
    54
100
AcDbLine
 10
570.0098969435144
 20
19.00252525250643
 30
0.0
 11
570.4292929287235
 21
19.42192123771554
 31
0.0
  0
LINE
  5
21D
330
1F
100
AcDbEntity
  8
営業図
  6
CONTINUOUS
 62
    54
100
AcDbLine
 10
566.5100755012828
 20
19.00252525250563
 30
0.0
 11
566.0101010095334
 21
19.50249974425503
 31
0.0
  0
LINE
  5
21E
330
1F
100
AcDbEntity
  8
営業図
  6
CONTINUOUS
 62
    54
100
AcDbLine
 10
567.010049993029
 20
19.00252525250703
 30
0.0
 11
566.0101010095325
 21
20.00247423600351
 31
0.0
  0
LINE
  5
21F
330
1F
100
AcDbEntity
  8
営業図
  6
CONTINUOUS
 62
    54
100
AcDbLine
 10
567.5100244847774
 20
19.00252525250608
 30
0.0
 11
566.0101010095316
 21
20.50244872775196
 31
0.0
  0
LINE
  5
220
330
1F
100
AcDbEntity
  8
営業図
  6
CONTINUOUS
 62
    54
100
AcDbLine
 10
567.7777777772105
 20
19.23474645182058
 30
0.0
 11
566.0101010095331
 21
21.00242321949819
 31
0.0
  0
LINE
  5
221
330
1F
100
AcDbEntity
  8
営業図
  6
CONTINUOUS
 62
    54
100
AcDbLine
 10
567.7777777772096
 20
19.73472094356902
 30
0.0
 11
566.010101009532
 21
21.50239771124658
 31
0.0
  0
LINE
  5
222
330
1F
100
AcDbEntity
  8
営業図
  6
CONTINUOUS
 62
    54
100
AcDbLine
 10
569.0099479600184
 20
19.00252525250789
 30
0.0
 11
568.6616161610464
 21
19.35085705147986
 31
0.0
  0
LINE
  5
223
330
1F
100
AcDbEntity
  8
営業図
  6
CONTINUOUS
 62
    54
100
AcDbLine
 10
567.777777777211
 20
20.23469543531525
 30
0.0
 11
566.0101010095334
 21
22.00237220299282
 31
0.0
  0
LINE
  5
224
330
1F
100
AcDbEntity
  8
営業図
  6
CONTINUOUS
 62
    54
100
AcDbLine
 10
569.5099224517644
 20
19.00252525250919
 30
0.0
 11
568.6616161610453
 21
19.8508315432283
 31
0.0
  0
LINE
  5
225
330
1F
100
AcDbEntity
  8
営業図
  6
CONTINUOUS
 62
    54
100
AcDbLine
 10
567.7777777772077
 20
20.73466992706595
 30
0.0
 11
566.0101010095325
 21
22.50234669474126
 31
0.0
  0
LINE
  5
226
330
1F
100
AcDbEntity
  8
営業図
  6
CONTINUOUS
 62
    54
100
AcDbLine
 10
570.009896943513
 20
19.00252525250829
 30
0.0
 11
568.6616161610445
 21
20.3508060349768
 31
0.0
  0
LINE
  5
227
330
1F
100
AcDbEntity
  8
営業図
  6
CONTINUOUS
 62
    54
100
AcDbLine
 10
567.7777777772092
 20
21.23464441881218
 30
0.0
 11
566.0101010095316
 21
23.00232118648975
 31
0.0
  0
LINE
  5
228
330
1F
100
AcDbEntity
  8
営業図
  6
CONTINUOUS
 62
    54
100
AcDbLine
 10
570.429292928719
 20
19.08310375904994
 30
0.0
 11
568.6616161610458
 21
20.85078052672293
 31
0.0
  0
LINE
  5
229
330
1F
100
AcDbEntity
  8
営業図
  6
CONTINUOUS
 62
    54
100
AcDbLine
 10
567.8583562837507
 20
21.65404040401803
 30
0.0
 11
566.0101010095328
 21
23.50229567823588
 31
0.0
  0
LINE
  5
22A
330
1F
100
AcDbEntity
  8
営業図
  6
CONTINUOUS
 62
    54
100
AcDbLine
 10
570.4292929287202
 20
19.58307825079612
 30
0.0
 11
568.6616161610472
 21
21.35075501846916
 31
0.0
  0
LINE
  5
22B
330
1F
100
AcDbEntity
  8
営業図
  6
CONTINUOUS
 62
    54
100
AcDbLine
 10
568.3583307754992
 20
21.65404040401712
 30
0.0
 11
566.0101010095342
 21
24.00227016998211
 31
0.0
  0
LINE
  5
22C
330
1F
100
AcDbEntity
  8
営業図
  6
CONTINUOUS
 62
    54
100
AcDbLine
 10
570.4292929287216
 20
20.0830527425423
 30
0.0
 11
566.0101010095333
 21
24.50224466173055
 31
0.0
  0
LINE
  5
22D
330
1F
100
AcDbEntity
  8
営業図
  6
CONTINUOUS
 62
    54
100
AcDbLine
 10
570.4292929287207
 20
20.58302723429079
 30
0.0
 11
566.0101010095347
 21
25.00221915347673
 31
0.0
  0
LINE
  5
22E
330
1F
100
AcDbEntity
  8
営業図
  6
CONTINUOUS
 62
    54
100
AcDbLine
 10
570.4292929287197
 20
21.08300172603924
 30
0.0
 11
568.0905774830632
 21
23.42171717169577
 31
0.0
  0
LINE
  5
22F
330
1F
100
AcDbEntity
  8
営業図
  6
CONTINUOUS
 62
    54
100
AcDbLine
 10
570.4292929287188
 20
21.58297621778772
 30
0.0
 11
568.5905519748108
 21
23.42171717169577
 31
0.0
  0
LINE
  5
230
330
1F
100
AcDbEntity
  8
営業図
  6
CONTINUOUS
 62
    54
100
AcDbLine
 10
570.4292929287202
 20
22.08295070953386
 30
0.0
 11
568.6616161610473
 21
23.85062747720678
 31
0.0
  0
LINE
  5
231
330
1F
100
AcDbEntity
  8
営業図
  6
CONTINUOUS
 62
    54
100
AcDbLine
 10
570.4292929287216
 20
22.58292520128009
 30
0.0
 11
568.6616161610473
 21
24.35060196895436
 31
0.0
  0
LINE
  5
232
330
1F
100
AcDbEntity
  8
営業図
  6
CONTINUOUS
 62
    54
100
AcDbLine
 10
570.4292929287228
 20
23.08289969302622
 30
0.0
 11
568.6616161610473
 21
24.85057646070185
 31
0.0
  0
LINE
  5
233
330
1F
100
AcDbEntity
  8
営業図
  6
CONTINUOUS
 62
    54
100
AcDbLine
 10
570.4292929287219
 20
23.58287418477471
 30
0.0
 11
568.6616161610473
 21
25.35055095244939
 31
0.0
  0
LINE
  5
234
330
1F
100
AcDbEntity
  8
営業図
  6
CONTINUOUS
 62
    54
100
AcDbLine
 10
570.429292928721
 20
24.08284867652316
 30
0.0
 11
568.6616161610473
 21
25.85052544419687
 31
0.0
  0
LINE
  5
235
330
1F
100
AcDbEntity
  8
営業図
  6
CONTINUOUS
 62
    54
100
AcDbLine
 10
570.4292929287202
 20
24.58282316827164
 30
0.0
 11
568.6616161610473
 21
26.35049993594454
 31
0.0
  0
LINE
  5
236
330
1F
100
AcDbEntity
  8
営業図
  6
CONTINUOUS
 62
    54
100
AcDbLine
 10
570.4292929287215
 20
25.08279766001783
 30
0.0
 11
568.6616161610473
 21
26.85047442769203
 31
0.0
  0
LINE
  5
237
330
1F
100
AcDbEntity
  8
営業図
  6
CONTINUOUS
 62
    54
100
AcDbLine
 10
570.4292929287205
 20
25.58277215176627
 30
0.0
 11
568.6616161610473
 21
27.35044891943954
 31
0.0
  0
LINE
  5
238
330
1F
100
AcDbEntity
  8
営業図
  6
CONTINUOUS
 62
    54
100
AcDbLine
 10
570.4292929287219
 20
26.08274664351245
 30
0.0
 11
568.6616161610473
 21
27.85042341118707
 31
0.0
  0
LINE
  5
239
330
1F
100
AcDbEntity
  8
営業図
  6
CONTINUOUS
 62
    54
100
AcDbLine
 10
570.429292928721
 20
26.5827211352609
 30
0.0
 11
568.6616161610473
 21
28.35039790293456
 31
0.0
  0
LINE
  5
23A
330
1F
100
AcDbEntity
  8
営業図
  6
CONTINUOUS
 62
    54
100
AcDbLine
 10
570.4292929287201
 20
27.08269562700939
 30
0.0
 11
568.6616161610473
 21
28.85037239468215
 31
0.0
  0
LINE
  5
23B
330
1F
100
AcDbEntity
  8
営業図
  6
CONTINUOUS
 62
    54
100
AcDbLine
 10
570.4292929287213
 20
27.58267011875552
 30
0.0
 11
568.6616161610473
 21
29.35034688642956
 31
0.0
  0
LINE
  5
23C
330
1F
100
AcDbEntity
  8
営業図
  6
CONTINUOUS
 62
    54
100
AcDbLine
 10
570.4292929287204
 20
28.08264461050401
 30
0.0
 11
568.6616161610473
 21
29.85032137817716
 31
0.0
  0
LINE
  5
23D
330
1F
100
AcDbEntity
  8
営業図
  6
CONTINUOUS
 62
    54
100
AcDbLine
 10
570.4292929287195
 20
28.58261910225245
 30
0.0
 11
568.6616161610473
 21
30.35029586992474
 31
0.0
  0
LINE
  5
23E
330
1F
100
AcDbEntity
  8
営業図
  6
CONTINUOUS
 62
    54
100
AcDbLine
 10
570.429292928721
 20
29.08259359399868
 30
0.0
 11
568.6616161610473
 21
30.85027036167234
 31
0.0
  0
LINE
  5
23F
330
1F
100
AcDbEntity
  8
営業図
  6
CONTINUOUS
 62
    54
100
AcDbLine
 10
570.4292929287221
 20
29.58256808574482
 30
0.0
 11
568.6616161610473
 21
31.35024485341975
 31
0.0
  0
LINE
  5
240
330
1F
100
AcDbEntity
  8
営業図
  6
CONTINUOUS
 62
    54
100
AcDbLine
 10
570.4292929287213
 20
30.08254257749331
 30
0.0
 11
568.6603602402541
 21
31.85147526596059
 31
0.0
  0
LINE
  5
241
330
1F
100
AcDbEntity
  8
営業図
  6
CONTINUOUS
 62
    54
100
AcDbLine
 10
570.4292929287203
 20
30.58251706924175
 30
0.0
 11
567.1135678630499
 21
33.89824213491223
 31
0.0
  0
LINE
  5
242
330
1F
100
AcDbEntity
  8
営業図
  6
CONTINUOUS
 62
    54
100
AcDbLine
 10
570.4292929287194
 20
31.08249156099024
 30
0.0
 11
567.5051559295678
 21
34.00662856014185
 31
0.0
  0
LINE
  5
243
330
1F
100
AcDbEntity
  8
営業図
  6
CONTINUOUS
 62
    54
100
AcDbLine
 10
570.4292929287208
 20
31.58246605273637
 30
0.0
 11
567.9839812037123
 21
34.02777777774479
 31
0.0
  0
LINE
  5
244
330
1F
100
AcDbEntity
  8
営業図
  6
CONTINUOUS
 62
    54
100
AcDbLine
 10
570.4292929287221
 20
32.0824405444826
 30
0.0
 11
568.4839556954608
 21
34.02777777774388
 31
0.0
  0
LINE
  5
245
330
1F
100
AcDbEntity
  8
営業図
  6
CONTINUOUS
 62
    54
100
AcDbLine
 10
570.3924141519465
 20
32.61929381300569
 30
0.0
 11
569.0208089639863
 21
33.99089900096602
 31
0.0
  0
LINE
  5
246
330
1F
100
AcDbEntity
  8
営業図
  6
CONTINUOUS
 62
    54
100
AcDbLine
 10
568.2599862223982
 20
32.25184928381636
 30
0.0
 11
569.699290847657
 21
33.69115390907513
 31
0.0
  0
LINE
  5
247
330
1F
100
AcDbEntity
  8
営業図
  6
CONTINUOUS
 62
    54
100
AcDbLine
 10
567.8944749264215
 20
32.11738608804551
 30
0.0
 11
566.5149003591728
 21
33.49696065529426
 31
0.0
  0
LINE
  5
248
330
1F
100
AcDbEntity
  8
営業図
  6
CONTINUOUS
 62
    54
100
AcDbLine
 10
567.7777777772094
 20
31.73410874551014
 30
0.0
 11
566.2928268127497
 21
33.21905970996987
 31
0.0
  0
LINE
  5
249
330
1F
100
AcDbEntity
  8
営業図
  6
CONTINUOUS
 62
    54
100
AcDbLine
 10
568.5809002799205
 20
32.07278884959086
 30
0.0
 11
569.9637136784434
 21
33.45560224811383
 31
0.0
  0
LINE
  5
24A
330
1F
100
AcDbEntity
  8
営業図
  6
CONTINUOUS
 62
    54
100
AcDbLine
 10
568.2599862223982
 20
32.25184928381637
 30
0.0
 11
566.7874901367281
 21
33.7243453694865
 31
0.0
  0
LINE
  5
24B
330
1F
100
AcDbEntity
  8
営業図
  6
CONTINUOUS
 62
    54
100
AcDbLine
 10
568.6616161610473
 20
31.65353023897028
 30
0.0
 11
570.177484967398
 21
33.16939904532101
 31
0.0
  0
LINE
  5
24C
330
1F
100
AcDbEntity
  8
営業図
  6
CONTINUOUS
 62
    54
100
AcDbLine
 10
567.7777777772094
 20
31.23413425376251
 30
0.0
 11
566.1249748382364
 21
32.88693719273552
 31
0.0
  0
LINE
  5
24D
330
1F
100
AcDbEntity
  8
営業図
  6
CONTINUOUS
 62
    54
100
AcDbLine
 10
567.7777777772094
 20
30.73415976201498
 30
0.0
 11
566.0247483648475
 21
32.48718917437687
 31
0.0
  0
LINE
  5
24E
330
1F
100
AcDbEntity
  8
営業図
  6
CONTINUOUS
 62
    54
100
AcDbLine
 10
567.7777777772094
 20
30.23418527026739
 30
0.0
 11
566.0101010095331
 21
32.00186203794377
 31
0.0
  0
LINE
  5
24F
330
1F
100
AcDbEntity
  8
営業図
  6
CONTINUOUS
 62
    54
100
AcDbLine
 10
568.6616161610473
 20
31.15355574722283
 30
0.0
 11
570.3357054468859
 21
32.82764503306145
 31
0.0
  0
LINE
  5
250
330
1F
100
AcDbEntity
  8
営業図
  6
CONTINUOUS
 62
    54
100
AcDbLine
 10
568.6616161610473
 20
30.65358125547519
 30
0.0
 11
570.422536806579
 21
32.41450190100699
 31
0.0
  0
LINE
  5
251
330
1F
100
AcDbEntity
  8
営業図
  6
CONTINUOUS
 62
    54
100
AcDbLine
 10
568.6616161610473
 20
30.15360676372775
 30
0.0
 11
570.4292929287238
 21
31.92128353140428
 31
0.0
  0
LINE
  5
252
330
1F
100
AcDbEntity
  8
営業図
  6
CONTINUOUS
 62
    54
100
AcDbLine
 10
568.6616161610473
 20
29.65363227198016
 30
0.0
 11
570.4292929287251
 21
31.42130903965805
 31
0.0
  0
LINE
  5
253
330
1F
100
AcDbEntity
  8
営業図
  6
CONTINUOUS
 62
    54
100
AcDbLine
 10
568.6616161610473
 20
29.1536577802327
 30
0.0
 11
570.4292929287242
 21
30.92133454790961
 31
0.0
  0
LINE
  5
254
330
1F
100
AcDbEntity
  8
営業図
  6
CONTINUOUS
 62
    54
100
AcDbLine
 10
568.6616161610473
 20
28.65368328848505
 30
0.0
 11
570.4292929287234
 21
30.42136005616112
 31
0.0
  0
LINE
  5
255
330
1F
100
AcDbEntity
  8
営業図
  6
CONTINUOUS
 62
    54
100
AcDbLine
 10
568.6616161610473
 20
28.1537087967376
 30
0.0
 11
570.4292929287224
 21
29.92138556441273
 31
0.0
  0
LINE
  5
256
330
1F
100
AcDbEntity
  8
営業図
  6
CONTINUOUS
 62
    54
100
AcDbLine
 10
568.6616161610473
 20
27.65373430499001
 30
0.0
 11
570.4292929287238
 21
29.4214110726665
 31
0.0
  0
LINE
  5
257
330
1F
100
AcDbEntity
  8
営業図
  6
CONTINUOUS
 62
    54
100
AcDbLine
 10
568.6616161610473
 20
27.15375981324251
 30
0.0
 11
570.4292929287227
 21
28.92143658091805
 31
0.0
  0
LINE
  5
258
330
1F
100
AcDbEntity
  8
営業図
  6
CONTINUOUS
 62
    54
100
AcDbLine
 10
568.6616161610473
 20
26.65378532149496
 30
0.0
 11
570.4292929287242
 21
28.42146208917187
 31
0.0
  0
LINE
  5
259
330
1F
100
AcDbEntity
  8
営業図
  6
CONTINUOUS
 62
    54
100
AcDbLine
 10
568.6616161610473
 20
26.15381082974737
 30
0.0
 11
570.4292929287255
 21
27.92148759742569
 31
0.0
  0
LINE
  5
25A
330
1F
100
AcDbEntity
  8
営業図
  6
CONTINUOUS
 62
    54
100
AcDbLine
 10
568.6616161610473
 20
25.65383633799991
 30
0.0
 11
570.4292929287224
 21
27.42151310567499
 31
0.0
  0
LINE
  5
25B
330
1F
100
AcDbEntity
  8
営業図
  6
CONTINUOUS
 62
    54
100
AcDbLine
 10
568.6616161610473
 20
25.15386184625232
 30
0.0
 11
570.4292929287236
 21
26.92153861392875
 31
0.0
  0
LINE
  5
25C
330
1F
100
AcDbEntity
  8
営業図
  6
CONTINUOUS
 62
    54
100
AcDbLine
 10
568.6616161610473
 20
24.65388735450481
 30
0.0
 11
570.4292929287227
 21
26.42156412218031
 31
0.0
  0
LINE
  5
25D
330
1F
100
AcDbEntity
  8
営業図
  6
CONTINUOUS
 62
    54
100
AcDbLine
 10
568.6616161610473
 20
24.15391286275722
 30
0.0
 11
570.4292929287242
 21
25.92158963043413
 31
0.0
  0
LINE
  5
25E
330
1F
100
AcDbEntity
  8
営業図
  6
CONTINUOUS
 62
    54
100
AcDbLine
 10
568.6616161610473
 20
23.65393837100974
 30
0.0
 11
570.4292929287255
 21
25.42161513868795
 31
0.0
  0
LINE
  5
25F
330
1F
100
AcDbEntity
  8
営業図
  6
CONTINUOUS
 62
    54
100
AcDbLine
 10
567.7777777772094
 20
23.73451687754952
 30
0.0
 11
566.0101010095337
 21
25.50219364522518
 31
0.0
  0
LINE
  5
260
330
1F
100
AcDbEntity
  8
営業図
  6
CONTINUOUS
 62
    54
100
AcDbLine
 10
567.7777777772094
 20
24.23449136929707
 30
0.0
 11
566.0101010095328
 21
26.00216813697367
 31
0.0
  0
LINE
  5
261
330
1F
100
AcDbEntity
  8
営業図
  6
CONTINUOUS
 62
    54
100
AcDbLine
 10
567.7777777772094
 20
24.7344658610446
 30
0.0
 11
566.0101010095342
 21
26.50214262871985
 31
0.0
  0
LINE
  5
262
330
1F
100
AcDbEntity
  8
営業図
  6
CONTINUOUS
 62
    54
100
AcDbLine
 10
567.7777777772094
 20
25.23444035279215
 30
0.0
 11
566.0101010095356
 21
27.00211712046603
 31
0.0
  0
LINE
  5
263
330
1F
100
AcDbEntity
  8
営業図
  6
CONTINUOUS
 62
    54
100
AcDbLine
 10
567.7777777772094
 20
25.73441484453965
 30
0.0
 11
566.0101010095347
 21
27.50209161221447
 31
0.0
  0
LINE
  5
264
330
1F
100
AcDbEntity
  8
営業図
  6
CONTINUOUS
 62
    54
100
AcDbLine
 10
567.7777777772094
 20
26.23438933628718
 30
0.0
 11
566.0101010095336
 21
28.00206610396296
 31
0.0
  0
LINE
  5
265
330
1F
100
AcDbEntity
  8
営業図
  6
CONTINUOUS
 62
    54
100
AcDbLine
 10
567.7777777772094
 20
26.73436382803467
 30
0.0
 11
566.0101010095327
 21
28.50204059571141
 31
0.0
  0
LINE
  5
266
330
1F
100
AcDbEntity
  8
営業図
  6
CONTINUOUS
 62
    54
100
AcDbLine
 10
567.7777777772094
 20
27.23433831978235
 30
0.0
 11
566.0101010095342
 21
29.00201508745764
 31
0.0
  0
LINE
  5
267
330
1F
100
AcDbEntity
  8
営業図
  6
CONTINUOUS
 62
    54
100
AcDbLine
 10
567.7777777772094
 20
27.73431281152981
 30
0.0
 11
566.0101010095333
 21
29.50198957920603
 31
0.0
  0
LINE
  5
268
330
1F
100
AcDbEntity
  8
営業図
  6
CONTINUOUS
 62
    54
100
AcDbLine
 10
567.7777777772094
 20
28.23428730327733
 30
0.0
 11
566.0101010095323
 21
30.00196407095452
 31
0.0
  0
LINE
  5
269
330
1F
100
AcDbEntity
  8
営業図
  6
CONTINUOUS
 62
    54
100
AcDbLine
 10
567.7777777772094
 20
28.73426179502489
 30
0.0
 11
566.0101010095336
 21
30.5019385627007
 31
0.0
  0
LINE
  5
26A
330
1F
100
AcDbEntity
  8
営業図
  6
CONTINUOUS
 62
    54
100
AcDbLine
 10
567.7777777772094
 20
29.23423628677235
 30
0.0
 11
566.0101010095327
 21
31.00191305444915
 31
0.0
  0
LINE
  5
26B
330
1F
100
AcDbEntity
  8
営業図
  6
CONTINUOUS
 62
    54
100
AcDbLine
 10
567.7777777772094
 20
29.73421077851995
 30
0.0
 11
566.0101010095341
 21
31.50188754619533
 31
0.0
  0
LINE
  5
26C
330
1F
100
AcDbEntity
  8
営業図
  6
CONTINUOUS
 62
    54
100
AcDbLine
 10
571.3131313125593
 20
34.00176000493276
 30
0.0
 11
571.3391490853679
 21
34.02777777774137
 31
0.0
  0
LINE
  5
26D
330
1F
100
AcDbEntity
  8
営業図
  6
CONTINUOUS
 62
    54
100
AcDbLine
 10
571.3131313125584
 20
33.50178551318437
 30
0.0
 11
571.8391235771186
 21
34.02777777774459
 31
0.0
  0
LINE
  5
26E
330
1F
100
AcDbEntity
  8
営業図
  6
CONTINUOUS
 62
    54
100
AcDbLine
 10
571.3131313125599
 20
33.00181102143814
 30
0.0
 11
572.3390980688648
 21
34.02777777774322
 31
0.0
  0
LINE
  5
26F
330
1F
100
AcDbEntity
  8
営業図
  6
CONTINUOUS
 62
    54
100
AcDbLine
 10
571.3131313125589
 20
32.5018365296897
 30
0.0
 11
572.8390725606132
 21
34.02777777774413
 31
0.0
  0
LINE
  5
270
330
1F
100
AcDbEntity
  8
営業図
  6
CONTINUOUS
 62
    54
100
AcDbLine
 10
571.313131312558
 20
32.00186203794121
 30
0.0
 11
573.0808080802354
 21
33.76953880561877
 31
0.0
  0
LINE
  5
271
330
1F
100
AcDbEntity
  8
営業図
  6
CONTINUOUS
 62
    54
100
AcDbLine
 10
571.3131313125592
 20
31.50188754619508
 30
0.0
 11
573.0808080802323
 21
33.26956431386807
 31
0.0
  0
LINE
  5
272
330
1F
100
AcDbEntity
  8
営業図
  6
CONTINUOUS
 62
    54
100
AcDbLine
 10
571.3131313125607
 20
31.00191305444885
 30
0.0
 11
573.0808080802336
 21
32.76958982212189
 31
0.0
  0
LINE
  5
273
330
1F
100
AcDbEntity
  8
営業図
  6
CONTINUOUS
 62
    54
100
AcDbLine
 10
571.3131313125597
 20
30.5019385627004
 30
0.0
 11
573.0808080802351
 21
32.26961533037571
 31
0.0
  0
LINE
  5
274
330
1F
100
AcDbEntity
  8
営業図
  6
CONTINUOUS
 62
    54
100
AcDbLine
 10
571.3131313125565
 20
30.0019640709497
 30
0.0
 11
573.0808080802341
 21
31.76964083862726
 31
0.0
  0
LINE
  5
275
330
1F
100
AcDbEntity
  8
営業図
  6
CONTINUOUS
 62
    54
100
AcDbLine
 10
571.3131313125579
 20
29.50198957920347
 30
0.0
 11
573.0808080802354
 21
31.26966634688108
 31
0.0
  0
LINE
  5
276
330
1F
100
AcDbEntity
  8
営業図
  6
CONTINUOUS
 62
    54
100
AcDbLine
 10
571.3131313125592
 20
29.00201508745734
 30
0.0
 11
573.0808080802323
 21
30.76969185513038
 31
0.0
  0
LINE
  5
277
330
1F
100
AcDbEntity
  8
営業図
  6
CONTINUOUS
 62
    54
100
AcDbLine
 10
571.3131313125582
 20
28.50204059570884
 30
0.0
 11
573.0808080802336
 21
30.26971736338415
 31
0.0
  0
LINE
  5
278
330
1F
100
AcDbEntity
  8
営業図
  6
CONTINUOUS
 62
    54
100
AcDbLine
 10
571.3131313125597
 20
28.00206610396267
 30
0.0
 11
573.080808080235
 21
29.76974287163797
 31
0.0
  0
LINE
  5
279
330
1F
100
AcDbEntity
  8
営業図
  6
CONTINUOUS
 62
    54
100
AcDbLine
 10
571.313131312561
 20
27.50209161221648
 30
0.0
 11
573.0808080802341
 21
29.26976837988947
 31
0.0
  0
LINE
  5
27A
330
1F
100
AcDbEntity
  8
営業図
  6
CONTINUOUS
 62
    54
100
AcDbLine
 10
571.3131313125579
 20
27.00211712046578
 30
0.0
 11
573.0808080802354
 21
28.76979388814334
 31
0.0
  0
LINE
  5
27B
330
1F
100
AcDbEntity
  8
営業図
  6
CONTINUOUS
 62
    54
100
AcDbLine
 10
571.3131313125591
 20
26.50214262871955
 30
0.0
 11
573.0808080802367
 21
28.26981939639711
 31
0.0
  0
LINE
  5
27C
330
1F
100
AcDbEntity
  8
営業図
  6
CONTINUOUS
 62
    54
100
AcDbLine
 10
571.3131313125582
 20
26.00216813697111
 30
0.0
 11
573.0808080802335
 21
27.7698449046464
 31
0.0
  0
LINE
  5
27D
330
1F
100
AcDbEntity
  8
営業図
  6
CONTINUOUS
 62
    54
100
AcDbLine
 10
571.3131313125597
 20
25.50219364522492
 30
0.0
 11
573.0808080802326
 21
27.26987041289792
 31
0.0
  0
LINE
  5
27E
330
1F
100
AcDbEntity
  8
営業図
  6
CONTINUOUS
 62
    54
100
AcDbLine
 10
571.3131313125609
 20
25.00221915347874
 30
0.0
 11
573.0808080802341
 21
26.76989592115179
 31
0.0
  0
LINE
  5
27F
330
1F
100
AcDbEntity
  8
営業図
  6
CONTINUOUS
 62
    54
100
AcDbLine
 10
571.3131313125577
 20
24.50224466172799
 30
0.0
 11
573.0808080802352
 21
26.26992142940555
 31
0.0
  0
LINE
  5
280
330
1F
100
AcDbEntity
  8
営業図
  6
CONTINUOUS
 62
    54
100
AcDbLine
 10
571.3131313125591
 20
24.00227016998181
 30
0.0
 11
573.080808080232
 21
25.76994693765485
 31
0.0
  0
LINE
  5
281
330
1F
100
AcDbEntity
  8
営業図
  6
CONTINUOUS
 62
    54
100
AcDbLine
 10
571.3131313125582
 20
23.50229567823332
 30
0.0
 11
573.0808080802335
 21
25.26997244590862
 31
0.0
  0
LINE
  5
282
330
1F
100
AcDbEntity
  8
営業図
  6
CONTINUOUS
 62
    54
100
AcDbLine
 10
571.3131313125594
 20
23.00232118648719
 30
0.0
 11
573.0808080802349
 21
24.76999795416248
 31
0.0
  0
LINE
  5
283
330
1F
100
AcDbEntity
  8
営業図
  6
CONTINUOUS
 62
    54
100
AcDbLine
 10
571.3131313125608
 20
22.50234669474096
 30
0.0
 11
573.0808080802339
 21
24.270023462414
 31
0.0
  0
LINE
  5
284
330
1F
100
AcDbEntity
  8
営業図
  6
CONTINUOUS
 62
    54
100
AcDbLine
 10
571.3131313125576
 20
22.00237220299025
 30
0.0
 11
573.0808080802352
 21
23.77004897066781
 31
0.0
  0
LINE
  5
285
330
1F
100
AcDbEntity
  8
営業図
  6
CONTINUOUS
 62
    54
100
AcDbLine
 10
571.3131313125591
 20
21.50239771124402
 30
0.0
 11
573.0808080802367
 21
23.27007447892164
 31
0.0
  0
LINE
  5
286
330
1F
100
AcDbEntity
  8
営業図
  6
CONTINUOUS
 62
    54
100
AcDbLine
 10
571.313131312558
 20
21.00242321949563
 30
0.0
 11
573.0808080802335
 21
22.77009998717093
 31
0.0
  0
LINE
  5
287
330
1F
100
AcDbEntity
  8
営業図
  6
CONTINUOUS
 62
    54
100
AcDbLine
 10
571.3131313125594
 20
20.5024487277494
 30
0.0
 11
573.0808080802324
 21
22.27012549542243
 31
0.0
  0
LINE
  5
288
330
1F
100
AcDbEntity
  8
営業図
  6
CONTINUOUS
 62
    54
100
AcDbLine
 10
571.3131313125608
 20
20.00247423600321
 30
0.0
 11
573.0808080802339
 21
21.77015100367626
 31
0.0
  0
LINE
  5
289
330
1F
100
AcDbEntity
  8
営業図
  6
CONTINUOUS
 62
    54
100
AcDbLine
 10
571.3131313125576
 20
19.50249974425246
 30
0.0
 11
573.0808080802352
 21
21.27017651193002
 31
0.0
  0
LINE
  5
28A
330
1F
100
AcDbEntity
  8
営業図
  6
CONTINUOUS
 62
    54
100
AcDbLine
 10
571.3131313125589
 20
19.00252525250633
 30
0.0
 11
573.0808080802343
 21
20.77020202018163
 31
0.0
  0
LINE
  5
28B
330
1F
100
AcDbEntity
  8
営業図
  6
CONTINUOUS
 62
    54
100
AcDbLine
 10
571.8131058043051
 20
19.00252525250497
 30
0.0
 11
573.0808080802333
 21
20.27022752843319
 31
0.0
  0
LINE
  5
28C
330
1F
100
AcDbEntity
  8
営業図
  6
CONTINUOUS
 62
    54
100
AcDbLine
 10
572.3130802960536
 20
19.00252525250588
 30
0.0
 11
573.0808080802346
 21
19.77025303668696
 31
0.0
  0
LINE
  5
28D
330
1F
100
AcDbEntity
  8
営業図
  6
CONTINUOUS
 62
    54
100
AcDbLine
 10
572.8130547878021
 20
19.00252525250683
 30
0.0
 11
573.0808080802337
 21
19.27027854493852
 31
0.0
  0
LINE
  5
28E
330
1F
100
AcDbEntity
  8
営業図
  6
CONTINUOUS
 62
    54
100
AcDbLine
 10
571.8131058043083
 20
19.00252525250523
 30
0.0
 11
571.3131313125612
 21
19.50249974425231
 31
0.0
  0
LINE
  5
28F
330
1F
100
AcDbEntity
  8
営業図
  6
CONTINUOUS
 62
    54
100
AcDbLine
 10
572.3130802960544
 20
19.00252525250658
 30
0.0
 11
571.3131313125625
 21
20.00247423599854
 31
0.0
  0
LINE
  5
290
330
1F
100
AcDbEntity
  8
営業図
  6
CONTINUOUS
 62
    54
100
AcDbLine
 10
572.8130547878029
 20
19.00252525250563
 30
0.0
 11
571.3131313125593
 21
20.50244872774925
 31
0.0
  0
LINE
  5
291
330
1F
100
AcDbEntity
  8
営業図
  6
CONTINUOUS
 62
    54
100
AcDbLine
 10
573.080808080236
 20
19.23474645182013
 30
0.0
 11
571.3131313125607
 21
21.00242321949543
 31
0.0
  0
LINE
  5
292
330
1F
100
AcDbEntity
  8
営業図
  6
CONTINUOUS
 62
    54
100
AcDbLine
 10
573.0808080802351
 20
19.73472094356857
 30
0.0
 11
571.3131313125621
 21
21.50239771124161
 31
0.0
  0
LINE
  5
293
330
1F
100
AcDbEntity
  8
営業図
  6
CONTINUOUS
 62
    54
100
AcDbLine
 10
573.0808080802365
 20
20.2346954353148
 30
0.0
 11
571.313131312561
 21
22.0023722029901
 31
0.0
  0
LINE
  5
294
330
1F
100
AcDbEntity
  8
営業図
  6
CONTINUOUS
 62
    54
100
AcDbLine
 10
573.0808080802354
 20
20.73466992706324
 30
0.0
 11
571.3131313125602
 21
22.50234669473855
 31
0.0
  0
LINE
  5
295
330
1F
100
AcDbEntity
  8
営業図
  6
CONTINUOUS
 62
    54
100
AcDbLine
 10
573.0808080802369
 20
21.23464441880942
 30
0.0
 11
571.3131313125616
 21
23.00232118648472
 31
0.0
  0
LINE
  5
296
330
1F
100
AcDbEntity
  8
営業図
  6
CONTINUOUS
 62
    54
100
AcDbLine
 10
573.0808080802358
 20
21.73461891055787
 30
0.0
 11
571.3131313125607
 21
23.50229567823316
 31
0.0
  0
LINE
  5
297
330
1F
100
AcDbEntity
  8
営業図
  6
CONTINUOUS
 62
    54
100
AcDbLine
 10
573.0808080802373
 20
22.2345934023041
 30
0.0
 11
571.3131313125618
 21
24.0022701699794
 31
0.0
  0
LINE
  5
298
330
1F
100
AcDbEntity
  8
営業図
  6
CONTINUOUS
 62
    54
100
AcDbLine
 10
573.0808080802364
 20
22.73456789405254
 30
0.0
 11
571.3131313125588
 21
24.5022446617301
 31
0.0
  0
LINE
  5
299
330
1F
100
AcDbEntity
  8
営業図
  6
CONTINUOUS
 62
    54
100
AcDbLine
 10
573.0808080802354
 20
23.23454238580098
 30
0.0
 11
571.31313131256
 21
25.00221915347623
 31
0.0
  0
LINE
  5
29A
330
1F
100
AcDbEntity
  8
営業図
  6
CONTINUOUS
 62
    54
100
AcDbLine
 10
573.0808080802344
 20
23.73451687754942
 30
0.0
 11
571.3131313125615
 21
25.50219364522246
 31
0.0
  0
LINE
  5
29B
330
1F
100
AcDbEntity
  8
営業図
  6
CONTINUOUS
 62
    54
100
AcDbLine
 10
573.0808080802358
 20
24.2344913692956
 30
0.0
 11
571.3131313125605
 21
26.00216813697091
 31
0.0
  0
LINE
  5
29C
330
1F
100
AcDbEntity
  8
営業図
  6
CONTINUOUS
 62
    54
100
AcDbLine
 10
573.0808080802373
 20
24.73446586104183
 30
0.0
 11
571.3131313125618
 21
26.50214262871714
 31
0.0
  0
LINE
  5
29D
330
1F
100
AcDbEntity
  8
営業図
  6
CONTINUOUS
 62
    54
100
AcDbLine
 10
573.0808080802362
 20
25.23444035279023
 30
0.0
 11
571.3131313125609
 21
27.00211712046553
 31
0.0
  0
LINE
  5
29E
330
1F
100
AcDbEntity
  8
営業図
  6
CONTINUOUS
 62
    54
100
AcDbLine
 10
573.0808080802353
 20
25.73441484453872
 30
0.0
 11
571.31313131256
 21
27.50209161221402
 31
0.0
  0
LINE
  5
29F
330
1F
100
AcDbEntity
  8
営業図
  6
CONTINUOUS
 62
    54
100
AcDbLine
 10
573.0808080802367
 20
26.2343893362849
 30
0.0
 11
571.3131313125614
 21
28.0020661039602
 31
0.0
  0
LINE
  5
2A0
330
1F
100
AcDbEntity
  8
営業図
  6
CONTINUOUS
 62
    54
100
AcDbLine
 10
573.0808080802358
 20
26.73436382803339
 30
0.0
 11
571.3131313125605
 21
28.50204059570869
 31
0.0
  0
LINE
  5
2A1
330
1F
100
AcDbEntity
  8
営業図
  6
CONTINUOUS
 62
    54
100
AcDbLine
 10
573.0808080802349
 20
27.23433831978184
 30
0.0
 11
571.3131313125596
 21
29.00201508745713
 31
0.0
  0
LINE
  5
2A2
330
1F
100
AcDbEntity
  8
営業図
  6
CONTINUOUS
 62
    54
100
AcDbLine
 10
573.0808080802362
 20
27.73431281152802
 30
0.0
 11
571.3131313125608
 21
29.50198957920332
 31
0.0
  0
LINE
  5
2A3
330
1F
100
AcDbEntity
  8
営業図
  6
CONTINUOUS
 62
    54
100
AcDbLine
 10
573.0808080802352
 20
28.23428730327646
 30
0.0
 11
571.3131313125599
 21
30.00196407095176
 31
0.0
  0
LINE
  5
2A4
330
1F
100
AcDbEntity
  8
営業図
  6
CONTINUOUS
 62
    54
100
AcDbLine
 10
573.0808080802367
 20
28.73426179502269
 30
0.0
 11
571.3131313125614
 21
30.50193856269799
 31
0.0
  0
LINE
  5
2A5
330
1F
100
AcDbEntity
  8
営業図
  6
CONTINUOUS
 62
    54
100
AcDbLine
 10
573.0808080802357
 20
29.23423628677113
 30
0.0
 11
571.3131313125605
 21
31.00191305444643
 31
0.0
  0
LINE
  5
2A6
330
1F
100
AcDbEntity
  8
営業図
  6
CONTINUOUS
 62
    54
100
AcDbLine
 10
573.080808080237
 20
29.73421077851732
 30
0.0
 11
571.3131313125618
 21
31.50188754619262
 31
0.0
  0
LINE
  5
2A7
330
1F
100
AcDbEntity
  8
営業図
  6
CONTINUOUS
 62
    54
100
AcDbLine
 10
573.080808080236
 20
30.23418527026575
 30
0.0
 11
571.3131313125608
 21
32.00186203794105
 31
0.0
  0
LINE
  5
2A8
330
1F
100
AcDbEntity
  8
営業図
  6
CONTINUOUS
 62
    54
100
AcDbLine
 10
573.0808080802352
 20
30.73415976201425
 30
0.0
 11
571.3131313125599
 21
32.50183652968956
 31
0.0
  0
LINE
  5
2A9
330
1F
100
AcDbEntity
  8
営業図
  6
CONTINUOUS
 62
    54
100
AcDbLine
 10
573.0808080802366
 20
31.23413425376043
 30
0.0
 11
571.3131313125613
 21
33.00181102143568
 31
0.0
  0
LINE
  5
2AA
330
1F
100
AcDbEntity
  8
営業図
  6
CONTINUOUS
 62
    54
100
AcDbLine
 10
573.0808080802357
 20
31.73410874550887
 30
0.0
 11
571.3131313125604
 21
33.50178551318417
 31
0.0
  0
LINE
  5
2AB
330
1F
100
AcDbEntity
  8
営業図
  6
CONTINUOUS
 62
    54
100
AcDbLine
 10
573.0808080802346
 20
32.23408323725732
 30
0.0
 11
571.3131313125594
 21
34.00176000493261
 31
0.0
  0
LINE
  5
2AC
330
1F
100
AcDbEntity
  8
営業図
  6
CONTINUOUS
 62
    54
100
AcDbLine
 10
573.080808080236
 20
32.73405772900355
 30
0.0
 11
571.7870880314947
 21
34.02777777774483
 31
0.0
  0
LINE
  5
2AD
330
1F
100
AcDbEntity
  8
営業図
  6
CONTINUOUS
 62
    54
100
AcDbLine
 10
573.0808080802352
 20
33.23403222075199
 30
0.0
 11
572.2870625232409
 21
34.02777777774619
 31
0.0
  0
LINE
  5
2AE
330
1F
100
AcDbEntity
  8
営業図
  6
CONTINUOUS
 62
    54
100
AcDbLine
 10
573.0808080802365
 20
33.73400671249812
 30
0.0
 11
572.7870370149893
 21
34.02777777774524
 31
0.0
  0
LINE
  5
2AF
330
1F
100
AcDbEntity
  8
営業図
  6
CONTINUOUS
 62
    54
100
AcDbLine
 10
573.9646464640724
 20
33.52780328599639
 30
0.0
 11
574.4646209558196
 21
34.02777777774353
 31
0.0
  0
LINE
  5
2B0
330
1F
100
AcDbEntity
  8
営業図
  6
CONTINUOUS
 62
    54
100
AcDbLine
 10
573.9646464640691
 20
33.02782879424569
 30
0.0
 11
574.964595447568
 21
34.02777777774448
 31
0.0
  0
LINE
  5
2B1
330
1F
100
AcDbEntity
  8
営業図
  6
CONTINUOUS
 62
    54
100
AcDbLine
 10
573.9646464640705
 20
32.52785430249951
 30
0.0
 11
575.4645699393142
 21
34.02777777774308
 31
0.0
  0
LINE
  5
2B2
330
1F
100
AcDbEntity
  8
営業図
  6
CONTINUOUS
 62
    54
100
AcDbLine
 10
573.964646464072
 20
32.02787981075333
 30
0.0
 11
575.7323232317472
 21
33.79555657842863
 31
0.0
  0
LINE
  5
2B3
330
1F
100
AcDbEntity
  8
営業図
  6
CONTINUOUS
 62
    54
100
AcDbLine
 10
573.9646464640734
 20
31.52790531900715
 30
0.0
 11
575.7323232317485
 21
33.29558208668239
 31
0.0
  0
LINE
  5
2B4
330
1F
100
AcDbEntity
  8
営業図
  6
CONTINUOUS
 62
    54
100
AcDbLine
 10
573.9646464640724
 20
31.0279308272587
 30
0.0
 11
575.73232323175
 21
32.79560759493626
 31
0.0
  0
LINE
  5
2B5
330
1F
100
AcDbEntity
  8
営業図
  6
CONTINUOUS
 62
    54
100
AcDbLine
 10
576.6161616155875
 20
33.67944597877391
 30
0.0
 11
576.9644934145596
 21
34.02777777774589
 31
0.0
  0
LINE
  5
2B6
330
1F
100
AcDbEntity
  8
営業図
  6
CONTINUOUS
 62
    54
100
AcDbLine
 10
573.9646464640715
 20
30.52795633551021
 30
0.0
 11
575.732323231749
 21
32.29563310318778
 31
0.0
  0
LINE
  5
2B7
330
1F
100
AcDbEntity
  8
営業図
  6
CONTINUOUS
 62
    54
100
AcDbLine
 10
576.6161616155889
 20
33.17947148702768
 30
0.0
 11
577.4644679063058
 21
34.02777777774453
 31
0.0
  0
LINE
  5
2B8
330
1F
100
AcDbEntity
  8
営業図
  6
CONTINUOUS
 62
    54
100
AcDbLine
 10
573.9646464640705
 20
30.02798184376177
 30
0.0
 11
575.7323232317503
 21
31.79565861144159
 31
0.0
  0
LINE
  5
2B9
330
1F
100
AcDbEntity
  8
営業図
  6
CONTINUOUS
 62
    54
100
AcDbLine
 10
576.6161616155856
 20
32.67949699527698
 30
0.0
 11
577.9644423980518
 21
34.02777777774318
 31
0.0
  0
LINE
  5
2BA
330
1F
100
AcDbEntity
  8
営業図
  6
CONTINUOUS
 62
    54
100
AcDbLine
 10
573.9646464640718
 20
29.52800735201559
 30
0.0
 11
575.7323232317472
 21
31.29568411969089
 31
0.0
  0
LINE
  5
2BB
330
1F
100
AcDbEntity
  8
営業図
  6
CONTINUOUS
 62
    54
100
AcDbLine
 10
576.6161616155871
 20
32.17952250353085
 30
0.0
 11
578.38383838326
 21
33.94719927120384
 31
0.0
  0
LINE
  5
2BC
330
1F
100
AcDbEntity
  8
営業図
  6
CONTINUOUS
 62
    54
100
AcDbLine
 10
573.9646464640732
 20
29.02803286026941
 30
0.0
 11
575.7323232317485
 21
30.79570962794471
 31
0.0
  0
LINE
  5
2BD
330
1F
100
AcDbEntity
  8
営業図
  6
CONTINUOUS
 62
    54
100
AcDbLine
 10
576.6161616155862
 20
31.67954801178236
 30
0.0
 11
578.3838383832592
 21
33.44722477945535
 31
0.0
  0
LINE
  5
2BE
330
1F
100
AcDbEntity
  8
営業図
  6
CONTINUOUS
 62
    54
100
AcDbLine
 10
573.9646464640724
 20
28.52805836852097
 30
0.0
 11
575.7323232317476
 21
30.29573513619626
 31
0.0
  0
LINE
  5
2BF
330
1F
100
AcDbEntity
  8
営業図
  6
CONTINUOUS
 62
    54
100
AcDbLine
 10
576.6161616155874
 20
31.17957352003618
 30
0.0
 11
578.3838383832606
 21
32.94725028770922
 31
0.0
  0
LINE
  5
2C0
330
1F
100
AcDbEntity
  8
営業図
  6
CONTINUOUS
 62
    54
100
AcDbLine
 10
579.2676767670981
 20
33.83108867154687
 30
0.0
 11
579.4643658732952
 21
34.02777777774373
 31
0.0
  0
LINE
  5
2C1
330
1F
100
AcDbEntity
  8
営業図
  6
CONTINUOUS
 62
    54
100
AcDbLine
 10
573.9646464640736
 20
28.02808387677473
 30
0.0
 11
575.732323231749
 21
29.79576064445003
 31
0.0
  0
LINE
  5
2C2
330
1F
100
AcDbEntity
  8
営業図
  6
CONTINUOUS
 62
    54
100
AcDbLine
 10
576.6161616155842
 20
30.67959902828542
 30
0.0
 11
578.3838383832597
 21
32.44727579596073
 31
0.0
  0
LINE
  5
2C3
330
1F
100
AcDbEntity
  8
営業図
  6
CONTINUOUS
 62
    54
100
AcDbLine
 10
579.2676767670949
 20
33.33111417979612
 30
0.0
 11
579.9643403650412
 21
34.02777777774232
 31
0.0
  0
LINE
  5
2C4
330
1F
100
AcDbEntity
  8
営業図
  6
CONTINUOUS
 62
    54
100
AcDbLine
 10
573.9646464640705
 20
27.52810938502403
 30
0.0
 11
575.7323232317503
 21
29.2957861527039
 31
0.0
  0
LINE
  5
2C5
330
1F
100
AcDbEntity
  8
営業図
  6
CONTINUOUS
 62
    54
100
AcDbLine
 10
576.6161616155856
 20
30.17962453653924
 30
0.0
 11
578.3838383832609
 21
31.94730130421454
 31
0.0
  0
LINE
  5
2C6
330
1F
100
AcDbEntity
  8
営業図
  6
CONTINUOUS
 62
    54
100
AcDbLine
 10
579.2676767670986
 20
32.83113968805219
 30
0.0
 11
580.4643148567898
 21
34.02777777774327
 31
0.0
  0
LINE
  5
2C7
330
1F
100
AcDbEntity
  8
営業図
  6
CONTINUOUS
 62
    54
100
AcDbLine
 10
573.9646464640717
 20
27.02813489327785
 30
0.0
 11
575.7323232317516
 21
28.79581166095767
 31
0.0
  0
LINE
  5
2C8
330
1F
100
AcDbEntity
  8
営業図
  6
CONTINUOUS
 62
    54
100
AcDbLine
 10
576.6161616155871
 20
29.67965004479306
 30
0.0
 11
578.38383838326
 21
31.44732681246605
 31
0.0
  0
LINE
  5
2C9
330
1F
100
AcDbEntity
  8
営業図
  6
CONTINUOUS
 62
    54
100
AcDbLine
 10
579.2676767670977
 20
32.3311651963037
 30
0.0
 11
580.9642893485359
 21
34.02777777774192
 31
0.0
  0
LINE
  5
2CA
330
1F
100
AcDbEntity
  8
営業図
  6
CONTINUOUS
 62
    54
100
AcDbLine
 10
573.9646464640709
 20
26.52816040152941
 30
0.0
 11
575.7323232317485
 21
28.29583716920697
 31
0.0
  0
LINE
  5
2CB
330
1F
100
AcDbEntity
  8
営業図
  6
CONTINUOUS
 62
    54
100
AcDbLine
 10
576.6161616155861
 20
29.17967555304462
 30
0.0
 11
578.3838383832592
 21
30.94735232071766
 31
0.0
  0
LINE
  5
2CC
330
1F
100
AcDbEntity
  8
営業図
  6
CONTINUOUS
 62
    54
100
AcDbLine
 10
579.267676767099
 20
31.83119070455757
 30
0.0
 11
581.0353535347721
 21
33.59886747223057
 31
0.0
  0
LINE
  5
2CD
330
1F
100
AcDbEntity
  8
営業図
  6
CONTINUOUS
 62
    54
100
AcDbLine
 10
573.9646464640722
 20
26.02818590978318
 30
0.0
 11
575.7323232317498
 21
27.79586267746074
 31
0.0
  0
LINE
  5
2CE
330
1F
100
AcDbEntity
  8
営業図
  6
CONTINUOUS
 62
    54
100
AcDbLine
 10
576.6161616155874
 20
28.67970106129839
 30
0.0
 11
578.3838383832605
 21
30.44737782897143
 31
0.0
  0
LINE
  5
2CF
330
1F
100
AcDbEntity
  8
営業図
  6
CONTINUOUS
 62
    54
100
AcDbLine
 10
579.2676767670981
 20
31.33121621280908
 30
0.0
 11
581.0353535347733
 21
33.09889298048438
 31
0.0
  0
LINE
  5
2D0
330
1F
100
AcDbEntity
  8
営業図
  6
CONTINUOUS
 62
    54
100
AcDbLine
 10
573.9646464640736
 20
25.52821141803699
 30
0.0
 11
575.7323232317489
 21
27.2958881857123
 31
0.0
  0
LINE
  5
2D1
330
1F
100
AcDbEntity
  8
営業図
  6
CONTINUOUS
 62
    54
100
AcDbLine
 10
576.6161616155865
 20
28.17972656954995
 30
0.0
 11
578.3838383832596
 21
29.94740333722298
 31
0.0
  0
LINE
  5
2D2
330
1F
100
AcDbEntity
  8
営業図
  6
CONTINUOUS
 62
    54
100
AcDbLine
 10
579.2676767670994
 20
30.8312417210629
 30
0.0
 11
581.0353535347725
 21
32.59891848873594
 31
0.0
  0
LINE
  5
2D3
330
1F
100
AcDbEntity
  8
営業図
  6
CONTINUOUS
 62
    54
100
AcDbLine
 10
573.9646464640704
 20
25.02823692628624
 30
0.0
 11
575.7323232317502
 21
26.79591369396611
 31
0.0
  0
LINE
  5
2D4
330
1F
100
AcDbEntity
  8
営業図
  6
CONTINUOUS
 62
    54
100
AcDbLine
 10
576.6161616155856
 20
27.6797520778015
 30
0.0
 11
578.3838383832609
 21
29.44742884547675
 31
0.0
  0
LINE
  5
2D5
330
1F
100
AcDbEntity
  8
営業図
  6
CONTINUOUS
 62
    54
100
AcDbLine
 10
579.2676767670962
 20
30.33126722931215
 30
0.0
 11
581.0353535347738
 21
32.0989439969897
 31
0.0
  0
LINE
  5
2D6
330
1F
100
AcDbEntity
  8
営業図
  6
CONTINUOUS
 62
    54
100
AcDbLine
 10
573.9646464640717
 20
24.52826243454011
 30
0.0
 11
575.7323232317493
 21
26.29593920221767
 31
0.0
  0
LINE
  5
2D7
330
1F
100
AcDbEntity
  8
営業図
  6
CONTINUOUS
 62
    54
100
AcDbLine
 10
576.6161616155846
 20
27.17977758605306
 30
0.0
 11
578.3838383832576
 21
28.94745435372605
 31
0.0
  0
LINE
  5
2D8
330
1F
100
AcDbEntity
  8
営業図
  6
CONTINUOUS
 62
    54
100
AcDbLine
 10
579.2676767670976
 20
29.83129273756601
 30
0.0
 11
581.0353535347706
 21
31.598969505239
 31
0.0
  0
LINE
  5
2D9
330
1F
100
AcDbEntity
  8
営業図
  6
CONTINUOUS
 62
    54
100
AcDbLine
 10
573.9646464640707
 20
24.02828794279161
 30
0.0
 11
575.7323232317483
 21
25.79596471046918
 31
0.0
  0
LINE
  5
2DA
330
1F
100
AcDbEntity
  8
営業図
  6
CONTINUOUS
 62
    54
100
AcDbLine
 10
576.6161616155861
 20
26.67980309430683
 30
0.0
 11
578.383838383259
 21
28.44747986197987
 31
0.0
  0
LINE
  5
2DB
330
1F
100
AcDbEntity
  8
営業図
  6
CONTINUOUS
 62
    54
100
AcDbLine
 10
579.2676767670968
 20
29.33131824581752
 30
0.0
 11
581.035353534772
 21
31.09899501349282
 31
0.0
  0
LINE
  5
2DC
330
1F
100
AcDbEntity
  8
営業図
  6
CONTINUOUS
 62
    54
100
AcDbLine
 10
573.9646464640722
 20
23.52831345104544
 30
0.0
 11
575.7323232317497
 21
25.295990218723
 31
0.0
  0
LINE
  5
2DD
330
1F
100
AcDbEntity
  8
営業図
  6
CONTINUOUS
 62
    54
100
AcDbLine
 10
576.6161616155873
 20
26.17982860256065
 30
0.0
 11
578.3838383832581
 21
27.94750537023143
 31
0.0
  0
LINE
  5
2DE
330
1F
100
AcDbEntity
  8
営業図
  6
CONTINUOUS
 62
    54
100
AcDbLine
 10
579.2676767670979
 20
28.83134375407134
 30
0.0
 11
581.035353534771
 21
30.59902052174438
 31
0.0
  0
LINE
  5
2DF
330
1F
100
AcDbEntity
  8
営業図
  6
CONTINUOUS
 62
    54
100
AcDbLine
 10
573.9646464640689
 20
23.02833895929468
 30
0.0
 11
575.7323232317488
 21
24.79601572697455
 31
0.0
  0
LINE
  5
2E0
330
1F
100
AcDbEntity
  8
営業図
  6
CONTINUOUS
 62
    54
100
AcDbLine
 10
576.6161616155887
 20
25.67985411081447
 30
0.0
 11
578.3838383832617
 21
27.44753087848751
 31
0.0
  0
LINE
  5
2E1
330
1F
100
AcDbEntity
  8
営業図
  6
CONTINUOUS
 62
    54
100
AcDbLine
 10
579.2676767670994
 20
28.33136926232516
 30
0.0
 11
581.0353535347723
 21
30.09904602999815
 31
0.0
  0
LINE
  5
2E2
330
1F
100
AcDbEntity
  8
営業図
  6
CONTINUOUS
 62
    54
100
AcDbLine
 10
573.9646464640704
 20
22.52836446754855
 30
0.0
 11
575.7323232317502
 21
24.29604123522838
 31
0.0
  0
LINE
  5
2E3
330
1F
100
AcDbEntity
  8
営業図
  6
CONTINUOUS
 62
    54
100
AcDbLine
 10
576.6161616155878
 20
25.17987961906602
 30
0.0
 11
578.3838383832609
 21
26.94755638673907
 31
0.0
  0
LINE
  5
2E4
330
1F
100
AcDbEntity
  8
営業図
  6
CONTINUOUS
 62
    54
100
AcDbLine
 10
579.2676767670962
 20
27.83139477057441
 30
0.0
 11
581.0353535347738
 21
29.59907153825202
 31
0.0
  0
LINE
  5
2E5
330
1F
100
AcDbEntity
  8
営業図
  6
CONTINUOUS
 62
    54
100
AcDbLine
 10
573.9646464640716
 20
22.02838997580232
 30
0.0
 11
575.7323232317491
 21
23.79606674347988
 31
0.0
  0
LINE
  5
2E6
330
1F
100
AcDbEntity
  8
営業図
  6
CONTINUOUS
 62
    54
100
AcDbLine
 10
576.6161616155869
 20
24.67990512731753
 30
0.0
 11
578.3838383832622
 21
26.44758189499283
 31
0.0
  0
LINE
  5
2E7
330
1F
100
AcDbEntity
  8
営業図
  6
CONTINUOUS
 62
    54
100
AcDbLine
 10
579.2676767670976
 20
27.33142027882822
 30
0.0
 11
581.0353535347706
 21
29.09909704650122
 31
0.0
  0
LINE
  5
2E8
330
1F
100
AcDbEntity
  8
営業図
  6
CONTINUOUS
 62
    54
100
AcDbLine
 10
573.9646464640707
 20
21.52841548405388
 30
0.0
 11
575.7323232317506
 21
23.29609225173375
 31
0.0
  0
LINE
  5
2E9
330
1F
100
AcDbEntity
  8
営業図
  6
CONTINUOUS
 62
    54
100
AcDbLine
 10
576.6161616155858
 20
24.17993063556909
 30
0.0
 11
578.383838383259
 21
25.94760740324213
 31
0.0
  0
LINE
  5
2EA
330
1F
100
AcDbEntity
  8
営業図
  6
CONTINUOUS
 62
    54
100
AcDbLine
 10
579.2676767670965
 20
26.83144578707978
 30
0.0
 11
581.035353534772
 21
28.59912255475508
 31
0.0
  0
LINE
  5
2EB
330
1F
100
AcDbEntity
  8
営業図
  6
CONTINUOUS
 62
    54
100
AcDbLine
 10
573.9646464640721
 20
21.02844099230769
 30
0.0
 11
575.7323232317474
 21
22.79611775998294
 31
0.0
  0
LINE
  5
2EC
330
1F
100
AcDbEntity
  8
営業図
  6
CONTINUOUS
 62
    54
100
AcDbLine
 10
576.6161616155873
 20
23.67995614382291
 30
0.0
 11
578.3838383832602
 21
25.4476329114959
 31
0.0
  0
LINE
  5
2ED
330
1F
100
AcDbEntity
  8
営業図
  6
CONTINUOUS
 62
    54
100
AcDbLine
 10
579.2676767670979
 20
26.33147129533355
 30
0.0
 11
581.0353535347709
 21
28.09914806300659
 31
0.0
  0
LINE
  5
2EE
330
1F
100
AcDbEntity
  8
営業図
  6
CONTINUOUS
 62
    54
100
AcDbLine
 10
573.9792938193797
 20
20.54311385586782
 30
0.0
 11
575.7323232317488
 21
22.29614326823682
 31
0.0
  0
LINE
  5
2EF
330
1F
100
AcDbEntity
  8
営業図
  6
CONTINUOUS
 62
    54
100
AcDbLine
 10
576.6161616155863
 20
23.17998165207447
 30
0.0
 11
578.3838383832594
 21
24.94765841974746
 31
0.0
  0
LINE
  5
2F0
330
1F
100
AcDbEntity
  8
営業図
  6
CONTINUOUS
 62
    54
100
AcDbLine
 10
579.2676767670994
 20
25.83149680358742
 30
0.0
 11
581.0353535347723
 21
27.59917357126041
 31
0.0
  0
LINE
  5
2F1
330
1F
100
AcDbEntity
  8
営業図
  6
CONTINUOUS
 62
    54
100
AcDbLine
 10
574.0795202927732
 20
20.14336583751363
 30
0.0
 11
575.7323232317478
 21
21.79616877648833
 31
0.0
  0
LINE
  5
2F2
330
1F
100
AcDbEntity
  8
営業図
  6
CONTINUOUS
 62
    54
100
AcDbLine
 10
576.6161616155877
 20
22.68000716032823
 30
0.0
 11
578.3838383832607
 21
24.44768392800128
 31
0.0
  0
LINE
  5
2F3
330
1F
100
AcDbEntity
  8
営業図
  6
CONTINUOUS
 62
    54
100
AcDbLine
 10
579.2676767670962
 20
25.33152231183667
 30
0.0
 11
581.0353535347691
 21
27.09919907950966
 31
0.0
  0
LINE
  5
2F4
330
1F
100
AcDbEntity
  8
営業図
  6
CONTINUOUS
 62
    54
100
AcDbLine
 10
574.2473722672839
 20
19.81124332027708
 30
0.0
 11
575.7323232317491
 21
21.29619428474214
 31
0.0
  0
LINE
  5
2F5
330
1F
100
AcDbEntity
  8
営業図
  6
CONTINUOUS
 62
    54
100
AcDbLine
 10
576.6161616155845
 20
22.18003266857753
 30
0.0
 11
578.3838383832575
 21
23.94770943625058
 31
0.0
  0
LINE
  5
2F6
330
1F
100
AcDbEntity
  8
営業図
  6
CONTINUOUS
 62
    54
100
AcDbLine
 10
579.2676767670974
 20
24.83154782009048
 30
0.0
 11
581.0353535347706
 21
26.59922458776352
 31
0.0
  0
LINE
  5
2F7
330
1F
100
AcDbEntity
  8
営業図
  6
CONTINUOUS
 62
    54
100
AcDbLine
 10
574.4694458137094
 20
19.53334237495495
 30
0.0
 11
575.8490203809583
 21
20.91291694220379
 31
0.0
  0
LINE
  5
2F8
330
1F
100
AcDbEntity
  8
営業図
  6
CONTINUOUS
 62
    54
100
AcDbLine
 10
576.6161616155858
 20
21.68005817683135
 30
0.0
 11
578.3838383832588
 21
23.44773494450439
 31
0.0
  0
LINE
  5
2F9
330
1F
100
AcDbEntity
  8
営業図
  6
CONTINUOUS
 62
    54
100
AcDbLine
 10
579.2676767670988
 20
24.3315733283443
 30
0.0
 11
581.0353535347718
 21
26.09925009601735
 31
0.0
  0
LINE
  5
2FA
330
1F
100
AcDbEntity
  8
営業図
  6
CONTINUOUS
 62
    54
100
AcDbLine
 10
574.7420355912648
 20
19.30595766076276
 30
0.0
 11
576.2075358714786
 21
20.77145794097658
 31
0.0
  0
LINE
  5
2FB
330
1F
100
AcDbEntity
  8
営業図
  6
CONTINUOUS
 62
    54
100
AcDbLine
 10
576.6149056947921
 20
21.17882776429012
 30
0.0
 11
578.3838383832602
 21
22.94776045275821
 31
0.0
  0
LINE
  5
2FC
330
1F
100
AcDbEntity
  8
営業図
  6
CONTINUOUS
 62
    54
100
AcDbLine
 10
579.2676767670979
 20
23.83159883659586
 30
0.0
 11
581.0353535347709
 21
25.59927560426885
 31
0.0
  0
LINE
  5
2FD
330
1F
100
AcDbEntity
  8
営業図
  6
CONTINUOUS
 62
    54
100
AcDbLine
 10
575.0681133175842
 20
19.13206089533471
 30
0.0
 11
578.3838383832594
 21
22.44778596100977
 31
0.0
  0
LINE
  5
2FE
330
1F
100
AcDbEntity
  8
営業図
  6
CONTINUOUS
 62
    54
100
AcDbLine
 10
579.2676767670993
 20
23.33162434484968
 30
0.0
 11
581.0353535347723
 21
25.09930111252272
 31
0.0
  0
LINE
  5
2FF
330
1F
100
AcDbEntity
  8
営業図
  6
CONTINUOUS
 62
    54
100
AcDbLine
 10
575.4597013841022
 20
19.02367447010509
 30
0.0
 11
578.3838383832607
 21
21.94781146926353
 31
0.0
  0
LINE
  5
300
330
1F
100
AcDbEntity
  8
営業図
  6
CONTINUOUS
 62
    54
100
AcDbLine
 10
579.267676767096
 20
22.83164985309892
 30
0.0
 11
581.0353535347714
 21
24.59932662077423
 31
0.0
  0
LINE
  5
301
330
1F
100
AcDbEntity
  8
営業図
  6
CONTINUOUS
 62
    54
100
AcDbLine
 10
575.9385266582515
 20
19.00252525250673
 30
0.0
 11
578.3838383832575
 21
21.44783697751283
 31
0.0
  0
LINE
  5
302
330
1F
100
AcDbEntity
  8
営業図
  6
CONTINUOUS
 62
    54
100
AcDbLine
 10
579.2676767670973
 20
22.33167536135275
 30
0.0
 11
581.0353535347704
 21
24.09935212902579
 31
0.0
  0
LINE
  5
303
330
1F
100
AcDbEntity
  8
営業図
  6
CONTINUOUS
 62
    54
100
AcDbLine
 10
576.4620960899558
 20
19.02612019246369
 30
0.0
 11
578.4373351598512
 21
21.00135926235901
 31
0.0
  0
LINE
  5
304
330
1F
100
AcDbEntity
  8
営業図
  6
CONTINUOUS
 62
    54
100
AcDbLine
 10
579.2676767670964
 20
21.83170086960425
 30
0.0
 11
581.0353535347717
 21
23.59937763727956
 31
0.0
  0
LINE
  5
305
330
1F
100
AcDbEntity
  8
営業図
  6
CONTINUOUS
 62
    54
100
AcDbLine
 10
577.5174501951274
 20
19.58149980588772
 30
0.0
 11
578.7191932719086
 21
20.78324288266884
 31
0.0
  0
LINE
  5
306
330
1F
100
AcDbEntity
  8
営業図
  6
CONTINUOUS
 62
    54
100
AcDbLine
 10
579.2676767670979
 20
21.33172637785812
 30
0.0
 11
581.0353535347732
 21
23.09940314553342
 31
0.0
  0
LINE
  5
307
330
1F
100
AcDbEntity
  8
営業図
  6
CONTINUOUS
 62
    54
100
AcDbLine
 10
577.780559555987
 20
19.34463467499982
 30
0.0
 11
581.0353535347722
 21
22.59942865378493
 31
0.0
  0
LINE
  5
308
330
1F
100
AcDbEntity
  8
営業図
  6
CONTINUOUS
 62
    54
100
AcDbLine
 10
578.096062282982
 20
19.16016291024707
 30
0.0
 11
581.0353535347735
 21
22.09945416203875
 31
0.0
  0
LINE
  5
309
330
1F
100
AcDbEntity
  8
営業図
  6
CONTINUOUS
 62
    54
100
AcDbLine
 10
578.4737934557277
 20
19.03791959124537
 30
0.0
 11
581.0353535347725
 21
21.59947967029026
 31
0.0
  0
LINE
  5
30A
330
1F
100
AcDbEntity
  8
営業図
  6
CONTINUOUS
 62
    54
100
AcDbLine
 10
578.9383736087352
 20
19.00252525250543
 30
0.0
 11
581.0353535347716
 21
21.09950517854182
 31
0.0
  0
LINE
  5
30B
330
1F
100
AcDbEntity
  8
営業図
  6
CONTINUOUS
 62
    54
100
AcDbLine
 10
579.4475205716158
 20
19.0116977236384
 30
0.0
 11
581.0261810636364
 21
20.59035821565904
 31
0.0
  0
LINE
  5
30C
330
1F
100
AcDbEntity
  8
営業図
  6
CONTINUOUS
 62
    54
100
AcDbLine
 10
580.211181917483
 20
19.27538457775811
 30
0.0
 11
580.7624942095213
 21
19.82669686979636
 31
0.0
  0
LINE
  5
30D
330
1F
100
AcDbEntity
  8
営業図
  6
CONTINUOUS
 62
    54
100
AcDbLine
 10
575.4711936762219
 20
19.02191928840968
 30
0.0
 11
573.9840404999741
 21
20.50907246465756
 31
0.0
  0
LINE
  5
30E
330
1F
100
AcDbEntity
  8
営業図
  6
CONTINUOUS
 62
    54
100
AcDbLine
 10
575.9905622038714
 20
19.00252525250779
 30
0.0
 11
573.96464646407
 21
21.02844099230936
 31
0.0
  0
LINE
  5
30F
330
1F
100
AcDbEntity
  8
営業図
  6
CONTINUOUS
 62
    54
100
AcDbLine
 10
576.466250930289
 20
19.02681101783772
 30
0.0
 11
573.9646464640712
 21
21.52841548405549
 31
0.0
  0
LINE
  5
310
330
1F
100
AcDbEntity
  8
営業図
  6
CONTINUOUS
 62
    54
100
AcDbLine
 10
576.8544131034621
 20
19.13862333641223
 30
0.0
 11
573.9646464640704
 21
22.02838997580398
 31
0.0
  0
LINE
  5
311
330
1F
100
AcDbEntity
  8
営業図
  6
CONTINUOUS
 62
    54
100
AcDbLine
 10
577.1779127195038
 20
19.31509821211797
 30
0.0
 11
573.9646464640716
 21
22.52836446755016
 31
0.0
  0
LINE
  5
312
330
1F
100
AcDbEntity
  8
営業図
  6
CONTINUOUS
 62
    54
100
AcDbLine
 10
577.4482134858933
 20
19.54477193747597
 30
0.0
 11
576.220369465192
 21
20.77261595817735
 31
0.0
  0
LINE
  5
313
330
1F
100
AcDbEntity
  8
営業図
  6
CONTINUOUS
 62
    54
100
AcDbLine
 10
575.732323231746
 20
21.26066219162335
 30
0.0
 11
573.9646464640707
 21
23.02833895929865
 31
0.0
  0
LINE
  5
314
330
1F
100
AcDbEntity
  8
営業図
  6
CONTINUOUS
 62
    54
100
AcDbLine
 10
578.450045174799
 20
19.04291474031781
 30
0.0
 11
576.5354457344572
 21
20.95751418065965
 31
0.0
  0
LINE
  5
315
330
1F
100
AcDbEntity
  8
営業図
  6
CONTINUOUS
 62
    54
100
AcDbLine
 10
575.7323232317474
 20
21.76063668336948
 30
0.0
 11
573.9646464640698
 21
23.52831345104704
 31
0.0
  0
LINE
  5
316
330
1F
100
AcDbEntity
  8
営業図
  6
CONTINUOUS
 62
    54
100
AcDbLine
 10
578.9904091543577
 20
19.00252525250678
 30
0.0
 11
576.616161615584
 21
21.37677279128032
 31
0.0
  0
LINE
  5
317
330
1F
100
AcDbEntity
  8
営業図
  6
CONTINUOUS
 62
    54
100
AcDbLine
 10
575.7323232317465
 20
22.26061117511797
 30
0.0
 11
573.9646464640712
 21
24.02828794279328
 31
0.0
  0
LINE
  5
318
330
1F
100
AcDbEntity
  8
営業図
  6
CONTINUOUS
 62
    54
100
AcDbLine
 10
579.4778451636046
 20
19.0150637350073
 30
0.0
 11
576.6161616155831
 21
21.87674728302877
 31
0.0
  0
LINE
  5
319
330
1F
100
AcDbEntity
  8
営業図
  6
CONTINUOUS
 62
    54
100
AcDbLine
 10
575.7323232317456
 20
22.76058566686642
 30
0.0
 11
573.9646464640701
 21
24.52826243454172
 31
0.0
  0
LINE
  5
31A
330
1F
100
AcDbEntity
  8
営業図
  6
CONTINUOUS
 62
    54
100
AcDbLine
 10
579.8806687130622
 20
19.11221467729737
 30
0.0
 11
576.6161616155846
 21
22.376721774775
 31
0.0
  0
LINE
  5
31B
330
1F
100
AcDbEntity
  8
営業図
  6
CONTINUOUS
 62
    54
100
AcDbLine
 10
575.7323232317469
 20
23.26056015861265
 30
0.0
 11
573.9646464640693
 21
25.02823692629021
 31
0.0
  0
LINE
  5
31C
330
1F
100
AcDbEntity
  8
営業図
  6
CONTINUOUS
 62
    54
100
AcDbLine
 10
580.2150345986779
 20
19.27782328342913
 30
0.0
 11
578.7061665109139
 21
20.78669137119314
 31
0.0
  0
LINE
  5
31D
330
1F
100
AcDbEntity
  8
営業図
  6
CONTINUOUS
 62
    54
100
AcDbLine
 10
578.4003277342728
 20
21.09253014783427
 30
0.0
 11
576.6161616155837
 21
22.87669626652339
 31
0.0
  0
LINE
  5
31E
330
1F
100
AcDbEntity
  8
営業図
  6
CONTINUOUS
 62
    54
100
AcDbLine
 10
575.7323232317459
 20
23.76053465036104
 30
0.0
 11
573.9646464640707
 21
25.52821141803634
 31
0.0
  0
LINE
  5
31F
330
1F
100
AcDbEntity
  8
営業図
  6
CONTINUOUS
 62
    54
100
AcDbLine
 10
580.4948868449894
 20
19.49794552886513
 30
0.0
 11
579.1149056556469
 21
20.87792671820766
 31
0.0
  0
LINE
  5
320
330
1F
100
AcDbEntity
  8
営業図
  6
CONTINUOUS
 62
    54
100
AcDbLine
 10
578.3838383832602
 20
21.60899399059432
 30
0.0
 11
576.6161616155827
 21
23.37667075827188
 31
0.0
  0
LINE
  5
321
330
1F
100
AcDbEntity
  8
営業図
  6
CONTINUOUS
 62
    54
100
AcDbLine
 10
575.732323231745
 20
24.26050914210953
 30
0.0
 11
573.9646464640698
 21
26.02818590978483
 31
0.0
  0
LINE
  5
322
330
1F
100
AcDbEntity
  8
営業図
  6
CONTINUOUS
 62
    54
100
AcDbLine
 10
580.7242057713327
 20
19.76860109426935
 30
0.0
 11
579.2676767670947
 21
21.22513009850737
 31
0.0
  0
LINE
  5
323
330
1F
100
AcDbEntity
  8
営業図
  6
CONTINUOUS
 62
    54
100
AcDbLine
 10
578.3838383832592
 20
22.10896848234276
 30
0.0
 11
576.616161615584
 21
23.87664525001806
 31
0.0
  0
LINE
  5
324
330
1F
100
AcDbEntity
  8
営業図
  6
CONTINUOUS
 62
    54
100
AcDbLine
 10
575.7323232317442
 20
24.76048363385797
 30
0.0
 11
573.964646464071
 21
26.52816040153101
 31
0.0
  0
LINE
  5
325
330
1F
100
AcDbEntity
  8
営業図
  6
CONTINUOUS
 62
    54
100
AcDbLine
 10
580.9002820885705
 20
20.09249926877917
 30
0.0
 11
579.2676767670984
 21
21.72510459025134
 31
0.0
  0
LINE
  5
326
330
1F
100
AcDbEntity
  8
営業図
  6
CONTINUOUS
 62
    54
100
AcDbLine
 10
578.3838383832607
 20
22.60894297408899
 30
0.0
 11
576.6161616155855
 21
24.37661974176429
 31
0.0
  0
LINE
  5
327
330
1F
100
AcDbEntity
  8
営業図
  6
CONTINUOUS
 62
    54
100
AcDbLine
 10
575.7323232317456
 20
25.26045812560421
 30
0.0
 11
573.9646464640701
 21
27.02813489327951
 31
0.0
  0
LINE
  5
328
330
1F
100
AcDbEntity
  8
営業図
  6
CONTINUOUS
 62
    54
100
AcDbLine
 10
581.0115668518113
 20
20.48118899728586
 30
0.0
 11
579.2676767670973
 21
22.22507908199973
 31
0.0
  0
LINE
  5
329
330
1F
100
AcDbEntity
  8
営業図
  6
CONTINUOUS
 62
    54
100
AcDbLine
 10
578.3838383832598
 20
23.10891746583739
 30
0.0
 11
576.6161616155845
 21
24.87659423351268
 31
0.0
  0
LINE
  5
32A
330
1F
100
AcDbEntity
  8
営業図
  6
CONTINUOUS
 62
    54
100
AcDbLine
 10
575.7323232317467
 20
25.76043261735034
 30
0.0
 11
573.9646464640692
 21
27.52810938502795
 31
0.0
  0
LINE
  5
32B
330
1F
100
AcDbEntity
  8
営業図
  6
CONTINUOUS
 62
    54
100
AcDbLine
 10
581.0353535347717
 20
20.95737680607293
 30
0.0
 11
579.2676767670965
 21
22.72505357374822
 31
0.0
  0
LINE
  5
32C
330
1F
100
AcDbEntity
  8
営業図
  6
CONTINUOUS
 62
    54
100
AcDbLine
 10
578.383838383261
 20
23.60889195758362
 30
0.0
 11
576.6161616155836
 21
25.37656872526118
 31
0.0
  0
LINE
  5
32D
330
1F
100
AcDbEntity
  8
営業図
  6
CONTINUOUS
 62
    54
100
AcDbLine
 10
575.7323232317459
 20
26.26040710909883
 30
0.0
 11
573.9646464640705
 21
28.02808387677413
 31
0.0
  0
LINE
  5
32E
330
1F
100
AcDbEntity
  8
営業図
  6
CONTINUOUS
 62
    54
100
AcDbLine
 10
581.0353535347732
 20
21.45735129781911
 30
0.0
 11
579.2676767670955
 21
23.22502806549667
 31
0.0
  0
LINE
  5
32F
330
1F
100
AcDbEntity
  8
営業図
  6
CONTINUOUS
 62
    54
100
AcDbLine
 10
578.3838383832601
 20
24.10886644933206
 30
0.0
 11
576.6161616155827
 21
25.87654321700962
 31
0.0
  0
LINE
  5
330
330
1F
100
AcDbEntity
  8
営業図
  6
CONTINUOUS
 62
    54
100
AcDbLine
 10
575.7323232317449
 20
26.76038160084727
 30
0.0
 11
573.964646464072
 21
28.52805836852031
 31
0.0
  0
LINE
  5
331
330
1F
100
AcDbEntity
  8
営業図
  6
CONTINUOUS
 62
    54
100
AcDbLine
 10
581.0353535347722
 20
21.95732578956755
 30
0.0
 11
579.2676767670969
 21
23.72500255724285
 31
0.0
  0
LINE
  5
332
330
1F
100
AcDbEntity
  8
営業図
  6
CONTINUOUS
 62
    54
100
AcDbLine
 10
578.3838383832615
 20
24.60884094107819
 30
0.0
 11
576.6161616155839
 21
26.3765177087558
 31
0.0
  0
LINE
  5
333
330
1F
100
AcDbEntity
  8
営業図
  6
CONTINUOUS
 62
    54
100
AcDbLine
 10
575.7323232317464
 20
27.26035609259345
 30
0.0
 11
573.9646464640709
 21
29.02803286026876
 31
0.0
  0
LINE
  5
334
330
1F
100
AcDbEntity
  8
営業図
  6
CONTINUOUS
 62
    54
100
AcDbLine
 10
581.0353535347714
 20
22.45730028131604
 30
0.0
 11
579.267676767096
 21
24.22497704899134
 31
0.0
  0
LINE
  5
335
330
1F
100
AcDbEntity
  8
営業図
  6
CONTINUOUS
 62
    54
100
AcDbLine
 10
578.3838383832607
 20
25.10881543282668
 30
0.0
 11
576.6161616155831
 21
26.87649220050429
 31
0.0
  0
LINE
  5
336
330
1F
100
AcDbEntity
  8
営業図
  6
CONTINUOUS
 62
    54
100
AcDbLine
 10
575.7323232317453
 20
27.76033058434194
 30
0.0
 11
573.9646464640724
 21
29.52800735201493
 31
0.0
  0
LINE
  5
337
330
1F
100
AcDbEntity
  8
営業図
  6
CONTINUOUS
 62
    54
100
AcDbLine
 10
581.0353535347725
 20
22.95727477306217
 30
0.0
 11
579.267676767095
 21
24.72495154073978
 31
0.0
  0
LINE
  5
338
330
1F
100
AcDbEntity
  8
営業図
  6
CONTINUOUS
 62
    54
100
AcDbLine
 10
578.3838383832597
 20
25.60878992457512
 30
0.0
 11
576.6161616155821
 21
27.37646669225269
 31
0.0
  0
LINE
  5
339
330
1F
100
AcDbEntity
  8
営業図
  6
CONTINUOUS
 62
    54
100
AcDbLine
 10
575.7323232317467
 20
28.26030507608808
 30
0.0
 11
573.9646464640713
 21
30.02798184376338
 31
0.0
  0
LINE
  5
33A
330
1F
100
AcDbEntity
  8
営業図
  6
CONTINUOUS
 62
    54
100
AcDbLine
 10
581.0353535347717
 20
23.45724926481066
 30
0.0
 11
579.2676767670964
 21
25.22492603248597
 31
0.0
  0
LINE
  5
33B
330
1F
100
AcDbEntity
  8
営業図
  6
CONTINUOUS
 62
    54
100
AcDbLine
 10
578.383838383261
 20
26.10876441632136
 30
0.0
 11
576.6161616155835
 21
27.87644118399892
 31
0.0
  0
LINE
  5
33C
330
1F
100
AcDbEntity
  8
営業図
  6
CONTINUOUS
 62
    54
100
AcDbLine
 10
575.7323232317457
 20
28.76027956783657
 30
0.0
 11
573.9646464640705
 21
30.52795633551187
 31
0.0
  0
LINE
  5
33D
330
1F
100
AcDbEntity
  8
営業図
  6
CONTINUOUS
 62
    54
100
AcDbLine
 10
581.0353535347708
 20
23.95722375655911
 30
0.0
 11
579.2676767670955
 21
25.72490052423441
 31
0.0
  0
LINE
  5
33E
330
1F
100
AcDbEntity
  8
営業図
  6
CONTINUOUS
 62
    54
100
AcDbLine
 10
578.38383838326
 20
26.6087389080698
 30
0.0
 11
576.6161616155848
 21
28.3764156757451
 31
0.0
  0
LINE
  5
33F
330
1F
100
AcDbEntity
  8
営業図
  6
CONTINUOUS
 62
    54
100
AcDbLine
 10
575.7323232317472
 20
29.26025405958275
 30
0.0
 11
573.9646464640718
 21
31.02793082725805
 31
0.0
  0
LINE
  5
340
330
1F
100
AcDbEntity
  8
営業図
  6
CONTINUOUS
 62
    54
100
AcDbLine
 10
581.0353535347722
 20
24.45719824830534
 30
0.0
 11
579.2676767670969
 21
26.22487501598064
 31
0.0
  0
LINE
  5
341
330
1F
100
AcDbEntity
  8
営業図
  6
CONTINUOUS
 62
    54
100
AcDbLine
 10
578.3838383832615
 20
27.10871339981598
 30
0.0
 11
576.6161616155839
 21
28.87639016749354
 31
0.0
  0
LINE
  5
342
330
1F
100
AcDbEntity
  8
営業図
  6
CONTINUOUS
 62
    54
100
AcDbLine
 10
575.7323232317462
 20
29.7602285513312
 30
0.0
 11
573.9646464640709
 21
31.52790531900649
 31
0.0
  0
LINE
  5
343
330
1F
100
AcDbEntity
  8
営業図
  6
CONTINUOUS
 62
    54
100
AcDbLine
 10
581.0353535347712
 20
24.95717274005373
 30
0.0
 11
579.267676767096
 21
26.72484950772903
 31
0.0
  0
LINE
  5
344
330
1F
100
AcDbEntity
  8
営業図
  6
CONTINUOUS
 62
    54
100
AcDbLine
 10
578.3838383832605
 20
27.60868789156442
 30
0.0
 11
576.6161616155853
 21
29.37636465923972
 31
0.0
  0
LINE
  5
345
330
1F
100
AcDbEntity
  8
営業図
  6
CONTINUOUS
 62
    54
100
AcDbLine
 10
575.7323232317476
 20
30.26020304307737
 30
0.0
 11
573.9646464640723
 21
32.02787981075267
 31
0.0
  0
LINE
  5
346
330
1F
100
AcDbEntity
  8
営業図
  6
CONTINUOUS
 62
    54
100
AcDbLine
 10
581.0353535347725
 20
25.45714723179996
 30
0.0
 11
579.2676767670949
 21
27.22482399947753
 31
0.0
  0
LINE
  5
347
330
1F
100
AcDbEntity
  8
営業図
  6
CONTINUOUS
 62
    54
100
AcDbLine
 10
578.3838383832597
 20
28.10866238331291
 30
0.0
 11
576.6161616155842
 21
29.87633915098822
 31
0.0
  0
LINE
  5
348
330
1F
100
AcDbEntity
  8
営業図
  6
CONTINUOUS
 62
    54
100
AcDbLine
 10
575.7323232317467
 20
30.76017753482586
 30
0.0
 11
573.9646464640713
 21
32.52785430250117
 31
0.0
  0
LINE
  5
349
330
1F
100
AcDbEntity
  8
営業図
  6
CONTINUOUS
 62
    54
100
AcDbLine
 10
581.0353535347715
 20
25.9571217235484
 30
0.0
 11
579.2676767670964
 21
27.7247984912237
 31
0.0
  0
LINE
  5
34A
330
1F
100
AcDbEntity
  8
営業図
  6
CONTINUOUS
 62
    54
100
AcDbLine
 10
578.3838383832609
 20
28.60863687505909
 30
0.0
 11
576.6161616155833
 21
30.37631364273665
 31
0.0
  0
LINE
  5
34B
330
1F
100
AcDbEntity
  8
営業図
  6
CONTINUOUS
 62
    54
100
AcDbLine
 10
575.7323232317457
 20
31.26015202657431
 30
0.0
 11
573.9646464640705
 21
33.02782879424961
 31
0.0
  0
LINE
  5
34C
330
1F
100
AcDbEntity
  8
営業図
  6
CONTINUOUS
 62
    54
100
AcDbLine
 10
581.0353535347708
 20
26.4570962152969
 30
0.0
 11
579.2676767670954
 21
28.22477298297219
 31
0.0
  0
LINE
  5
34D
330
1F
100
AcDbEntity
  8
営業図
  6
CONTINUOUS
 62
    54
100
AcDbLine
 10
578.38383838326
 20
29.10861136680754
 30
0.0
 11
576.6161616155848
 21
30.87628813448284
 31
0.0
  0
LINE
  5
34E
330
1F
100
AcDbEntity
  8
営業図
  6
CONTINUOUS
 62
    54
100
AcDbLine
 10
575.7323232317449
 20
31.7601265183228
 30
0.0
 11
573.9646464640717
 21
33.52780328599579
 31
0.0
  0
LINE
  5
34F
330
1F
100
AcDbEntity
  8
営業図
  6
CONTINUOUS
 62
    54
100
AcDbLine
 10
581.0353535347721
 20
26.95707070704302
 30
0.0
 11
579.2676767670945
 21
28.72474747472064
 31
0.0
  0
LINE
  5
350
330
1F
100
AcDbEntity
  8
営業図
  6
CONTINUOUS
 62
    54
100
AcDbLine
 10
578.383838383259
 20
29.60858585855598
 30
0.0
 11
576.6161616155839
 21
31.37626262623128
 31
0.0
  0
LINE
  5
351
330
1F
100
AcDbEntity
  8
営業図
  6
CONTINUOUS
 62
    54
100
AcDbLine
 10
575.7323232317461
 20
32.26010101006893
 30
0.0
 11
573.9646464640686
 21
34.02777777774649
 31
0.0
  0
LINE
  5
352
330
1F
100
AcDbEntity
  8
営業図
  6
CONTINUOUS
 62
    54
100
AcDbLine
 10
581.0353535347712
 20
27.45704519879152
 30
0.0
 11
579.2676767670958
 21
29.22472196646682
 31
0.0
  0
LINE
  5
353
330
1F
100
AcDbEntity
  8
営業図
  6
CONTINUOUS
 62
    54
100
AcDbLine
 10
578.3838383832605
 20
30.10856035030221
 30
0.0
 11
576.6161616155829
 21
31.87623711797977
 31
0.0
  0
LINE
  5
354
330
1F
100
AcDbEntity
  8
営業図
  6
CONTINUOUS
 62
    54
100
AcDbLine
 10
575.7323232317452
 20
32.76007550181743
 30
0.0
 11
574.4646209558148
 21
34.0277777777479
 31
0.0
  0
LINE
  5
355
330
1F
100
AcDbEntity
  8
営業図
  6
CONTINUOUS
 62
    54
100
AcDbLine
 10
581.0353535347725
 20
27.9570196905377
 30
0.0
 11
579.2676767670949
 21
29.72469645821526
 31
0.0
  0
LINE
  5
356
330
1F
100
AcDbEntity
  8
営業図
  6
CONTINUOUS
 62
    54
100
AcDbLine
 10
578.3838383832618
 20
30.60853484204839
 30
0.0
 11
576.616161615582
 21
32.37621160972822
 31
0.0
  0
LINE
  5
357
330
1F
100
AcDbEntity
  8
営業図
  6
CONTINUOUS
 62
    54
100
AcDbLine
 10
575.7323232317444
 20
33.26004999356586
 30
0.0
 11
574.9645954475632
 21
34.02777777774694
 31
0.0
  0
LINE
  5
358
330
1F
100
AcDbEntity
  8
営業図
  6
CONTINUOUS
 62
    54
100
AcDbLine
 10
581.0353535347715
 20
28.45699418228619
 30
0.0
 11
579.2676767670964
 21
30.22467094996149
 31
0.0
  0
LINE
  5
359
330
1F
100
AcDbEntity
  8
営業図
  6
CONTINUOUS
 62
    54
100
AcDbLine
 10
578.3838383832609
 20
31.10850933379684
 30
0.0
 11
576.6161616155833
 21
32.87618610147445
 31
0.0
  0
LINE
  5
35A
330
1F
100
AcDbEntity
  8
営業図
  6
CONTINUOUS
 62
    54
100
AcDbLine
 10
575.732323231748
 20
33.76002448530978
 30
0.0
 11
575.4645699393118
 21
34.02777777774604
 31
0.0
  0
LINE
  5
35B
330
1F
100
AcDbEntity
  8
営業図
  6
CONTINUOUS
 62
    54
100
AcDbLine
 10
581.0353535347706
 20
28.95696867403463
 30
0.0
 11
579.2676767670976
 21
30.72464544170762
 31
0.0
  0
LINE
  5
35C
330
1F
100
AcDbEntity
  8
営業図
  6
CONTINUOUS
 62
    54
100
AcDbLine
 10
578.3838383832623
 20
31.60848382554302
 30
0.0
 11
576.6161616155846
 21
33.37616059322058
 31
0.0
  0
LINE
  5
35D
330
1F
100
AcDbEntity
  8
営業図
  6
CONTINUOUS
 62
    54
100
AcDbLine
 10
581.035353534772
 20
29.45694316578081
 30
0.0
 11
579.2676767670968
 21
31.22461993345612
 31
0.0
  0
LINE
  5
35E
330
1F
100
AcDbEntity
  8
営業図
  6
CONTINUOUS
 62
    54
100
AcDbLine
 10
578.3838383832613
 20
32.10845831729151
 30
0.0
 11
576.6161616155838
 21
33.87613508496906
 31
0.0
  0
LINE
  5
35F
330
1F
100
AcDbEntity
  8
営業図
  6
CONTINUOUS
 62
    54
100
AcDbLine
 10
581.035353534771
 20
29.95691765752926
 30
0.0
 11
579.2676767670957
 21
31.72459442520456
 31
0.0
  0
LINE
  5
360
330
1F
100
AcDbEntity
  8
営業図
  6
CONTINUOUS
 62
    54
100
AcDbLine
 10
578.3838383832604
 20
32.60843280903995
 30
0.0
 11
576.9644934145571
 21
34.02777777774327
 31
0.0
  0
LINE
  5
361
330
1F
100
AcDbEntity
  8
営業図
  6
CONTINUOUS
 62
    54
100
AcDbLine
 10
581.0353535347701
 20
30.45689214927775
 30
0.0
 11
579.2676767670948
 21
32.22456891695305
 31
0.0
  0
LINE
  5
362
330
1F
100
AcDbEntity
  8
営業図
  6
CONTINUOUS
 62
    54
100
AcDbLine
 10
578.3838383832594
 20
33.10840730078844
 30
0.0
 11
577.4644679063032
 21
34.02777777774463
 31
0.0
  0
LINE
  5
363
330
1F
100
AcDbEntity
  8
営業図
  6
CONTINUOUS
 62
    54
100
AcDbLine
 10
581.0353535347738
 20
30.95686664102162
 30
0.0
 11
579.2676767670962
 21
32.72454340869923
 31
0.0
  0
LINE
  5
364
330
1F
100
AcDbEntity
  8
営業図
  6
CONTINUOUS
 62
    54
100
AcDbLine
 10
578.3838383832609
 20
33.60838179253457
 30
0.0
 11
577.9644423980517
 21
34.02777777774368
 31
0.0
  0
LINE
  5
365
330
1F
100
AcDbEntity
  8
営業図
  6
CONTINUOUS
 62
    54
100
AcDbLine
 10
581.0353535347729
 20
31.45684113277012
 30
0.0
 11
579.2676767670954
 21
33.22451790044767
 31
0.0
  0
LINE
  5
366
330
1F
100
AcDbEntity
  8
営業図
  6
CONTINUOUS
 62
    54
100
AcDbLine
 10
581.035353534772
 20
31.95681562451856
 30
0.0
 11
579.2676767670944
 21
33.72449239219612
 31
0.0
  0
LINE
  5
367
330
1F
100
AcDbEntity
  8
営業図
  6
CONTINUOUS
 62
    54
100
AcDbLine
 10
581.0353535347733
 20
32.45679011626473
 30
0.0
 11
579.4643658732925
 21
34.02777777774544
 31
0.0
  0
LINE
  5
368
330
1F
100
AcDbEntity
  8
営業図
  6
CONTINUOUS
 62
    54
100
AcDbLine
 10
581.0353535347723
 20
32.95676460801323
 30
0.0
 11
579.9643403650409
 21
34.02777777774453
 31
0.0
  0
LINE
  5
369
330
1F
100
AcDbEntity
  8
営業図
  6
CONTINUOUS
 62
    54
100
AcDbLine
 10
581.0353535347714
 20
33.45673909976162
 30
0.0
 11
580.4643148567895
 21
34.02777777774358
 31
0.0
  0
LINE
  5
36A
330
1F
100
AcDbEntity
  8
営業図
  6
CONTINUOUS
 62
    54
100
AcDbLine
 10
581.0353535347706
 20
33.95671359151011
 30
0.0
 11
580.9642893485357
 21
34.02777777774499
 31
0.0
  0
LINE
  5
36B
330
1F
100
AcDbEntity
  8
営業図
  6
CONTINUOUS
 62
    54
100
AcDbLine
 10
581.9385859545152
 20
32.52123056559617
 30
0.0
 11
583.4257391307586
 21
34.00838374183947
 31
0.0
  0
LINE
  5
36C
330
1F
100
AcDbEntity
  8
営業図
  6
CONTINUOUS
 62
    54
100
AcDbLine
 10
581.919191918611
 20
32.00186203794437
 30
0.0
 11
583.9451076584105
 21
34.02777777774368
 31
0.0
  0
LINE
  5
36D
330
1F
100
AcDbEntity
  8
営業図
  6
CONTINUOUS
 62
    54
100
AcDbLine
 10
581.9191919186102
 20
31.50188754619593
 30
0.0
 11
584.4450821501612
 21
34.02777777774689
 31
0.0
  0
LINE
  5
36E
330
1F
100
AcDbEntity
  8
営業図
  6
CONTINUOUS
 62
    54
100
AcDbLine
 10
581.9191919186115
 20
31.00191305444975
 30
0.0
 11
584.911829774256
 21
33.99455091009418
 31
0.0
  0
LINE
  5
36F
330
1F
100
AcDbEntity
  8
営業図
  6
CONTINUOUS
 62
    54
100
AcDbLine
 10
581.9191919186129
 20
30.50193856270357
 30
0.0
 11
585.2914298845674
 21
33.87417652865804
 31
0.0
  0
LINE
  5
370
330
1F
100
AcDbEntity
  8
営業図
  6
CONTINUOUS
 62
    54
100
AcDbLine
 10
581.9191919186097
 20
30.00196407095281
 30
0.0
 11
583.6868686862847
 21
31.76964083862788
 31
0.0
  0
LINE
  5
371
330
1F
100
AcDbEntity
  8
営業図
  6
CONTINUOUS
 62
    54
100
AcDbLine
 10
581.919191918611
 20
29.50198957920669
 30
0.0
 11
583.6868686862847
 21
31.26966634688037
 31
0.0
  0
LINE
  5
372
330
1F
100
AcDbEntity
  8
営業図
  6
CONTINUOUS
 62
    54
100
AcDbLine
 10
581.9191919186102
 20
29.00201508745819
 30
0.0
 11
583.6868686862847
 21
30.76969185513284
 31
0.0
  0
LINE
  5
373
330
1F
100
AcDbEntity
  8
営業図
  6
CONTINUOUS
 62
    54
100
AcDbLine
 10
581.9191919186114
 20
28.50204059571201
 30
0.0
 11
583.6868686862847
 21
30.26971736338529
 31
0.0
  0
LINE
  5
374
330
1F
100
AcDbEntity
  8
営業図
  6
CONTINUOUS
 62
    54
100
AcDbLine
 10
581.9191919186105
 20
28.00206610396352
 30
0.0
 11
583.6868686862847
 21
29.76974287163772
 31
0.0
  0
LINE
  5
375
330
1F
100
AcDbEntity
  8
営業図
  6
CONTINUOUS
 62
    54
100
AcDbLine
 10
581.9191919186119
 20
27.50209161221738
 30
0.0
 11
583.6868686862847
 21
29.26976837989025
 31
0.0
  0
LINE
  5
376
330
1F
100
AcDbEntity
  8
営業図
  6
CONTINUOUS
 62
    54
100
AcDbLine
 10
581.919191918611
 20
27.00211712046895
 30
0.0
 11
583.6868686862847
 21
28.76979388814267
 31
0.0
  0
LINE
  5
377
330
1F
100
AcDbEntity
  8
営業図
  6
CONTINUOUS
 62
    54
100
AcDbLine
 10
581.9191919186101
 20
26.50214262872045
 30
0.0
 11
583.6868686862847
 21
28.26981939639518
 31
0.0
  0
LINE
  5
378
330
1F
100
AcDbEntity
  8
営業図
  6
CONTINUOUS
 62
    54
100
AcDbLine
 10
581.9191919186114
 20
26.00216813697427
 30
0.0
 11
583.6868686862847
 21
27.7698449046476
 31
0.0
  0
LINE
  5
379
330
1F
100
AcDbEntity
  8
営業図
  6
CONTINUOUS
 62
    54
100
AcDbLine
 10
581.9191919186105
 20
25.50219364522578
 30
0.0
 11
583.6868686862847
 21
27.26987041290008
 31
0.0
  0
LINE
  5
37A
330
1F
100
AcDbEntity
  8
営業図
  6
CONTINUOUS
 62
    54
100
AcDbLine
 10
581.9191919186119
 20
25.00221915347965
 30
0.0
 11
583.6868686862847
 21
26.76989592115256
 31
0.0
  0
LINE
  5
37B
330
1F
100
AcDbEntity
  8
営業図
  6
CONTINUOUS
 62
    54
100
AcDbLine
 10
581.9191919186109
 20
24.50224466173115
 30
0.0
 11
583.6868686862847
 21
26.26992142940505
 31
0.0
  0
LINE
  5
37C
330
1F
100
AcDbEntity
  8
営業図
  6
CONTINUOUS
 62
    54
100
AcDbLine
 10
581.9191919186101
 20
24.00227016998272
 30
0.0
 11
583.6868686862847
 21
25.76994693765745
 31
0.0
  0
LINE
  5
37D
330
1F
100
AcDbEntity
  8
営業図
  6
CONTINUOUS
 62
    54
100
AcDbLine
 10
581.9191919186112
 20
23.50229567823648
 30
0.0
 11
583.6868686862847
 21
25.26997244590994
 31
0.0
  0
LINE
  5
37E
330
1F
100
AcDbEntity
  8
営業図
  6
CONTINUOUS
 62
    54
100
AcDbLine
 10
581.9191919186105
 20
23.00232118648809
 30
0.0
 11
583.6868686862847
 21
24.76999795416241
 31
0.0
  0
LINE
  5
37F
330
1F
100
AcDbEntity
  8
営業図
  6
CONTINUOUS
 62
    54
100
AcDbLine
 10
581.9191919186118
 20
22.50234669474186
 30
0.0
 11
583.6868686862847
 21
24.27002346241485
 31
0.0
  0
LINE
  5
380
330
1F
100
AcDbEntity
  8
営業図
  6
CONTINUOUS
 62
    54
100
AcDbLine
 10
581.9191919186086
 20
22.00237220299115
 30
0.0
 11
583.6868686862847
 21
23.77004897066729
 31
0.0
  0
LINE
  5
381
330
1F
100
AcDbEntity
  8
営業図
  6
CONTINUOUS
 62
    54
100
AcDbLine
 10
581.9191919186098
 20
21.50239771124492
 30
0.0
 11
583.8385113790607
 21
23.42171717169577
 31
0.0
  0
LINE
  5
382
330
1F
100
AcDbEntity
  8
営業図
  6
CONTINUOUS
 62
    54
100
AcDbLine
 10
581.9191919186112
 20
21.00242321949879
 30
0.0
 11
584.3384858708082
 21
23.42171717169577
 31
0.0
  0
LINE
  5
383
330
1F
100
AcDbEntity
  8
営業図
  6
CONTINUOUS
 62
    54
100
AcDbLine
 10
581.9191919186127
 20
20.50244872775256
 30
0.0
 11
586.3383838377963
 21
24.92164064693625
 31
0.0
  0
LINE
  5
384
330
1F
100
AcDbEntity
  8
営業図
  6
CONTINUOUS
 62
    54
100
AcDbLine
 10
581.9191919186117
 20
20.00247423600412
 30
0.0
 11
586.3383838377977
 21
24.42166615519011
 31
0.0
  0
LINE
  5
385
330
1F
100
AcDbEntity
  8
営業図
  6
CONTINUOUS
 62
    54
100
AcDbLine
 10
581.9191919186131
 20
19.50249974425794
 30
0.0
 11
583.6868686862861
 21
21.27017651193093
 31
0.0
  0
LINE
  5
386
330
1F
100
AcDbEntity
  8
営業図
  6
CONTINUOUS
 62
    54
100
AcDbLine
 10
584.0707325783744
 20
21.65404040401923
 30
0.0
 11
586.3383838377968
 21
23.92169166344162
 31
0.0
  0
LINE
  5
387
330
1F
100
AcDbEntity
  8
営業図
  6
CONTINUOUS
 62
    54
100
AcDbLine
 10
581.9191919186098
 20
19.00252525250718
 30
0.0
 11
583.6868686862875
 21
20.7702020201848
 31
0.0
  0
LINE
  5
388
330
1F
100
AcDbEntity
  8
営業図
  6
CONTINUOUS
 62
    54
100
AcDbLine
 10
584.5707070701205
 20
21.65404040401788
 30
0.0
 11
586.3383838377957
 21
23.42171717169318
 31
0.0
  0
LINE
  5
389
330
1F
100
AcDbEntity
  8
営業図
  6
CONTINUOUS
 62
    54
100
AcDbLine
 10
582.419166410356
 20
19.00252525250583
 30
0.0
 11
583.6868686862842
 21
20.27022752843405
 31
0.0
  0
LINE
  5
38A
330
1F
100
AcDbEntity
  8
営業図
  6
CONTINUOUS
 62
    54
100
AcDbLine
 10
584.5707070701219
 20
21.1540659122717
 30
0.0
 11
586.3383838377949
 21
22.92174267994469
 31
0.0
  0
LINE
  5
38B
330
1F
100
AcDbEntity
  8
営業図
  6
CONTINUOUS
 62
    54
100
AcDbLine
 10
582.9191409021067
 20
19.00252525250905
 30
0.0
 11
583.6868686862856
 21
19.77025303668786
 31
0.0
  0
LINE
  5
38C
330
1F
100
AcDbEntity
  8
営業図
  6
CONTINUOUS
 62
    54
100
AcDbLine
 10
584.570707070121
 20
20.65409142052325
 30
0.0
 11
586.3383838377963
 21
22.42176818819855
 31
0.0
  0
LINE
  5
38D
330
1F
100
AcDbEntity
  8
営業図
  6
CONTINUOUS
 62
    54
100
AcDbLine
 10
583.419115393853
 20
19.00252525250769
 30
0.0
 11
583.6868686862869
 21
19.27027854494163
 31
0.0
  0
LINE
  5
38E
330
1F
100
AcDbEntity
  8
営業図
  6
CONTINUOUS
 62
    54
100
AcDbLine
 10
584.5707070701201
 20
20.15411692877476
 30
0.0
 11
586.3383838377976
 21
21.92179369645232
 31
0.0
  0
LINE
  5
38F
330
1F
100
AcDbEntity
  8
営業図
  6
CONTINUOUS
 62
    54
100
AcDbLine
 10
584.5707070701213
 20
19.65414243702858
 30
0.0
 11
586.3383838377966
 21
21.42181920470388
 31
0.0
  0
LINE
  5
390
330
1F
100
AcDbEntity
  8
営業図
  6
CONTINUOUS
 62
    54
100
AcDbLine
 10
584.5707070701204
 20
19.15416794528009
 30
0.0
 11
586.3383838377957
 21
20.92184471295539
 31
0.0
  0
LINE
  5
391
330
1F
100
AcDbEntity
  8
営業図
  6
CONTINUOUS
 62
    54
100
AcDbLine
 10
584.9190388690915
 20
19.00252525250367
 30
0.0
 11
586.3383838377947
 21
20.42187022120695
 31
0.0
  0
LINE
  5
392
330
1F
100
AcDbEntity
  8
営業図
  6
CONTINUOUS
 62
    54
100
AcDbLine
 10
585.4190133608399
 20
19.00252525250457
 30
0.0
 11
586.3383838377961
 21
19.92189572946081
 31
0.0
  0
LINE
  5
393
330
1F
100
AcDbEntity
  8
営業図
  6
CONTINUOUS
 62
    54
100
AcDbLine
 10
585.9189878525883
 20
19.00252525250548
 30
0.0
 11
586.3383838377953
 21
19.42192123771232
 31
0.0
  0
LINE
  5
394
330
1F
100
AcDbEntity
  8
営業図
  6
CONTINUOUS
 62
    54
100
AcDbLine
 10
582.4191664103547
 20
19.00252525250884
 30
0.0
 11
581.9191919186098
 21
19.50249974425367
 31
0.0
  0
LINE
  5
395
330
1F
100
AcDbEntity
  8
営業図
  6
CONTINUOUS
 62
    54
100
AcDbLine
 10
582.9191409021031
 20
19.00252525250794
 30
0.0
 11
581.9191919186112
 21
20.0024742359999
 31
0.0
  0
LINE
  5
396
330
1F
100
AcDbEntity
  8
営業図
  6
CONTINUOUS
 62
    54
100
AcDbLine
 10
583.4191153938493
 20
19.00252525250929
 30
0.0
 11
581.9191919186103
 21
20.50244872774834
 31
0.0
  0
LINE
  5
397
330
1F
100
AcDbEntity
  8
営業図
  6
CONTINUOUS
 62
    54
100
AcDbLine
 10
583.6868686862847
 20
19.23474645182153
 30
0.0
 11
581.9191919186117
 21
21.00242321949457
 31
0.0
  0
LINE
  5
398
330
1F
100
AcDbEntity
  8
営業図
  6
CONTINUOUS
 62
    54
100
AcDbLine
 10
583.686868686286
 20
19.73472094356766
 30
0.0
 11
581.9191919186106
 21
21.50239771124296
 31
0.0
  0
LINE
  5
399
330
1F
100
AcDbEntity
  8
営業図
  6
CONTINUOUS
 62
    54
100
AcDbLine
 10
584.9190388690947
 20
19.00252525250653
 30
0.0
 11
584.5707070701228
 21
19.35085705147851
 31
0.0
  0
LINE
  5
39A
330
1F
100
AcDbEntity
  8
営業図
  6
CONTINUOUS
 62
    54
100
AcDbLine
 10
583.686868686285
 20
20.23469543531615
 30
0.0
 11
581.9191919186097
 21
22.00237220299146
 31
0.0
  0
LINE
  5
39B
330
1F
100
AcDbEntity
  8
営業図
  6
CONTINUOUS
 62
    54
100
AcDbLine
 10
585.4190133608408
 20
19.00252525250789
 30
0.0
 11
584.5707070701195
 21
19.85083154322921
 31
0.0
  0
LINE
  5
39C
330
1F
100
AcDbEntity
  8
営業図
  6
CONTINUOUS
 62
    54
100
AcDbLine
 10
583.6868686862841
 20
20.7346699270646
 30
0.0
 11
581.919191918611
 21
22.50234669473764
 31
0.0
  0
LINE
  5
39D
330
1F
100
AcDbEntity
  8
営業図
  6
CONTINUOUS
 62
    54
100
AcDbLine
 10
585.9189878525893
 20
19.00252525250698
 30
0.0
 11
584.5707070701209
 21
20.35080603497544
 31
0.0
  0
LINE
  5
39E
330
1F
100
AcDbEntity
  8
営業図
  6
CONTINUOUS
 62
    54
100
AcDbLine
 10
583.6868686862832
 20
21.23464441881309
 30
0.0
 11
581.9191919186103
 21
23.00232118648613
 31
0.0
  0
LINE
  5
39F
330
1F
100
AcDbEntity
  8
営業図
  6
CONTINUOUS
 62
    54
100
AcDbLine
 10
586.3383838377952
 20
19.08310375904858
 30
0.0
 11
584.5707070701221
 21
20.85078052672162
 31
0.0
  0
LINE
  5
3A0
330
1F
100
AcDbEntity
  8
営業図
  6
CONTINUOUS
 62
    54
100
AcDbLine
 10
583.7674471928271
 20
21.65404040401672
 30
0.0
 11
581.9191919186093
 21
23.50229567823457
 31
0.0
  0
LINE
  5
3A1
330
1F
100
AcDbEntity
  8
営業図
  6
CONTINUOUS
 62
    54
100
AcDbLine
 10
586.3383838377965
 20
19.58307825079481
 30
0.0
 11
584.5707070701213
 21
21.35075501847011
 31
0.0
  0
LINE
  5
3A2
330
1F
100
AcDbEntity
  8
営業図
  6
CONTINUOUS
 62
    54
100
AcDbLine
 10
584.2674216845733
 20
21.65404040401808
 30
0.0
 11
581.9191919186129
 21
24.00227016997849
 31
0.0
  0
LINE
  5
3A3
330
1F
100
AcDbEntity
  8
営業図
  6
CONTINUOUS
 62
    54
100
AcDbLine
 10
586.3383838377956
 20
20.08305274254321
 30
0.0
 11
581.9191919186119
 21
24.50224466172694
 31
0.0
  0
LINE
  5
3A4
330
1F
100
AcDbEntity
  8
営業図
  6
CONTINUOUS
 62
    54
100
AcDbLine
 10
586.338383837797
 20
20.58302723428944
 30
0.0
 11
581.919191918611
 21
25.00221915347543
 31
0.0
  0
LINE
  5
3A5
330
1F
100
AcDbEntity
  8
営業図
  6
CONTINUOUS
 62
    54
100
AcDbLine
 10
586.3383838377961
 20
21.08300172603787
 30
0.0
 11
583.9996683921381
 21
23.42171717169577
 31
0.0
  0
LINE
  5
3A6
330
1F
100
AcDbEntity
  8
営業図
  6
CONTINUOUS
 62
    54
100
AcDbLine
 10
586.3383838377952
 20
21.58297621778637
 30
0.0
 11
584.4996428838858
 21
23.42171717169577
 31
0.0
  0
LINE
  5
3A7
330
1F
100
AcDbEntity
  8
営業図
  6
CONTINUOUS
 62
    54
100
AcDbLine
 10
586.3383838377965
 20
22.0829507095325
 30
0.0
 11
584.5707070701222
 21
23.85062747720672
 31
0.0
  0
LINE
  5
3A8
330
1F
100
AcDbEntity
  8
営業図
  6
CONTINUOUS
 62
    54
100
AcDbLine
 10
586.3383838377978
 20
22.58292520127868
 30
0.0
 11
584.5707070701222
 21
24.35060196895421
 31
0.0
  0
LINE
  5
3A9
330
1F
100
AcDbEntity
  8
営業図
  6
CONTINUOUS
 62
    54
100
AcDbLine
 10
586.338383837797
 20
23.08289969302722
 30
0.0
 11
584.5707070701222
 21
24.85057646070194
 31
0.0
  0
LINE
  5
3AA
330
1F
100
AcDbEntity
  8
営業図
  6
CONTINUOUS
 62
    54
100
AcDbLine
 10
586.3383838377961
 20
23.58287418477567
 30
0.0
 11
584.5707070701222
 21
25.35055095244945
 31
0.0
  0
LINE
  5
3AB
330
1F
100
AcDbEntity
  8
営業図
  6
CONTINUOUS
 62
    54
100
AcDbLine
 10
586.3383838377952
 20
24.08284867652416
 30
0.0
 11
584.5707070701222
 21
25.85052544419705
 31
0.0
  0
LINE
  5
3AC
330
1F
100
AcDbEntity
  8
営業図
  6
CONTINUOUS
 62
    54
100
AcDbLine
 10
586.3383838377965
 20
24.58282316827029
 30
0.0
 11
584.5707070701222
 21
26.35049993594451
 31
0.0
  0
LINE
  5
3AD
330
1F
100
AcDbEntity
  8
営業図
  6
CONTINUOUS
 62
    54
100
AcDbLine
 10
586.3383838377955
 20
25.08279766001878
 30
0.0
 11
584.5707070701222
 21
26.85047442769209
 31
0.0
  0
LINE
  5
3AE
330
1F
100
AcDbEntity
  8
営業図
  6
CONTINUOUS
 62
    54
100
AcDbLine
 10
586.3383838377946
 20
25.58277215176723
 30
0.0
 11
584.5707070701222
 21
27.35044891943955
 31
0.0
  0
LINE
  5
3AF
330
1F
100
AcDbEntity
  8
営業図
  6
CONTINUOUS
 62
    54
100
AcDbLine
 10
586.3383838377982
 20
26.08274664351115
 30
0.0
 11
584.5707070701222
 21
27.85042341118716
 31
0.0
  0
LINE
  5
3B0
330
1F
100
AcDbEntity
  8
営業図
  6
CONTINUOUS
 62
    54
100
AcDbLine
 10
586.3383838377973
 20
26.58272113525959
 30
0.0
 11
584.5707070701222
 21
28.35039790293468
 31
0.0
  0
LINE
  5
3B1
330
1F
100
AcDbEntity
  8
営業図
  6
CONTINUOUS
 62
    54
100
AcDbLine
 10
586.3383838377963
 20
27.08269562700803
 30
0.0
 11
584.5707070701222
 21
28.85037239468219
 31
0.0
  0
LINE
  5
3B2
330
1F
100
AcDbEntity
  8
営業図
  6
CONTINUOUS
 62
    54
100
AcDbLine
 10
586.3383838377978
 20
27.58267011875426
 30
0.0
 11
584.5707070701222
 21
29.35034688642974
 31
0.0
  0
LINE
  5
3B3
330
1F
100
AcDbEntity
  8
営業図
  6
CONTINUOUS
 62
    54
100
AcDbLine
 10
586.3383838377968
 20
28.08264461050265
 30
0.0
 11
584.5707070701222
 21
29.85032137817722
 31
0.0
  0
LINE
  5
3B4
330
1F
100
AcDbEntity
  8
営業図
  6
CONTINUOUS
 62
    54
100
AcDbLine
 10
586.338383837796
 20
28.58261910225114
 30
0.0
 11
584.5707070701222
 21
30.35029586992483
 31
0.0
  0
LINE
  5
3B5
330
1F
100
AcDbEntity
  8
営業図
  6
CONTINUOUS
 62
    54
100
AcDbLine
 10
586.3383838377972
 20
29.08259359399733
 30
0.0
 11
584.5707070701222
 21
30.85027036167225
 31
0.0
  0
LINE
  5
3B6
330
1F
100
AcDbEntity
  8
営業図
  6
CONTINUOUS
 62
    54
100
AcDbLine
 10
586.3383838377963
 20
29.58256808574582
 30
0.0
 11
584.5707070701222
 21
31.35024485341989
 31
0.0
  0
LINE
  5
3B7
330
1F
100
AcDbEntity
  8
営業図
  6
CONTINUOUS
 62
    54
100
AcDbLine
 10
586.3383838377977
 20
30.08254257749195
 30
0.0
 11
584.5694511493291
 21
31.85147526596052
 31
0.0
  0
LINE
  5
3B8
330
1F
100
AcDbEntity
  8
営業図
  6
CONTINUOUS
 62
    54
100
AcDbLine
 10
586.3383838377968
 20
30.58251706924045
 30
0.0
 11
583.022658772124
 21
33.89824213491324
 31
0.0
  0
LINE
  5
3B9
330
1F
100
AcDbEntity
  8
営業図
  6
CONTINUOUS
 62
    54
100
AcDbLine
 10
586.3383838377957
 20
31.08249156098888
 30
0.0
 11
583.4142468386441
 21
34.0066285601405
 31
0.0
  0
LINE
  5
3BA
330
1F
100
AcDbEntity
  8
営業図
  6
CONTINUOUS
 62
    54
100
AcDbLine
 10
586.3383838377972
 20
31.58246605273511
 30
0.0
 11
583.8930721127865
 21
34.02777777774574
 31
0.0
  0
LINE
  5
3BB
330
1F
100
AcDbEntity
  8
営業図
  6
CONTINUOUS
 62
    54
100
AcDbLine
 10
586.3383838377963
 20
32.08244054448356
 30
0.0
 11
584.393046604535
 21
34.02777777774479
 31
0.0
  0
LINE
  5
3BC
330
1F
100
AcDbEntity
  8
営業図
  6
CONTINUOUS
 62
    54
100
AcDbLine
 10
586.3015050610206
 20
32.61929381300665
 30
0.0
 11
584.9298998730604
 21
33.99089900096702
 31
0.0
  0
LINE
  5
3BD
330
1F
100
AcDbEntity
  8
営業図
  6
CONTINUOUS
 62
    54
100
AcDbLine
 10
584.1690771314733
 20
32.25184928381636
 30
0.0
 11
585.6083817567288
 21
33.69115390907191
 31
0.0
  0
LINE
  5
3BE
330
1F
100
AcDbEntity
  8
営業図
  6
CONTINUOUS
 62
    54
100
AcDbLine
 10
584.1690771314733
 20
32.25184928381636
 30
0.0
 11
582.6965810458022
 21
33.7243453694874
 31
0.0
  0
LINE
  5
3BF
330
1F
100
AcDbEntity
  8
営業図
  6
CONTINUOUS
 62
    54
100
AcDbLine
 10
584.4899911889953
 20
32.07278884959091
 30
0.0
 11
585.8728045875173
 21
33.45560224811287
 31
0.0
  0
LINE
  5
3C0
330
1F
100
AcDbEntity
  8
営業図
  6
CONTINUOUS
 62
    54
100
AcDbLine
 10
584.5707070701222
 20
31.65353023897033
 30
0.0
 11
586.086575876472
 21
33.16939904532006
 31
0.0
  0
LINE
  5
3C1
330
1F
100
AcDbEntity
  8
営業図
  6
CONTINUOUS
 62
    54
100
AcDbLine
 10
584.5707070701222
 20
31.1535557472228
 30
0.0
 11
586.2447963559576
 21
32.82764503305823
 31
0.0
  0
LINE
  5
3C2
330
1F
100
AcDbEntity
  8
営業図
  6
CONTINUOUS
 62
    54
100
AcDbLine
 10
583.8035658354964
 20
32.11738608804558
 30
0.0
 11
582.4239912682468
 21
33.49696065529526
 31
0.0
  0
LINE
  5
3C3
330
1F
100
AcDbEntity
  8
営業図
  6
CONTINUOUS
 62
    54
100
AcDbLine
 10
583.6868686862847
 20
31.73410874550977
 30
0.0
 11
582.2019177218215
 21
33.21905970997304
 31
0.0
  0
LINE
  5
3C4
330
1F
100
AcDbEntity
  8
営業図
  6
CONTINUOUS
 62
    54
100
AcDbLine
 10
583.6868686862847
 20
31.23413425376231
 30
0.0
 11
582.0340657473106
 21
32.88693719273653
 31
0.0
  0
LINE
  5
3C5
330
1F
100
AcDbEntity
  8
営業図
  6
CONTINUOUS
 62
    54
100
AcDbLine
 10
583.6868686862847
 20
30.73415976201471
 30
0.0
 11
581.9338392739218
 21
32.48718917437777
 31
0.0
  0
LINE
  5
3C6
330
1F
100
AcDbEntity
  8
営業図
  6
CONTINUOUS
 62
    54
100
AcDbLine
 10
583.6868686862847
 20
30.23418527026724
 30
0.0
 11
581.9191919186118
 21
32.0018620379402
 31
0.0
  0
LINE
  5
3C7
330
1F
100
AcDbEntity
  8
営業図
  6
CONTINUOUS
 62
    54
100
AcDbLine
 10
583.6868686862847
 20
29.73421077851969
 30
0.0
 11
581.9191919186105
 21
31.50188754619402
 31
0.0
  0
LINE
  5
3C8
330
1F
100
AcDbEntity
  8
営業図
  6
CONTINUOUS
 62
    54
100
AcDbLine
 10
583.6868686862847
 20
29.23423628677219
 30
0.0
 11
581.9191919186114
 21
31.00191305444558
 31
0.0
  0
LINE
  5
3C9
330
1F
100
AcDbEntity
  8
営業図
  6
CONTINUOUS
 62
    54
100
AcDbLine
 10
583.6868686862847
 20
28.73426179502465
 30
0.0
 11
581.9191919186122
 21
30.50193856269714
 31
0.0
  0
LINE
  5
3CA
330
1F
100
AcDbEntity
  8
営業図
  6
CONTINUOUS
 62
    54
100
AcDbLine
 10
583.6868686862847
 20
28.23428730327701
 30
0.0
 11
581.9191919186109
 21
30.00196407095091
 31
0.0
  0
LINE
  5
3CB
330
1F
100
AcDbEntity
  8
営業図
  6
CONTINUOUS
 62
    54
100
AcDbLine
 10
583.6868686862847
 20
27.73431281152963
 30
0.0
 11
581.9191919186097
 21
29.50198957920477
 31
0.0
  0
LINE
  5
3CC
330
1F
100
AcDbEntity
  8
営業図
  6
CONTINUOUS
 62
    54
100
AcDbLine
 10
583.6868686862847
 20
27.23433831978199
 30
0.0
 11
581.9191919186105
 21
29.00201508745628
 31
0.0
  0
LINE
  5
3CD
330
1F
100
AcDbEntity
  8
営業図
  6
CONTINUOUS
 62
    54
100
AcDbLine
 10
583.6868686862847
 20
26.73436382803455
 30
0.0
 11
581.9191919186114
 21
28.50204059570784
 31
0.0
  0
LINE
  5
3CE
330
1F
100
AcDbEntity
  8
営業図
  6
CONTINUOUS
 62
    54
100
AcDbLine
 10
583.6868686862847
 20
26.2343893362869
 30
0.0
 11
581.9191919186122
 21
28.00206610395935
 31
0.0
  0
LINE
  5
3CF
330
1F
100
AcDbEntity
  8
営業図
  6
CONTINUOUS
 62
    54
100
AcDbLine
 10
583.6868686862847
 20
25.73441484453945
 30
0.0
 11
581.919191918611
 21
27.50209161221317
 31
0.0
  0
LINE
  5
3D0
330
1F
100
AcDbEntity
  8
営業図
  6
CONTINUOUS
 62
    54
100
AcDbLine
 10
583.6868686862847
 20
25.23444035279175
 30
0.0
 11
581.9191919186119
 21
27.00211712046467
 31
0.0
  0
LINE
  5
3D1
330
1F
100
AcDbEntity
  8
営業図
  6
CONTINUOUS
 62
    54
100
AcDbLine
 10
583.6868686862847
 20
24.73446586104423
 30
0.0
 11
581.9191919186105
 21
26.50214262871849
 31
0.0
  0
LINE
  5
3D2
330
1F
100
AcDbEntity
  8
営業図
  6
CONTINUOUS
 62
    54
100
AcDbLine
 10
583.6868686862847
 20
24.23449136929676
 30
0.0
 11
581.9191919186114
 21
26.00216813697005
 31
0.0
  0
LINE
  5
3D3
330
1F
100
AcDbEntity
  8
営業図
  6
CONTINUOUS
 62
    54
100
AcDbLine
 10
583.6868686862847
 20
23.73451687754917
 30
0.0
 11
581.9191919186123
 21
25.50219364522156
 31
0.0
  0
LINE
  5
3D4
330
1F
100
AcDbEntity
  8
営業図
  6
CONTINUOUS
 62
    54
100
AcDbLine
 10
584.5707070701222
 20
23.65393837100981
 30
0.0
 11
586.3383838377972
 21
25.42161513868474
 31
0.0
  0
LINE
  5
3D5
330
1F
100
AcDbEntity
  8
営業図
  6
CONTINUOUS
 62
    54
100
AcDbLine
 10
584.5707070701222
 20
24.15391286275727
 30
0.0
 11
586.338383837796
 21
25.92158963043092
 31
0.0
  0
LINE
  5
3D6
330
1F
100
AcDbEntity
  8
営業図
  6
CONTINUOUS
 62
    54
100
AcDbLine
 10
584.5707070701222
 20
24.65388735450479
 30
0.0
 11
586.3383838377946
 21
26.4215641221771
 31
0.0
  0
LINE
  5
3D7
330
1F
100
AcDbEntity
  8
営業図
  6
CONTINUOUS
 62
    54
100
AcDbLine
 10
584.5707070701222
 20
25.15386184625236
 30
0.0
 11
586.3383838377978
 21
26.92153861392785
 31
0.0
  0
LINE
  5
3D8
330
1F
100
AcDbEntity
  8
営業図
  6
CONTINUOUS
 62
    54
100
AcDbLine
 10
584.5707070701222
 20
25.65383633799992
 30
0.0
 11
586.3383838377963
 21
27.42151310567403
 31
0.0
  0
LINE
  5
3D9
330
1F
100
AcDbEntity
  8
営業図
  6
CONTINUOUS
 62
    54
100
AcDbLine
 10
584.5707070701222
 20
26.15381082974742
 30
0.0
 11
586.3383838377973
 21
27.92148759742247
 31
0.0
  0
LINE
  5
3DA
330
1F
100
AcDbEntity
  8
営業図
  6
CONTINUOUS
 62
    54
100
AcDbLine
 10
584.5707070701222
 20
26.65378532149496
 30
0.0
 11
586.338383837796
 21
28.42146208916871
 31
0.0
  0
LINE
  5
3DB
330
1F
100
AcDbEntity
  8
営業図
  6
CONTINUOUS
 62
    54
100
AcDbLine
 10
584.5707070701222
 20
27.15375981324255
 30
0.0
 11
586.3383838377946
 21
28.92143658091484
 31
0.0
  0
LINE
  5
3DC
330
1F
100
AcDbEntity
  8
営業図
  6
CONTINUOUS
 62
    54
100
AcDbLine
 10
584.5707070701222
 20
27.65373430499005
 30
0.0
 11
586.3383838377978
 21
29.42141107266559
 31
0.0
  0
LINE
  5
3DD
330
1F
100
AcDbEntity
  8
営業図
  6
CONTINUOUS
 62
    54
100
AcDbLine
 10
584.5707070701222
 20
28.15370879673759
 30
0.0
 11
586.3383838377965
 21
29.92138556441177
 31
0.0
  0
LINE
  5
3DE
330
1F
100
AcDbEntity
  8
営業図
  6
CONTINUOUS
 62
    54
100
AcDbLine
 10
584.5707070701222
 20
28.65368328848511
 30
0.0
 11
586.3383838377973
 21
30.42136005616026
 31
0.0
  0
LINE
  5
3DF
330
1F
100
AcDbEntity
  8
営業図
  6
CONTINUOUS
 62
    54
100
AcDbLine
 10
584.5707070701222
 20
29.15365778023268
 30
0.0
 11
586.338383837796
 21
30.92133454790639
 31
0.0
  0
LINE
  5
3E0
330
1F
100
AcDbEntity
  8
営業図
  6
CONTINUOUS
 62
    54
100
AcDbLine
 10
584.5707070701222
 20
29.65363227198018
 30
0.0
 11
586.3383838377993
 21
31.4213090396572
 31
0.0
  0
LINE
  5
3E1
330
1F
100
AcDbEntity
  8
営業図
  6
CONTINUOUS
 62
    54
100
AcDbLine
 10
584.5707070701222
 20
30.15360676372774
 30
0.0
 11
586.3383838377979
 21
31.92128353140333
 31
0.0
  0
LINE
  5
3E2
330
1F
100
AcDbEntity
  8
営業図
  6
CONTINUOUS
 62
    54
100
AcDbLine
 10
584.5707070701222
 20
30.65358125547522
 30
0.0
 11
586.3316277156508
 21
32.41450190100377
 31
0.0
  0
LINE
  5
3E3
330
1F
100
AcDbEntity
  8
営業図
  6
CONTINUOUS
 62
   134
100
AcDbLine
 10
21.2121212121
 20
35.35353535349999
 30
0.0
 11
1028.78787878685
 21
35.35353535349999
 31
0.0
  0
LINE
  5
3E4
330
1F
100
AcDbEntity
  8
営業図
  6
CONTINUOUS
 62
    94
100
AcDbLine
 10
21.2121212121
 20
17.67676767675
 30
0.0
 11
1028.78787878685
 21
17.67676767675
 31
0.0
  0
LINE
  5
3E5
330
1F
100
AcDbEntity
  8
営業図
  6
CONTINUOUS
 62
   134
100
AcDbLine
 10
21.2121212121
 20
724.74747474675
 30
0.0
 11
21.2121212121
 21
17.67676767675
 31
0.0
  0
LINE
  5
3E6
330
1F
100
AcDbEntity
  8
営業図
  6
CONTINUOUS
 62
   134
100
AcDbLine
 10
1028.78787878685
 20
17.67676767675
 30
0.0
 11
1028.78787878685
 21
724.74747474675
 31
0.0
  0
LINE
  5
3E7
330
1F
100
AcDbEntity
  8
営業図
  6
CONTINUOUS
 62
   134
100
AcDbLine
 10
1028.78787878685
 20
724.74747474675
 30
0.0
 11
21.2121212121
 21
724.74747474675
 31
0.0
  0
LINE
  5
3E8
330
1F
100
AcDbEntity
  8
営業図
  6
CONTINUOUS
 62
    54
100
AcDbLine
 10
991.6666666656749
 20
35.35353535349999
 30
0.0
 11
991.6666666656749
 21
17.67676767675
 31
0.0
  0
LINE
  5
3E9
330
1F
100
AcDbEntity
  8
営業図
  6
CONTINUOUS
 62
    54
100
AcDbLine
 10
982.8282828273
 20
35.35353535349999
 30
0.0
 11
982.8282828273
 21
17.67676767675
 31
0.0
  0
LINE
  5
3EA
330
1F
100
AcDbEntity
  8
営業図
  6
CONTINUOUS
 62
    54
100
AcDbLine
 10
947.4747474738
 20
35.35353535349999
 30
0.0
 11
947.4747474738
 21
17.67676767675
 31
0.0
  0
LINE
  5
3EB
330
1F
100
AcDbEntity
  8
営業図
  6
CONTINUOUS
 62
    54
100
AcDbLine
 10
938.6363636354249
 20
35.35353535349999
 30
0.0
 11
938.6363636354249
 21
17.67676767675
 31
0.0
  0
LINE
  5
3EC
330
1F
100
AcDbEntity
  8
営業図
  6
CONTINUOUS
 62
    54
100
AcDbLine
 10
797.2222222214249
 20
35.35353535349999
 30
0.0
 11
797.2222222214249
 21
17.67676767675
 31
0.0
  0
LINE
  5
3ED
330
1F
100
AcDbEntity
  8
営業図
  6
CONTINUOUS
 62
    54
100
AcDbLine
 10
788.3838383830499
 20
35.35353535349999
 30
0.0
 11
788.3838383830499
 21
17.67676767675
 31
0.0
  0
LINE
  5
3EE
330
1F
100
AcDbEntity
  8
営業図
  6
CONTINUOUS
 62
   134
100
AcDbLine
 10
708.838383837675
 20
35.35353535349999
 30
0.0
 11
708.838383837675
 21
17.67676767675
 31
0.0
  0
LINE
  5
3EF
330
1F
100
AcDbEntity
  8
営業図
  6
CONTINUOUS
 62
   134
100
AcDbLine
 10
549.747474746925
 20
35.35353535349999
 30
0.0
 11
549.747474746925
 21
17.67676767675
 31
0.0
  0
LINE
  5
3F0
330
1F
100
AcDbEntity
  8
営業図
  6
CONTINUOUS
 62
    54
100
AcDbLine
 10
560.70707070651
 20
34.02777777774376
 30
0.0
 11
563.3585858580219
 21
34.02777777774376
 31
0.0
  0
LINE
  5
3F1
330
1F
100
AcDbEntity
  8
営業図
  6
CONTINUOUS
 62
    54
100
AcDbLine
 10
560.70707070651
 20
19.00252525250626
 30
0.0
 11
563.3585858580219
 21
19.00252525250626
 31
0.0
  0
LINE
  5
3F2
330
1F
100
AcDbEntity
  8
営業図
  6
CONTINUOUS
 62
    54
100
AcDbLine
 10
560.70707070651
 20
19.00252525250626
 30
0.0
 11
560.70707070651
 21
34.02777777774376
 31
0.0
  0
LINE
  5
3F3
330
1F
100
AcDbEntity
  8
営業図
  6
CONTINUOUS
 62
    54
100
AcDbLine
 10
562.4747474741852
 20
32.26010101006874
 30
0.0
 11
562.4747474741852
 21
20.77020202018128
 31
0.0
  0
LINE
  5
3F4
330
1F
100
AcDbEntity
  8
営業図
  6
CONTINUOUS
 62
    54
100
AcDbLine
 10
565.1262626256972
 20
32.26010101006874
 30
0.0
 11
565.1262626256972
 21
20.77020202018128
 31
0.0
  0
LINE
  5
3F5
330
1F
100
AcDbEntity
  8
営業図
  6
CONTINUOUS
 62
    54
100
AcDbLine
 10
563.3585858580219
 20
31.37626262623124
 30
0.0
 11
563.3585858580219
 21
21.65404040401878
 31
0.0
  0
LINE
  5
3F6
330
1F
100
AcDbEntity
  8
営業図
  6
CONTINUOUS
 62
    54
100
AcDbLine
 10
566.0101010095348
 20
32.26010101006874
 30
0.0
 11
566.0101010095348
 21
19.00252525250626
 31
0.0
  0
LINE
  5
3F7
330
1F
100
AcDbEntity
  8
営業図
  6
CONTINUOUS
 62
    54
100
AcDbLine
 10
570.4292929287222
 20
32.26010101006874
 30
0.0
 11
570.4292929287222
 21
19.00252525250626
 31
0.0
  0
LINE
  5
3F8
330
1F
100
AcDbEntity
  8
営業図
  6
CONTINUOUS
 62
    54
100
AcDbLine
 10
567.7777777772094
 20
31.81818181814979
 30
0.0
 11
567.7777777772094
 21
23.42171717169577
 31
0.0
  0
LINE
  5
3F9
330
1F
100
AcDbEntity
  8
営業図
  6
CONTINUOUS
 62
    54
100
AcDbLine
 10
568.6616161610473
 20
31.81818181814979
 30
0.0
 11
568.6616161610473
 21
23.42171717169577
 31
0.0
  0
LINE
  5
3FA
330
1F
100
AcDbEntity
  8
営業図
  6
CONTINUOUS
 62
    54
100
AcDbLine
 10
571.3131313125598
 20
34.02777777774376
 30
0.0
 11
571.3131313125598
 21
19.00252525250626
 31
0.0
  0
LINE
  5
3FB
330
1F
100
AcDbEntity
  8
営業図
  6
CONTINUOUS
 62
    54
100
AcDbLine
 10
573.0808080802348
 20
34.02777777774376
 30
0.0
 11
573.0808080802348
 21
19.00252525250626
 31
0.0
  0
LINE
  5
3FC
330
1F
100
AcDbEntity
  8
営業図
  6
CONTINUOUS
 62
    54
100
AcDbLine
 10
573.9646464640723
 20
34.02777777774376
 30
0.0
 11
573.9646464640723
 21
20.77020202018128
 31
0.0
  0
LINE
  5
3FD
330
1F
100
AcDbEntity
  8
営業図
  6
CONTINUOUS
 62
    54
100
AcDbLine
 10
575.7323232317473
 20
34.02777777774376
 30
0.0
 11
575.7323232317473
 21
21.21212121210002
 31
0.0
  0
LINE
  5
3FE
330
1F
100
AcDbEntity
  8
営業図
  6
CONTINUOUS
 62
    54
100
AcDbLine
 10
576.6161616155848
 20
34.02777777774376
 30
0.0
 11
576.6161616155848
 21
21.21212121210002
 31
0.0
  0
LINE
  5
3FF
330
1F
100
AcDbEntity
  8
営業図
  6
CONTINUOUS
 62
    54
100
AcDbLine
 10
578.3838383832598
 20
34.02777777774376
 30
0.0
 11
578.3838383832598
 21
21.21212121210002
 31
0.0
  0
LINE
  5
400
330
1F
100
AcDbEntity
  8
営業図
  6
CONTINUOUS
 62
    54
100
AcDbLine
 10
579.2676767670972
 20
34.02777777774376
 30
0.0
 11
579.2676767670972
 21
21.21212121210002
 31
0.0
  0
LINE
  5
401
330
1F
100
AcDbEntity
  8
営業図
  6
CONTINUOUS
 62
    54
100
AcDbLine
 10
581.0353535347723
 20
34.02777777774376
 30
0.0
 11
581.0353535347723
 21
20.77020202018127
 31
0.0
  0
LINE
  5
402
330
1F
100
AcDbEntity
  8
営業図
  6
CONTINUOUS
 62
    54
100
AcDbLine
 10
581.9191919186097
 20
32.26010101006874
 30
0.0
 11
581.9191919186097
 21
19.00252525250626
 31
0.0
  0
LINE
  5
403
330
1F
100
AcDbEntity
  8
営業図
  6
CONTINUOUS
 62
    54
100
AcDbLine
 10
583.6868686862847
 20
31.81818181814979
 30
0.0
 11
583.6868686862847
 21
23.42171717169577
 31
0.0
  0
LINE
  5
404
330
1F
100
AcDbEntity
  8
営業図
  6
CONTINUOUS
 62
    54
100
AcDbLine
 10
584.5707070701222
 20
31.81818181814979
 30
0.0
 11
584.5707070701222
 21
23.42171717169577
 31
0.0
  0
LINE
  5
405
330
1F
100
AcDbEntity
  8
営業図
  6
CONTINUOUS
 62
    54
100
AcDbLine
 10
586.3383838377972
 20
32.26010101006874
 30
0.0
 11
586.3383838377972
 21
19.00252525250626
 31
0.0
  0
ARC
  5
406
330
1F
100
AcDbEntity
  8
営業図
  6
CONTINUOUS
 62
    54
100
AcDbCircle
 10
563.3585858580219
 20
32.26010101006874
 30
0.0
 40
1.767676767675303
100
AcDbArc
 50
0.0
 51
90.00000000000001
  0
ARC
  5
407
330
1F
100
AcDbEntity
  8
営業図
  6
CONTINUOUS
 62
    54
100
AcDbCircle
 10
562.4747474741845
 20
31.37626262623124
 30
0.0
 40
0.8838383838375
100
AcDbArc
 50
0.0
 51
90.00000000000001
  0
ARC
  5
408
330
1F
100
AcDbEntity
  8
営業図
  6
CONTINUOUS
 62
    54
100
AcDbCircle
 10
567.7777777772094
 20
32.26010101006874
 30
0.0
 40
1.767676767675013
100
AcDbArc
 50
90.00000000000001
 51
180.0
  0
ARC
  5
409
330
1F
100
AcDbEntity
  8
営業図
  6
CONTINUOUS
 62
    54
100
AcDbCircle
 10
568.6616161610473
 20
32.26010101006874
 30
0.0
 40
1.767676767675
100
AcDbArc
 50
0.0
 51
90.00000000000001
  0
ARC
  5
40A
330
1F
100
AcDbEntity
  8
営業図
  6
CONTINUOUS
 62
    54
100
AcDbCircle
 10
568.2196969691283
 20
31.81818181814979
 30
0.0
 40
0.441919191918953
100
AcDbArc
 50
0.0
 51
180.0
  0
LINE
  5
40B
330
1F
100
AcDbEntity
  8
営業図
  6
CONTINUOUS
 62
    54
100
AcDbLine
 10
567.7777777772094
 20
21.65404040401878
 30
0.0
 11
568.6616161610473
 21
21.65404040401878
 31
0.0
  0
LINE
  5
40C
330
1F
100
AcDbEntity
  8
営業図
  6
CONTINUOUS
 62
    54
100
AcDbLine
 10
567.7777777772094
 20
23.42171717169577
 30
0.0
 11
568.6616161610473
 21
23.42171717169577
 31
0.0
  0
ARC
  5
40D
330
1F
100
AcDbEntity
  8
営業図
  6
CONTINUOUS
 62
    54
100
AcDbCircle
 10
575.7323232317473
 20
20.77020202018128
 30
0.0
 40
1.767676767675
100
AcDbArc
 50
180.0
 51
270.0000000000002
  0
ARC
  5
40E
330
1F
100
AcDbEntity
  8
営業図
  6
CONTINUOUS
 62
    54
100
AcDbCircle
 10
579.2676767670972
 20
20.77020202018128
 30
0.0
 40
1.767676767675025
100
AcDbArc
 50
270.0000000000002
 51
0.0
  0
ARC
  5
40F
330
1F
100
AcDbEntity
  8
営業図
  6
CONTINUOUS
 62
    54
100
AcDbCircle
 10
578.8257575751785
 20
21.21212121210002
 30
0.0
 40
0.44191919191875
100
AcDbArc
 50
180.0
 51
0.0
  0
ARC
  5
410
330
1F
100
AcDbEntity
  8
営業図
  6
CONTINUOUS
 62
    54
100
AcDbCircle
 10
576.174242423666
 20
21.21212121210002
 30
0.0
 40
0.44191919191875
100
AcDbArc
 50
180.0
 51
0.0
  0
ARC
  5
411
330
1F
100
AcDbEntity
  8
営業図
  6
CONTINUOUS
 62
    54
100
AcDbCircle
 10
578.8257575751785
 20
20.77020202018128
 30
0.0
 40
1.767676767675025
100
AcDbArc
 50
221.4096221092724
 51
270.0000000000002
  0
ARC
  5
412
330
1F
100
AcDbEntity
  8
営業図
  6
CONTINUOUS
 62
    54
100
AcDbCircle
 10
576.174242423666
 20
20.77020202018128
 30
0.0
 40
1.767676767675025
100
AcDbArc
 50
270.0000000000002
 51
318.5903778907276
  0
ARC
  5
413
330
1F
100
AcDbEntity
  8
営業図
  6
CONTINUOUS
 62
    54
100
AcDbCircle
 10
562.4747474741845
 20
21.65404040401877
 30
0.0
 40
0.8838383838375
100
AcDbArc
 50
270.0000000000002
 51
0.0
  0
ARC
  5
414
330
1F
100
AcDbEntity
  8
営業図
  6
CONTINUOUS
 62
    54
100
AcDbCircle
 10
563.3585858580219
 20
20.77020202018127
 30
0.0
 40
1.767676767675303
100
AcDbArc
 50
270.0000000000002
 51
0.0
  0
ARC
  5
415
330
1F
100
AcDbEntity
  8
営業図
  6
CONTINUOUS
 62
    54
100
AcDbCircle
 10
583.6868686862845
 20
32.26010101006874
 30
0.0
 40
1.767676767675013
100
AcDbArc
 50
90.00000000000001
 51
180.0
  0
ARC
  5
416
330
1F
100
AcDbEntity
  8
営業図
  6
CONTINUOUS
 62
    54
100
AcDbCircle
 10
584.5707070701222
 20
32.26010101006874
 30
0.0
 40
1.767676767675
100
AcDbArc
 50
0.0
 51
90.00000000000001
  0
ARC
  5
417
330
1F
100
AcDbEntity
  8
営業図
  6
CONTINUOUS
 62
    54
100
AcDbCircle
 10
584.1287878782034
 20
31.81818181814979
 30
0.0
 40
0.441919191918953
100
AcDbArc
 50
0.0
 51
180.0
  0
LINE
  5
418
330
1F
100
AcDbEntity
  8
営業図
  6
CONTINUOUS
 62
    54
100
AcDbLine
 10
583.6868686862845
 20
21.65404040401878
 30
0.0
 11
584.5707070701222
 21
21.65404040401878
 31
0.0
  0
LINE
  5
419
330
1F
100
AcDbEntity
  8
営業図
  6
CONTINUOUS
 62
    54
100
AcDbLine
 10
583.6868686862845
 20
23.42171717169577
 30
0.0
 11
584.5707070701222
 21
23.42171717169577
 31
0.0
  0
LINE
  5
41A
330
1F
100
AcDbEntity
  8
営業図
  6
CONTINUOUS
 62
    54
100
AcDbLine
 10
567.7777777772094
 20
34.02777777774376
 30
0.0
 11
568.6616161610473
 21
34.02777777774376
 31
0.0
  0
LINE
  5
41B
330
1F
100
AcDbEntity
  8
営業図
  6
CONTINUOUS
 62
    54
100
AcDbLine
 10
567.7777777772094
 20
21.65404040401878
 30
0.0
 11
567.7777777772094
 21
19.00252525250626
 31
0.0
  0
LINE
  5
41C
330
1F
100
AcDbEntity
  8
営業図
  6
CONTINUOUS
 62
    54
100
AcDbLine
 10
568.6616161610473
 20
21.65404040401878
 30
0.0
 11
568.6616161610473
 21
19.00252525250626
 31
0.0
  0
LINE
  5
41D
330
1F
100
AcDbEntity
  8
営業図
  6
CONTINUOUS
 62
    54
100
AcDbLine
 10
566.0101010095348
 20
19.00252525250626
 30
0.0
 11
567.7777777772094
 21
19.00252525250626
 31
0.0
  0
LINE
  5
41E
330
1F
100
AcDbEntity
  8
営業図
  6
CONTINUOUS
 62
    54
100
AcDbLine
 10
568.6616161610473
 20
19.00252525250626
 30
0.0
 11
570.4292929287222
 21
19.00252525250626
 31
0.0
  0
LINE
  5
41F
330
1F
100
AcDbEntity
  8
営業図
  6
CONTINUOUS
 62
    54
100
AcDbLine
 10
571.3131313125598
 20
19.00252525250626
 30
0.0
 11
573.0808080802348
 21
19.00252525250626
 31
0.0
  0
LINE
  5
420
330
1F
100
AcDbEntity
  8
営業図
  6
CONTINUOUS
 62
    54
100
AcDbLine
 10
571.3131313125598
 20
34.02777777774376
 30
0.0
 11
573.0808080802348
 21
34.02777777774376
 31
0.0
  0
LINE
  5
421
330
1F
100
AcDbEntity
  8
営業図
  6
CONTINUOUS
 62
    54
100
AcDbLine
 10
573.9646464640723
 20
34.02777777774376
 30
0.0
 11
575.7323232317473
 21
34.02777777774376
 31
0.0
  0
LINE
  5
422
330
1F
100
AcDbEntity
  8
営業図
  6
CONTINUOUS
 62
    54
100
AcDbLine
 10
576.6161616155848
 20
34.02777777774376
 30
0.0
 11
578.3838383832598
 21
34.02777777774376
 31
0.0
  0
LINE
  5
423
330
1F
100
AcDbEntity
  8
営業図
  6
CONTINUOUS
 62
    54
100
AcDbLine
 10
579.2676767670972
 20
34.02777777774376
 30
0.0
 11
581.0353535347723
 21
34.02777777774376
 31
0.0
  0
LINE
  5
424
330
1F
100
AcDbEntity
  8
営業図
  6
CONTINUOUS
 62
    54
100
AcDbLine
 10
583.6868686862845
 20
34.02777777774376
 30
0.0
 11
584.5707070701222
 21
34.02777777774376
 31
0.0
  0
LINE
  5
425
330
1F
100
AcDbEntity
  8
営業図
  6
CONTINUOUS
 62
    54
100
AcDbLine
 10
575.7323232317473
 20
19.00252525250626
 30
0.0
 11
576.174242423666
 21
19.00252525250626
 31
0.0
  0
LINE
  5
426
330
1F
100
AcDbEntity
  8
営業図
  6
CONTINUOUS
 62
    54
100
AcDbLine
 10
578.8257575751785
 20
19.00252525250626
 30
0.0
 11
579.2676767670972
 21
19.00252525250626
 31
0.0
  0
LINE
  5
427
330
1F
100
AcDbEntity
  8
営業図
  6
CONTINUOUS
 62
    54
100
AcDbLine
 10
581.9191919186097
 20
19.00252525250626
 30
0.0
 11
583.6868686862847
 21
19.00252525250626
 31
0.0
  0
LINE
  5
428
330
1F
100
AcDbEntity
  8
営業図
  6
CONTINUOUS
 62
    54
100
AcDbLine
 10
584.5707070701222
 20
19.00252525250626
 30
0.0
 11
586.3383838377972
 21
19.00252525250626
 31
0.0
  0
LINE
  5
429
330
1F
100
AcDbEntity
  8
営業図
  6
CONTINUOUS
 62
    54
100
AcDbLine
 10
583.6868686862847
 20
21.65404040401878
 30
0.0
 11
583.6868686862847
 21
19.00252525250626
 31
0.0
  0
LINE
  5
42A
330
1F
100
AcDbEntity
  8
営業図
  6
CONTINUOUS
 62
    54
100
AcDbLine
 10
584.5707070701222
 20
21.65404040401878
 30
0.0
 11
584.5707070701222
 21
19.00252525250626
 31
0.0
  0
TEXT
  5
42B
330
1F
100
AcDbEntity
  8
営業図
  6
CONTINUOUS
 62
    54
100
AcDbText
 10
597.3642676761201
 20
23.31141164012501
 30
0.0
 40
6.8208665
  1
大 和 建 工 株 式 会 社
 41
0.6977778186480046
  7
EXCADSTD
 72
     5
 11
696.5892676761201
 21
23.31141164012501
 31
0.0
100
AcDbText
  0
TEXT
  5
42C
330
1F
100
AcDbEntity
  8
営業図
  6
CONTINUOUS
 62
    54
100
AcDbText
 10
760.10101010025
 20
30.89015151512501
 30
0.0
 40
5.932203389830508
  1
月
  7
EXCADVERT
 72
     3
 11
760.10101010025
 21
22.14015151512501
 31
0.0
100
AcDbText
  0
TEXT
  5
42D
330
1F
100
AcDbEntity
  8
営業図
  6
CONTINUOUS
 62
    54
100
AcDbText
 10
735.5303030295676
 20
30.89015151512501
 30
0.0
 40
5.726439790575916
  1
年
  7
EXCADVERT
 72
     3
 11
735.5303030295676
 21
22.14015151512501
 31
0.0
100
AcDbText
  0
TEXT
  5
42E
330
1F
100
AcDbEntity
  8
営業図
  6
CONTINUOUS
 62
    54
100
AcDbText
 10
784.8484848477001
 20
30.89015151512501
 30
0.0
 40
6.730769230769231
  1
日
  7
EXCADVERT
 72
     3
 11
784.8484848477001
 21
22.14015151512501
 31
0.0
100
AcDbText
  0
TEXT
  5
42F
330
1F
100
AcDbEntity
  8
営業図
  6
CONTINUOUS
 62
    54
100
AcDbText
 10
988.0871212111374
 20
35.26515151512501
 30
0.0
 40
12.08563535911602
  1
図面
  7
EXCADVERT
 72
     3
 11
988.0871212111374
 21
17.76515151512501
 31
0.0
100
AcDbText
  0
TEXT
  5
430
330
1F
100
AcDbEntity
  8
営業図
  6
CONTINUOUS
 62
    54
100
AcDbText
 10
944.07196969603
 20
35.26515151512501
 30
0.0
 40
11.24678663239074
  1
尺度
  7
EXCADVERT
 72
     3
 11
944.07196969603
 21
17.76515151512501
 31
0.0
100
AcDbText
  0
TEXT
  5
431
330
1F
100
AcDbEntity
  8
営業図
  6
CONTINUOUS
 62
    54
100
AcDbText
 10
792.6262626254698
 20
35.26515151512501
 30
0.0
 40
11.29761136216914
  1
名称
  7
EXCADVERT
 72
     3
 11
792.6262626254698
 21
17.76515151512501
 31
0.0
100
AcDbText
  0
ENDSEC
  0
SECTION
  2
OBJECTS
  0
DICTIONARY
  5
C
330
0
100
AcDbDictionary
  3
ACAD_GROUP
350
D
  3
ACAD_LAYOUT
350
1A
  3
ACAD_MATERIAL
350
43
  3
ACAD_MLEADERSTYLE
350
6B
  3
ACAD_MLINESTYLE
350
17
  3
ACAD_PLOTSETTINGS
350
19
  3
ACAD_SCALELIST
350
47
  3
ACAD_VISUALSTYLE
350
2A
  3
ACDBHEADERROUNDTRIPXREC
350
432
  3
ACDBVARIABLEDICTIONARY
350
453
  0
DICTIONARY
  5
45C
330
8
100
AcDbDictionary
280
     1
  3
ACAD_XREC_ROUNDTRIP
360
45D
  0
DICTIONARY
  5
D
102
{ACAD_REACTORS
330
C
102
}
330
C
100
AcDbDictionary
  0
DICTIONARY
  5
1A
102
{ACAD_REACTORS
330
C
102
}
330
C
100
AcDbDictionary
  0
DICTIONARY
  5
43
102
{ACAD_REACTORS
330
C
102
}
330
C
100
AcDbDictionary
  3
BYBLOCK
350
45
  3
BYLAYER
350
44
  3
GLOBAL
350
46
  0
DICTIONARY
  5
6B
102
{ACAD_REACTORS
330
C
102
}
330
C
100
AcDbDictionary
  3
STANDARD
350
6C
  0
DICTIONARY
  5
17
102
{ACAD_REACTORS
330
C
102
}
330
C
100
AcDbDictionary
  3
STANDARD
350
18
  0
DICTIONARY
  5
19
102
{ACAD_REACTORS
330
C
102
}
330
C
100
AcDbDictionary
  0
DICTIONARY
  5
47
102
{ACAD_REACTORS
330
C
102
}
330
C
100
AcDbDictionary
  3
A0
350
48
  3
A1
350
49
  3
A2
350
4A
  3
A3
350
4B
  3
A4
350
4C
  3
A5
350
4D
  3
A6
350
4E
  3
A7
350
4F
  3
A8
350
50
  3
A9
350
51
  3
B0
350
52
  3
B1
350
53
  3
B2
350
54
  3
B3
350
55
  3
B4
350
56
  3
B5
350
57
  3
B6
350
58
  3
B7
350
59
  3
B8
350
5A
  3
B9
350
5B
  3
C0
350
5C
  3
C1
350
5D
  3
C2
350
5E
  3
C3
350
5F
  3
C4
350
60
  3
C5
350
61
  3
C6
350
62
  3
C7
350
63
  3
C8
350
64
  3
C9
350
65
  3
D0
350
66
  3
D1
350
67
  3
D2
350
68
  0
DICTIONARY
  5
2A
102
{ACAD_REACTORS
330
C
102
}
330
C
100
AcDbDictionary
  3
2DWIREFRAME
350
2F
  3
BASIC
350
32
  3
BRIGHTEN
350
36
  3
COLORCHANGE
350
3A
  3
CONCEPTUAL
350
34
  3
DIM
350
35
  3
EDGECOLOROFF
350
3D
  3
FACEPATTERN
350
39
  3
FLAT
350
2B
  3
FLATWITHEDGES
350
2C
  3
GOURAUD
350
2D
  3
GOURAUDWITHEDGES
350
2E
  3
HIDDEN
350
31
  3
JITTEROFF
350
3B
  3
LINEPATTERN
350
38
  3
OVERHANGOFF
350
3C
  3
REALISTIC
350
33
  3
SHADED
350
42
  3
SHADED_WITH_EDGES
350
41
  3
SHADES_OF_GRAY
350
3E
  3
SKETCHY
350
3F
  3
THICKEN
350
37
  3
WIREFRAME
350
30
  3
X-RAY
350
40
  0
DICTIONARY
  5
432
102
{ACAD_REACTORS
330
C
102
}
330
C
100
AcDbDictionary
  3
CEPSNID
350
43C
  3
CEPSNTYPE
350
43B
  3
DIMSTYLEDATA
350
452
  3
FINGERPRINTGUID
350
43D
  3
HYPERLINKBASE
350
435
  3
INSUNITS
350
43A
  3
LAYOUTDICT
350
437
  3
LWETCUNION
350
439
  3
PLOTSETDICT
350
438
  3
PSVPSCALE
350
43F
  3
PUCSBASE
350
442
  3
PUCSORGBACK
350
448
  3
PUCSORGBOTTOM
350
444
  3
PUCSORGFRONT
350
447
  3
PUCSORGLEFT
350
445
  3
PUCSORGRIGHT
350
446
  3
PUCSORGTOP
350
443
  3
PUCSORTHOREF
350
440
  3
PUCSORTHOVIEW
350
441
  3
STYLESHEET
350
436
  3
TSTACKALIGN
350
433
  3
TSTACKSIZE
350
434
  3
UCSBASE
350
44B
  3
UCSORGBACK
350
451
  3
UCSORGBOTTOM
350
44D
  3
UCSORGFRONT
350
450
  3
UCSORGLEFT
350
44E
  3
UCSORGRIGHT
350
44F
  3
UCSORGTOP
350
44C
  3
UCSORTHOREF
350
449
  3
UCSORTHOVIEW
350
44A
  3
VERSIONGUID
350
43E
  0
DICTIONARY
  5
453
102
{ACAD_REACTORS
330
C
102
}
330
C
100
AcDbDictionary
  3
CANNOSCALE
350
45E
  3
CMLEADERSTYLE
350
455
  3
CTABLESTYLE
350
454
  3
DIMASSOC
350
45A
  3
HIDETEXT
350
45B
  3
MSLTSCALE
350
45F
  3
PSOLHEIGHT
350
457
  3
PSOLWIDTH
350
456
  0
XRECORD
  5
45D
102
{ACAD_REACTORS
330
45C
102
}
330
45C
100
AcDbXrecord
102
VTR_0.000_0.000_1.000_1.000_VISUALSTYLE
340
2F
102
VTR_0.000_0.000_1.000_1.000_GRIDDISPLAY
 70
     3
102
VTR_0.000_0.000_1.000_1.000_GRIDMAJOR
 70
     5
102
VTR_0.000_0.000_1.000_1.000_DEFAULTLIGHTING
280
     1
102
VTR_0.000_0.000_1.000_1.000_DEFAULTLIGHTINGTYPE
 70
     1
102
VTR_0.000_0.000_1.000_1.000_BRIGHTNESS
141
0.0
102
VTR_0.000_0.000_1.000_1.000_CONTRAST
142
0.0
  0
MATERIAL
  5
45
102
{ACAD_REACTORS
330
43
102
}
102
{ACAD_XDICTIONARY
360
462
102
}
330
43
100
AcDbMaterial
  1
BYBLOCK
  0
MATERIAL
  5
44
102
{ACAD_REACTORS
330
43
102
}
102
{ACAD_XDICTIONARY
360
460
102
}
330
43
100
AcDbMaterial
  1
BYLAYER
  0
MATERIAL
  5
46
102
{ACAD_REACTORS
330
43
102
}
102
{ACAD_XDICTIONARY
360
464
102
}
330
43
100
AcDbMaterial
  1
GLOBAL
  0
ACAD_PROXY_OBJECT
  5
6C
102
{ACAD_REACTORS
330
6B
102
}
330
6B
100
AcDbProxyObject
 90
      499
 91
      505
 93
      610
310
40901902A4063FBFFFFFE0000000000000020400000000000020404214DD185B99185C990000000000000104090141901A00000000000004100000000000000041025764000000000000039000
340
14
340
0
340
11
340
0
 94
        0
1001
ACAD_MLEADERVER
1070
     2
  0
MLINESTYLE
  5
18
102
{ACAD_REACTORS
330
17
102
}
330
17
100
AcDbMlineStyle
  2
Standard
 70
     0
  3

 62
   256
 51
90.0
 52
90.0
 71
     2
 49
0.5
 62
   256
  6
BYLAYER
 49
-0.5
 62
   256
  6
BYLAYER
  0
ACAD_PROXY_OBJECT
  5
48
102
{ACAD_REACTORS
330
47
102
}
330
47
100
AcDbProxyObject
 90
      499
 91
      503
 93
       41
310
903313A31580
  0
ACAD_PROXY_OBJECT
  5
49
102
{ACAD_REACTORS
330
47
102
}
330
47
100
AcDbProxyObject
 90
      499
 91
      503
 93
      105
310
903313A324000000000000004000
  0
ACAD_PROXY_OBJECT
  5
4A
102
{ACAD_REACTORS
330
47
102
}
330
47
100
AcDbProxyObject
 90
      499
 91
      503
 93
      105
310
903313A344000000000000104000
  0
ACAD_PROXY_OBJECT
  5
4B
102
{ACAD_REACTORS
330
47
102
}
330
47
100
AcDbProxyObject
 90
      499
 91
      503
 93
      105
310
903313A354000000000000144000
  0
ACAD_PROXY_OBJECT
  5
4C
102
{ACAD_REACTORS
330
47
102
}
330
47
100
AcDbProxyObject
 90
      499
 91
      503
 93
      105
310
903313A384000000000000204000
  0
ACAD_PROXY_OBJECT
  5
4D
102
{ACAD_REACTORS
330
47
102
}
330
47
100
AcDbProxyObject
 90
      499
 91
      503
 93
      113
310
904313A31304000000000000244000
  0
ACAD_PROXY_OBJECT
  5
4E
102
{ACAD_REACTORS
330
47
102
}
330
47
100
AcDbProxyObject
 90
      499
 91
      503
 93
      113
310
904313A31364000000000000304000
  0
ACAD_PROXY_OBJECT
  5
4F
102
{ACAD_REACTORS
330
47
102
}
330
47
100
AcDbProxyObject
 90
      499
 91
      503
 93
      113
310
904313A32304000000000000344000
  0
ACAD_PROXY_OBJECT
  5
50
102
{ACAD_REACTORS
330
47
102
}
330
47
100
AcDbProxyObject
 90
      499
 91
      503
 93
      113
310
904313A333040000000000003E4000
  0
ACAD_PROXY_OBJECT
  5
51
102
{ACAD_REACTORS
330
47
102
}
330
47
100
AcDbProxyObject
 90
      499
 91
      503
 93
      113
310
904313A34304000000000000444000
  0
ACAD_PROXY_OBJECT
  5
52
102
{ACAD_REACTORS
330
47
102
}
330
47
100
AcDbProxyObject
 90
      499
 91
      503
 93
      113
310
904313A35304000000000000494000
  0
ACAD_PROXY_OBJECT
  5
53
102
{ACAD_REACTORS
330
47
102
}
330
47
100
AcDbProxyObject
 90
      499
 91
      503
 93
      121
310
905313A3130304000000000000594000
  0
ACAD_PROXY_OBJECT
  5
54
102
{ACAD_REACTORS
330
47
102
}
330
47
100
AcDbProxyObject
 90
      499
 91
      503
 93
      105
310
903323A310000000000000010100
  0
ACAD_PROXY_OBJECT
  5
55
102
{ACAD_REACTORS
330
47
102
}
330
47
100
AcDbProxyObject
 90
      499
 91
      503
 93
      105
310
903343A310000000000000410100
  0
ACAD_PROXY_OBJECT
  5
56
102
{ACAD_REACTORS
330
47
102
}
330
47
100
AcDbProxyObject
 90
      499
 91
      503
 93
      105
310
903383A310000000000000810100
  0
ACAD_PROXY_OBJECT
  5
57
102
{ACAD_REACTORS
330
47
102
}
330
47
100
AcDbProxyObject
 90
      499
 91
      503
 93
      113
310
90431303A310000000000000910100
  0
ACAD_PROXY_OBJECT
  5
58
102
{ACAD_REACTORS
330
47
102
}
330
47
100
AcDbProxyObject
 90
      499
 91
      503
 93
      121
310
9053130303A310000000000001650100
  0
ACAD_PROXY_OBJECT
  5
59
102
{ACAD_REACTORS
330
47
102
}
330
47
100
AcDbProxyObject
 90
      499
 91
      503
 93
      257
310
90E312F31323822203D2031272D3022000000000000200FC000000000000284000
  0
ACAD_PROXY_OBJECT
  5
5A
102
{ACAD_REACTORS
330
47
102
}
330
47
100
AcDbProxyObject
 90
      499
 91
      503
 93
      249
310
90D312F363422203D2031272D3022000000000000240FC000000000000284000
  0
ACAD_PROXY_OBJECT
  5
5B
102
{ACAD_REACTORS
330
47
102
}
330
47
100
AcDbProxyObject
 90
      499
 91
      503
 93
      249
310
90D312F333222203D2031272D3022000000000000280FC000000000000284000
  0
ACAD_PROXY_OBJECT
  5
5C
102
{ACAD_REACTORS
330
47
102
}
330
47
100
AcDbProxyObject
 90
      499
 91
      503
 93
      249
310
90D312F313622203D2031272D30220000000000002C0FC000000000000284000
  0
ACAD_PROXY_OBJECT
  5
5D
102
{ACAD_REACTORS
330
47
102
}
330
47
100
AcDbProxyObject
 90
      499
 91
      503
 93
      249
310
90D332F333222203D2031272D30220000000000002E0FC000000000000284000
  0
ACAD_PROXY_OBJECT
  5
5E
102
{ACAD_REACTORS
330
47
102
}
330
47
100
AcDbProxyObject
 90
      499
 91
      503
 93
      241
310
90C312F3822203D2031272D3022000000000000300FC000000000000284000
  0
ACAD_PROXY_OBJECT
  5
5F
102
{ACAD_REACTORS
330
47
102
}
330
47
100
AcDbProxyObject
 90
      499
 91
      503
 93
      249
310
90D332F313622203D2031272D3022000000000000320FC000000000000284000
  0
ACAD_PROXY_OBJECT
  5
60
102
{ACAD_REACTORS
330
47
102
}
330
47
100
AcDbProxyObject
 90
      499
 91
      503
 93
      241
310
90C312F3422203D2031272D3022000000000000340FC000000000000284000
  0
ACAD_PROXY_OBJECT
  5
61
102
{ACAD_REACTORS
330
47
102
}
330
47
100
AcDbProxyObject
 90
      499
 91
      503
 93
      241
310
90C332F3822203D2031272D3022000000000000360FC000000000000284000
  0
ACAD_PROXY_OBJECT
  5
62
102
{ACAD_REACTORS
330
47
102
}
330
47
100
AcDbProxyObject
 90
      499
 91
      503
 93
      241
310
90C312F3222203D2031272D3022000000000000380FC000000000000284000
  0
ACAD_PROXY_OBJECT
  5
63
102
{ACAD_REACTORS
330
47
102
}
330
47
100
AcDbProxyObject
 90
      499
 91
      503
 93
      241
310
90C332F3422203D2031272D30220000000000003A0FC000000000000284000
  0
ACAD_PROXY_OBJECT
  5
64
102
{ACAD_REACTORS
330
47
102
}
330
47
100
AcDbProxyObject
 90
      499
 91
      503
 93
      161
310
90A3122203D2031272D30224000000000000284000
  0
ACAD_PROXY_OBJECT
  5
65
102
{ACAD_REACTORS
330
47
102
}
330
47
100
AcDbProxyObject
 90
      499
 91
      503
 93
      257
310
90E312D312F3222203D2031272D30220000000000003E0FC000000000000284000
  0
ACAD_PROXY_OBJECT
  5
66
102
{ACAD_REACTORS
330
47
102
}
330
47
100
AcDbProxyObject
 90
      499
 91
      503
 93
      225
310
90A3322203D2031272D302200000000000002100000000000000284000
  0
ACAD_PROXY_OBJECT
  5
67
102
{ACAD_REACTORS
330
47
102
}
330
47
100
AcDbProxyObject
 90
      499
 91
      503
 93
      225
310
90A3622203D2031272D302200000000000006100000000000000284000
  0
ACAD_PROXY_OBJECT
  5
68
102
{ACAD_REACTORS
330
47
102
}
330
47
100
AcDbProxyObject
 90
      499
 91
      503
 93
      249
310
90D31272D3022203D2031272D30220000000000000A100000000000000284000
  0
ACAD_PROXY_OBJECT
  5
2F
102
{ACAD_REACTORS
330
2A
102
}
330
2A
100
AcDbProxyObject
 90
      499
 91
      501
 93
      436
310
42CC9915DA5C99599C985B595049028333333333333E33F0000000000000F90107901411070040501600405405064090741402480A0340
1001
ACAD
1000
AcDbSavedByObjectVersion
1070
     0
  0
ACAD_PROXY_OBJECT
  5
32
102
{ACAD_REACTORS
330
2A
102
}
330
2A
100
AcDbProxyObject
 90
      499
 91
      501
 93
      388
310
4150985CDA58D07406404333333333333E33F0000000000000F90107A41107004050150841D405064090741402480A0350
1001
ACAD
1000
AcDbSavedByObjectVersion
1070
     0
  0
ACAD_PROXY_OBJECT
  5
36
102
{ACAD_REACTORS
330
2A
102
}
330
2A
100
AcDbProxyObject
 90
      499
 91
      501
 93
      428
310
42109C9A59DA1D195B90C409028333333333333E33F0000000000000F9010790141107004050150841D405064090741402480A029950
1001
ACAD
1000
AcDbSavedByObjectVersion
1070
     0
  0
ACAD_PROXY_OBJECT
  5
3A
102
{ACAD_REACTORS
330
2A
102
}
330
2A
100
AcDbProxyObject
 90
      499
 91
      501
 93
      452
310
42D0DBDB1BDC90DA185B99D95104090240C333333333333E33F0000000000000F90108901411070040501508421405064090741402480A0350
1001
ACAD
1000
AcDbSavedByObjectVersion
1070
     0
  0
ACAD_PROXY_OBJECT
  5
34
102
{ACAD_REACTORS
330
2A
102
}
330
2A
100
AcDbProxyObject
 90
      499
 91
      501
 93
      500
310
4290DBDB98D95C1D1D585B10940D028333333333333E33F0000000000000F90107902409070040501000000000018199010841D405064090740C02480A0340
1001
ACAD
1000
AcDbSavedByObjectVersion
1070
     0
  0
ACAD_PROXY_OBJECT
  5
35
102
{ACAD_REACTORS
330
2A
102
}
330
2A
100
AcDbProxyObject
 90
      499
 91
      501
 93
      412
310
40D11A5B50B409028333333333333E33F0000000000000F9010790141107004050150841D405064090741402480A02677FFFFFD0
1001
ACAD
1000
AcDbSavedByObjectVersion
1070
     0
  0
ACAD_PROXY_OBJECT
  5
3D
102
{ACAD_REACTORS
330
2A
102
}
330
2A
100
AcDbProxyObject
 90
      499
 91
      501
 93
      452
310
43115919D950DBDB1BDC93D999916409028333333333333E33F0000000000000F9010790141107004050150841D405064090741402480A0350
1001
ACAD
1000
AcDbSavedByObjectVersion
1070
     0
  0
ACAD_PROXY_OBJECT
  5
39
102
{ACAD_REACTORS
330
2A
102
}
330
2A
100
AcDbProxyObject
 90
      499
 91
      501
 93
      444
310
42D19858D95C185D1D195C9B90F409028333333333333E33F0000000000000F9010790141107004050150841D405064090741402480A0350
1001
ACAD
1000
AcDbSavedByObjectVersion
1070
     0
  0
ACAD_PROXY_OBJECT
  5
2B
102
{ACAD_REACTORS
330
2A
102
}
330
2A
100
AcDbProxyObject
 90
      499
 91
      501
 93
      380
310
41119B185D240901404333333333333E33F0000000000000F9010740A907004050150841D405064090741402480A1B50
1001
ACAD
1000
AcDbSavedByObjectVersion
1070
     0
  0
ACAD_PROXY_OBJECT
  5
2C
102
{ACAD_REACTORS
330
2A
102
}
330
2A
100
AcDbProxyObject
 90
      499
 91
      501
 93
      468
310
43519B185D15DA5D1A115919D95CD0140901404333333333333E33F0000000000000F90107409019070040501600405405064090741402480A1B50
1001
ACAD
1000
AcDbSavedByObjectVersion
1070
     0
  0
ACAD_PROXY_OBJECT
  5
2D
102
{ACAD_REACTORS
330
2A
102
}
330
2A
100
AcDbProxyObject
 90
      499
 91
      501
 93
      404
310
41D1DBDD5C985D5910240902404333333333333E33F0000000000000F9010740A9070040501641D405064090741402480A1B50
1001
ACAD
1000
AcDbSavedByObjectVersion
1070
     0
  0
ACAD_PROXY_OBJECT
  5
2E
102
{ACAD_REACTORS
330
2A
102
}
330
2A
100
AcDbProxyObject
 90
      499
 91
      501
 93
      492
310
4411DBDD5C985D5915DA5D1A115919D95CD0340902404333333333333E33F0000000000000F90107409019070040501600405405064090741402480A1B50
1001
ACAD
1000
AcDbSavedByObjectVersion
1070
     0
  0
ACAD_PROXY_OBJECT
  5
31
102
{ACAD_REACTORS
330
2A
102
}
330
2A
100
AcDbProxyObject
 90
      499
 91
      501
 93
      476
310
41921A5919195B90640502408333333333333E33F0000000000000F901079024090700405020000000000001110200405405064090740C02480A0340
1001
ACAD
1000
AcDbSavedByObjectVersion
1070
     0
  0
ACAD_PROXY_OBJECT
  5
3B
102
{ACAD_REACTORS
330
2A
102
}
330
2A
100
AcDbProxyObject
 90
      499
 91
      501
 93
      428
310
42529A5D1D195C93D999914409028333333333333E33F0000000000000F9010790141107004050150A41D405064090741402480A0350
1001
ACAD
1000
AcDbSavedByObjectVersion
1070
     0
  0
ACAD_PROXY_OBJECT
  5
38
102
{ACAD_REACTORS
330
2A
102
}
330
2A
100
AcDbProxyObject
 90
      499
 91
      501
 93
      444
310
42D31A5B995C185D1D195C9B90E409028333333333333E33F0000000000000F9010790141107004050750841D405064090741402483A0350
1001
ACAD
1000
AcDbSavedByObjectVersion
1070
     0
  0
ACAD_PROXY_OBJECT
  5
3C
102
{ACAD_REACTORS
330
2A
102
}
330
2A
100
AcDbProxyObject
 90
      499
 91
      501
 93
      444
310
42D3DD995C9A185B99D3D999915409028333333333333E33F0000000000000F9010790141107004050150941D405064090741402480A0350
1001
ACAD
1000
AcDbSavedByObjectVersion
1070
     0
  0
ACAD_PROXY_OBJECT
  5
33
102
{ACAD_REACTORS
330
2A
102
}
330
2A
100
AcDbProxyObject
 90
      499
 91
      501
 93
      428
310
425499585B1A5CDD1A58D08409038333333333333E33F0000000000000F9010740A907004050150800405405064090740C02480A1B40
1001
ACAD
1000
AcDbSavedByObjectVersion
1070
     0
  0
ACAD_PROXY_OBJECT
  5
42
102
{ACAD_REACTORS
330
2A
102
}
330
2A
100
AcDbProxyObject
 90
      499
 91
      501
 93
      420
310
4194DA1859195911B40902404333333333333E33F0000000000000F9010740A41107004050150800405405064090840C02480A0B40
1001
ACAD
1000
AcDbSavedByObjectVersion
1070
     0
  0
ACAD_PROXY_OBJECT
  5
41
102
{ACAD_REACTORS
330
2A
102
}
330
2A
100
AcDbProxyObject
 90
      499
 91
      501
 93
      516
310
4454DA18591959081DDA5D1A08195919D95CD1A40902404333333333333E33F0000000000000F901074090142907004050250800405405064090740C02480A0B40
1001
ACAD
1000
AcDbSavedByObjectVersion
1070
     0
  0
ACAD_PROXY_OBJECT
  5
3E
102
{ACAD_REACTORS
330
2A
102
}
330
2A
100
AcDbProxyObject
 90
      499
 91
      501
 93
      532
310
4394DA1859195CC81BD98811DC985E5174090240C333333333333E33F0000000000000F901079024090741D01000000000000111010841D405064090740C02480A0340
1001
ACAD
1000
AcDbSavedByObjectVersion
1070
     0
  0
ACAD_PROXY_OBJECT
  5
3F
102
{ACAD_REACTORS
330
2A
102
}
330
2A
100
AcDbProxyObject
 90
      499
 91
      501
 93
      476
310
41D4DAD95D18DA1E51840502408333333333333E33F0000000000000F901079024090741D01000000000000111010B41D405064090741802480A0340
1001
ACAD
1000
AcDbSavedByObjectVersion
1070
     0
  0
ACAD_PROXY_OBJECT
  5
37
102
{ACAD_REACTORS
330
2A
102
}
330
2A
100
AcDbProxyObject
 90
      499
 91
      501
 93
      412
310
41D51A1A58DAD95B90D409028333333333333E33F0000000000000F9010790141107004050150C41D405064090741402480A0350
1001
ACAD
1000
AcDbSavedByObjectVersion
1070
     0
  0
ACAD_PROXY_OBJECT
  5
30
102
{ACAD_REACTORS
330
2A
102
}
330
2A
100
AcDbProxyObject
 90
      499
 91
      501
 93
      420
310
4255DA5C99599C985B595059028333333333333E33F0000000000000F90107901411070040501600405405064090740C02480A0340
1001
ACAD
1000
AcDbSavedByObjectVersion
1070
     0
  0
ACAD_PROXY_OBJECT
  5
40
102
{ACAD_REACTORS
330
2A
102
}
330
2A
100
AcDbProxyObject
 90
      499
 91
      501
 93
      404
310
41560B54985E51940902404000000000000E03F0000000000000F9010740501907004050150841D405064090740C02480A1B40
1001
ACAD
1000
AcDbSavedByObjectVersion
1070
     0
  0
XRECORD
  5
43C
102
{ACAD_REACTORS
330
432
102
}
330
432
100
AcDbXrecord
340
0
  0
XRECORD
  5
43B
102
{ACAD_REACTORS
330
432
102
}
330
432
100
AcDbXrecord
 90
        0
  0
XRECORD
  5
452
102
{ACAD_REACTORS
330
432
102
}
330
432
100
AcDbXrecord
1000
DSTYLE
1002
{
1070
   340
340
11
1002
}
  0
XRECORD
  5
43D
102
{ACAD_REACTORS
330
432
102
}
330
432
100
AcDbXrecord
  1
{7C28ED7A-CD1C-4F3E-89C1-CDE4C6C43CBC}
  0
XRECORD
  5
435
102
{ACAD_REACTORS
330
432
102
}
330
432
100
AcDbXrecord
  1

  0
XRECORD
  5
43A
102
{ACAD_REACTORS
330
432
102
}
330
432
100
AcDbXrecord
 90
        4
  0
XRECORD
  5
437
102
{ACAD_REACTORS
330
432
102
}
330
432
100
AcDbXrecord
340
1A
  0
XRECORD
  5
439
102
{ACAD_REACTORS
330
432
102
}
330
432
100
AcDbXrecord
 90
    10781
  0
XRECORD
  5
438
102
{ACAD_REACTORS
330
432
102
}
330
432
100
AcDbXrecord
340
19
  0
XRECORD
  5
43F
102
{ACAD_REACTORS
330
432
102
}
330
432
100
AcDbXrecord
 40
0.0
  0
XRECORD
  5
442
102
{ACAD_REACTORS
330
432
102
}
330
432
100
AcDbXrecord
340
0
  0
XRECORD
  5
448
102
{ACAD_REACTORS
330
432
102
}
330
432
100
AcDbXrecord
 10
0.0
 20
0.0
 30
0.0
  0
XRECORD
  5
444
102
{ACAD_REACTORS
330
432
102
}
330
432
100
AcDbXrecord
 10
0.0
 20
0.0
 30
0.0
  0
XRECORD
  5
447
102
{ACAD_REACTORS
330
432
102
}
330
432
100
AcDbXrecord
 10
0.0
 20
0.0
 30
0.0
  0
XRECORD
  5
445
102
{ACAD_REACTORS
330
432
102
}
330
432
100
AcDbXrecord
 10
0.0
 20
0.0
 30
0.0
  0
XRECORD
  5
446
102
{ACAD_REACTORS
330
432
102
}
330
432
100
AcDbXrecord
 10
0.0
 20
0.0
 30
0.0
  0
XRECORD
  5
443
102
{ACAD_REACTORS
330
432
102
}
330
432
100
AcDbXrecord
 10
0.0
 20
0.0
 30
0.0
  0
XRECORD
  5
440
102
{ACAD_REACTORS
330
432
102
}
330
432
100
AcDbXrecord
340
0
  0
XRECORD
  5
441
102
{ACAD_REACTORS
330
432
102
}
330
432
100
AcDbXrecord
 70
     0
  0
XRECORD
  5
436
102
{ACAD_REACTORS
330
432
102
}
330
432
100
AcDbXrecord
  1

  0
XRECORD
  5
433
102
{ACAD_REACTORS
330
432
102
}
330
432
100
AcDbXrecord
 90
        1
  0
XRECORD
  5
434
102
{ACAD_REACTORS
330
432
102
}
330
432
100
AcDbXrecord
 90
       70
  0
XRECORD
  5
44B
102
{ACAD_REACTORS
330
432
102
}
330
432
100
AcDbXrecord
340
0
  0
XRECORD
  5
451
102
{ACAD_REACTORS
330
432
102
}
330
432
100
AcDbXrecord
 10
0.0
 20
0.0
 30
0.0
  0
XRECORD
  5
44D
102
{ACAD_REACTORS
330
432
102
}
330
432
100
AcDbXrecord
 10
0.0
 20
0.0
 30
0.0
  0
XRECORD
  5
450
102
{ACAD_REACTORS
330
432
102
}
330
432
100
AcDbXrecord
 10
0.0
 20
0.0
 30
0.0
  0
XRECORD
  5
44E
102
{ACAD_REACTORS
330
432
102
}
330
432
100
AcDbXrecord
 10
0.0
 20
0.0
 30
0.0
  0
XRECORD
  5
44F
102
{ACAD_REACTORS
330
432
102
}
330
432
100
AcDbXrecord
 10
0.0
 20
0.0
 30
0.0
  0
XRECORD
  5
44C
102
{ACAD_REACTORS
330
432
102
}
330
432
100
AcDbXrecord
 10
0.0
 20
0.0
 30
0.0
  0
XRECORD
  5
449
102
{ACAD_REACTORS
330
432
102
}
330
432
100
AcDbXrecord
340
0
  0
XRECORD
  5
44A
102
{ACAD_REACTORS
330
432
102
}
330
432
100
AcDbXrecord
 70
     0
  0
XRECORD
  5
43E
102
{ACAD_REACTORS
330
432
102
}
330
432
100
AcDbXrecord
  1
{FAEB1C32-E019-11D5-929B-00C0DF256EC4}
  0
DICTIONARYVAR
  5
45E
102
{ACAD_REACTORS
330
453
102
}
330
453
100
DictionaryVariables
280
     0
  1
1:1
  0
DICTIONARYVAR
  5
455
102
{ACAD_REACTORS
330
453
102
}
330
453
100
DictionaryVariables
280
     0
  1
Standard
  0
DICTIONARYVAR
  5
454
102
{ACAD_REACTORS
330
453
102
}
330
453
100
DictionaryVariables
280
     0
  1
Standard
  0
DICTIONARYVAR
  5
45A
102
{ACAD_REACTORS
330
453
102
}
330
453
100
DictionaryVariables
280
     0
  1
2
  0
DICTIONARYVAR
  5
45B
102
{ACAD_REACTORS
330
453
102
}
330
453
100
DictionaryVariables
280
     0
  1
1
  0
DICTIONARYVAR
  5
45F
102
{ACAD_REACTORS
330
453
102
}
330
453
100
DictionaryVariables
280
     0
  1
1
  0
DICTIONARYVAR
  5
457
102
{ACAD_REACTORS
330
453
102
}
330
453
100
DictionaryVariables
280
     0
  1
80.000000
  0
DICTIONARYVAR
  5
456
102
{ACAD_REACTORS
330
453
102
}
330
453
100
DictionaryVariables
280
     0
  1
5.000000
  0
DICTIONARY
  5
462
330
45
100
AcDbDictionary
280
     1
  3
ACAD_XREC_ROUNDTRIP
360
463
  0
DICTIONARY
  5
460
330
44
100
AcDbDictionary
280
     1
  3
ACAD_XREC_ROUNDTRIP
360
461
  0
DICTIONARY
  5
464
330
46
100
AcDbDictionary
280
     1
  3
ACAD_XREC_ROUNDTRIP
360
465
  0
XRECORD
  5
463
102
{ACAD_REACTORS
330
462
102
}
330
462
100
AcDbXrecord
102
MATERIAL
148
0.0
149
0.0
149
0.0
 93
        0
 94
      127
282
     0
 72
     1
 77
     1
171
     1
175
     1
179
     1
273
     0
  0
XRECORD
  5
461
102
{ACAD_REACTORS
330
460
102
}
330
460
100
AcDbXrecord
102
MATERIAL
148
0.0
149
0.0
149
0.0
 93
        0
 94
      127
282
     0
 72
     1
 77
     1
171
     1
175
     1
179
     1
273
     0
  0
XRECORD
  5
465
102
{ACAD_REACTORS
330
464
102
}
330
464
100
AcDbXrecord
102
MATERIAL
148
0.0
149
0.0
149
0.0
 93
        0
 94
      127
282
     0
 72
     1
 77
     1
171
     1
175
     1
179
     1
273
     0
  0
ENDSEC
  0
EOF
