  0
SECTION
  2
HEADER
  9
$ACADVER
  1
AC1014
  9
$ACADMAINTVER
 70
     9
  9
$DWGCODEPAGE
  3
ANSI_932
  9
$INSBASE
 10
0.0
 20
0.0
 30
0.0
  9
$EXTMIN
 10
0.0
 20
0.0
 30
0.0
  9
$EXTMAX
 10
617.2727272721099
 20
434.84848484805
 30
0.0
  9
$LIMMIN
 10
0.0
 20
0.0
  9
$LIMMAX
 10
420.0
 20
297.0
  9
$ORTHOMODE
 70
     0
  9
$REGENMODE
 70
     1
  9
$FILLMODE
 70
     1
  9
$QTEXTMODE
 70
     0
  9
$MIRRTEXT
 70
     1
  9
$DRAGMODE
 70
     2
  9
$LTSCALE
 40
1.0
  9
$OSMODE
 70
    37
  9
$ATTMODE
 70
     1
  9
$TEXTSIZE
 40
2.5
  9
$TRACEWID
 40
1.0
  9
$TEXTSTYLE
  7
STANDARD
  9
$CLAYER
  8
営業図
  9
$CELTYPE
  6
BYLAYER
  9
$CECOLOR
 62
   256
  9
$CELTSCALE
 40
1.0
  9
$DELOBJ
 70
     1
  9
$DISPSILH
 70
     0
  9
$DIMSCALE
 40
1.0
  9
$DIMASZ
 40
2.5
  9
$DIMEXO
 40
0.625
  9
$DIMDLI
 40
3.75
  9
$DIMRND
 40
0.0
  9
$DIMDLE
 40
0.0
  9
$DIMEXE
 40
1.25
  9
$DIMTP
 40
0.0
  9
$DIMTM
 40
0.0
  9
$DIMTXT
 40
2.5
  9
$DIMCEN
 40
2.5
  9
$DIMTSZ
 40
0.0
  9
$DIMTOL
 70
     0
  9
$DIMLIM
 70
     0
  9
$DIMTIH
 70
     0
  9
$DIMTOH
 70
     0
  9
$DIMSE1
 70
     0
  9
$DIMSE2
 70
     0
  9
$DIMTAD
 70
     1
  9
$DIMZIN
 70
     8
  9
$DIMBLK
  1

  9
$DIMASO
 70
     1
  9
$DIMSHO
 70
     1
  9
$DIMPOST
  1

  9
$DIMAPOST
  1

  9
$DIMALT
 70
     0
  9
$DIMALTD
 70
     3
  9
$DIMALTF
 40
0.03937007874016
  9
$DIMLFAC
 40
1.0
  9
$DIMTOFL
 70
     1
  9
$DIMTVP
 40
0.0
  9
$DIMTIX
 70
     0
  9
$DIMSOXD
 70
     0
  9
$DIMSAH
 70
     0
  9
$DIMBLK1
  1

  9
$DIMBLK2
  1

  9
$DIMSTYLE
  2
ISO-25
  9
$DIMCLRD
 70
     0
  9
$DIMCLRE
 70
     0
  9
$DIMCLRT
 70
     0
  9
$DIMTFAC
 40
1.0
  9
$DIMGAP
 40
0.625
  9
$DIMJUST
 70
     0
  9
$DIMSD1
 70
     0
  9
$DIMSD2
 70
     0
  9
$DIMTOLJ
 70
     0
  9
$DIMTZIN
 70
     8
  9
$DIMALTZ
 70
     0
  9
$DIMALTTZ
 70
     0
  9
$DIMFIT
 70
     3
  9
$DIMUPT
 70
     0
  9
$DIMUNIT
 70
     2
  9
$DIMDEC
 70
     2
  9
$DIMTDEC
 70
     2
  9
$DIMALTU
 70
     2
  9
$DIMALTTD
 70
     3
  9
$DIMTXSTY
  7
STANDARD
  9
$DIMAUNIT
 70
     0
  9
$LUNITS
 70
     2
  9
$LUPREC
 70
     4
  9
$SKETCHINC
 40
1.0
  9
$FILLETRAD
 40
10.0
  9
$AUNITS
 70
     0
  9
$AUPREC
 70
     0
  9
$MENU
  1
.
  9
$ELEVATION
 40
0.0
  9
$PELEVATION
 40
0.0
  9
$THICKNESS
 40
0.0
  9
$LIMCHECK
 70
     0
  9
$CHAMFERA
 40
0.0
  9
$CHAMFERB
 40
0.0
  9
$CHAMFERC
 40
0.0
  9
$CHAMFERD
 40
0.0
  9
$SKPOLY
 70
     0
  9
$TDCREATE
 40
2457806.567396435
  9
$TDUPDATE
 40
2457806.567396516
  9
$TDINDWG
 40
0.0000000116
  9
$TDUSRTIMER
 40
0.0000000116
  9
$USRTIMER
 70
     1
  9
$ANGBASE
 50
0.0
  9
$ANGDIR
 70
     0
  9
$PDMODE
 70
     0
  9
$PDSIZE
 40
0.0
  9
$PLINEWID
 40
0.0
  9
$COORDS
 70
     1
  9
$SPLFRAME
 70
     0
  9
$SPLINETYPE
 70
     6
  9
$SPLINESEGS
 70
     8
  9
$ATTDIA
 70
     0
  9
$ATTREQ
 70
     1
  9
$HANDLING
 70
     1
  9
$HANDSEED
  5
45D
  9
$SURFTAB1
 70
     6
  9
$SURFTAB2
 70
     6
  9
$SURFTYPE
 70
     6
  9
$SURFU
 70
     6
  9
$SURFV
 70
     6
  9
$UCSNAME
  2

  9
$UCSORG
 10
0.0
 20
0.0
 30
0.0
  9
$UCSXDIR
 10
1.0
 20
0.0
 30
0.0
  9
$UCSYDIR
 10
0.0
 20
1.0
 30
0.0
  9
$PUCSNAME
  2

  9
$PUCSORG
 10
0.0
 20
0.0
 30
0.0
  9
$PUCSXDIR
 10
1.0
 20
0.0
 30
0.0
  9
$PUCSYDIR
 10
0.0
 20
1.0
 30
0.0
  9
$USERI1
 70
     0
  9
$USERI2
 70
     0
  9
$USERI3
 70
     0
  9
$USERI4
 70
     0
  9
$USERI5
 70
     0
  9
$USERR1
 40
0.0
  9
$USERR2
 40
0.0
  9
$USERR3
 40
0.0
  9
$USERR4
 40
0.0
  9
$USERR5
 40
0.0
  9
$WORLDVIEW
 70
     1
  9
$SHADEDGE
 70
     3
  9
$SHADEDIF
 70
    70
  9
$TILEMODE
 70
     1
  9
$MAXACTVP
 70
    64
  9
$PINSBASE
 10
0.0
 20
0.0
 30
0.0
  9
$PLIMCHECK
 70
     0
  9
$PEXTMIN
 10
1.000000000000000E+20
 20
1.000000000000000E+20
 30
1.000000000000000E+20
  9
$PEXTMAX
 10
-1.000000000000000E+20
 20
-1.000000000000000E+20
 30
-1.000000000000000E+20
  9
$PLIMMIN
 10
0.0
 20
0.0
  9
$PLIMMAX
 10
420.0
 20
297.0
  9
$UNITMODE
 70
     0
  9
$VISRETAIN
 70
     1
  9
$PLINEGEN
 70
     0
  9
$PSLTSCALE
 70
     1
  9
$TREEDEPTH
 70
  3020
  9
$PICKSTYLE
 70
     1
  9
$CMLSTYLE
  2
STANDARD
  9
$CMLJUST
 70
     0
  9
$CMLSCALE
 40
20.0
  9
$PROXYGRAPHICS
 70
     1
  9
$MEASUREMENT
 70
     1
  0
ENDSEC
  0
SECTION
  2
CLASSES
  0
CLASS
  1
ACDBDICTIONARYWDFLT
  2
AcDbDictionaryWithDefault
  3
ObjectDBX Classes
 90
        0
280
     0
281
     0
  0
CLASS
  1
VISUALSTYLE
  2
AcDbVisualStyle
  3
ObjectDBX Classes
 90
     4095
280
     0
281
     0
  0
CLASS
  1
MATERIAL
  2
AcDbMaterial
  3
ObjectDBX Classes
 90
     1153
280
     0
281
     0
  0
CLASS
  1
SCALE
  2
AcDbScale
  3
ObjectDBX Classes
 90
     1153
280
     0
281
     0
  0
CLASS
  1
TABLESTYLE
  2
AcDbTableStyle
  3
ObjectDBX Classes
 90
     4095
280
     0
281
     0
  0
CLASS
  1
MLEADERSTYLE
  2
AcDbMLeaderStyle
  3
ACDB_MLEADERSTYLE_CLASS
 90
     4095
280
     0
281
     0
  0
CLASS
  1
SUN
  2
AcDbSun
  3
SCENEOE
 90
     1153
280
     0
281
     0
  0
CLASS
  1
DICTIONARYVAR
  2
AcDbDictionaryVar
  3
ObjectDBX Classes
 90
        0
280
     0
281
     0
  0
CLASS
  1
XRECORD
  2
AcDbXrecord
  3
ObjectDBX Classes
 90
        0
280
     0
281
     0
  0
CLASS
  1
LWPOLYLINE
  2
AcDbPolyline
  3
ObjectDBX Classes
 90
        0
280
     0
281
     1
  0
CLASS
  1
HATCH
  2
AcDbHatch
  3
ObjectDBX Classes
 90
        0
280
     0
281
     1
  0
CLASS
  1
ACDBPLACEHOLDER
  2
AcDbPlaceHolder
  3
ObjectDBX Classes
 90
        0
280
     0
281
     0
  0
CLASS
  1
LAYOUT
  2
AcDbLayout
  3
ObjectDBX Classes
 90
        0
280
     0
281
     0
  0
ENDSEC
  0
SECTION
  2
TABLES
  0
TABLE
  2
VPORT
  5
8
102
{ACAD_XDICTIONARY
360
452
102
}
330
0
100
AcDbSymbolTable
 70
     1
  0
VPORT
  5
29
330
8
100
AcDbSymbolTableRecord
100
AcDbViewportTableRecord
  2
*ACTIVE
 70
     0
 10
0.0
 20
0.0
 11
1.0
 21
1.0
 12
308.636363636055
 22
217.424242424025
 13
0.0
 23
0.0
 14
10.0
 24
10.0
 15
10.0
 25
10.0
 16
0.0
 26
0.0
 36
1.0
 17
0.0
 27
0.0
 37
0.0
 40
434.8484848480499
 41
1.419512195121951
 42
50.0
 43
0.0
 44
0.0
 50
0.0
 51
0.0
 71
     0
 72
  1000
 73
     1
 74
     3
 75
     0
 76
     0
 77
     0
 78
     0
  0
ENDTAB
  0
TABLE
  2
LTYPE
  5
5
330
0
100
AcDbSymbolTable
 70
     7
  0
LTYPE
  5
14
330
5
100
AcDbSymbolTableRecord
100
AcDbLinetypeTableRecord
  2
BYBLOCK
 70
     0
  3

 72
    65
 73
     0
 40
0.0
  0
LTYPE
  5
15
330
5
100
AcDbSymbolTableRecord
100
AcDbLinetypeTableRecord
  2
BYLAYER
 70
     0
  3

 72
    65
 73
     0
 40
0.0
  0
LTYPE
  5
16
330
5
100
AcDbSymbolTableRecord
100
AcDbLinetypeTableRecord
  2
CONTINUOUS
 70
     0
  3
Solid line
 72
    65
 73
     0
 40
0.0
  0
LTYPE
  5
6E
330
5
100
AcDbSymbolTableRecord
100
AcDbLinetypeTableRecord
  2
EXLTYPE0
 70
     0
  3
破線
 72
    65
 73
     2
 40
4.0
 49
3.0
 74
     0
 49
-1.0
 74
     0
  0
LTYPE
  5
6F
330
5
100
AcDbSymbolTableRecord
100
AcDbLinetypeTableRecord
  2
EXLTYPE1
 70
     0
  3
点線
 72
    65
 73
     2
 40
2.0
 49
1.0
 74
     0
 49
-1.0
 74
     0
  0
LTYPE
  5
70
330
5
100
AcDbSymbolTableRecord
100
AcDbLinetypeTableRecord
  2
EXLTYPE2
 70
     0
  3
一点鎖線
 72
    65
 73
     4
 40
33.0
 49
30.0
 74
     0
 49
-1.0
 74
     0
 49
1.0
 74
     0
 49
-1.0
 74
     0
  0
LTYPE
  5
71
330
5
100
AcDbSymbolTableRecord
100
AcDbLinetypeTableRecord
  2
EXLTYPE3
 70
     0
  3
二点鎖線
 72
    65
 73
     6
 40
35.0
 49
30.0
 74
     0
 49
-1.0
 74
     0
 49
1.0
 74
     0
 49
-1.0
 74
     0
 49
1.0
 74
     0
 49
-1.0
 74
     0
  0
LTYPE
  5
72
330
5
100
AcDbSymbolTableRecord
100
AcDbLinetypeTableRecord
  2
EXLTYPE4
 70
     0
  3
三点鎖線
 72
    65
 73
     8
 40
37.0
 49
30.0
 74
     0
 49
-1.0
 74
     0
 49
1.0
 74
     0
 49
-1.0
 74
     0
 49
1.0
 74
     0
 49
-1.0
 74
     0
 49
1.0
 74
     0
 49
-1.0
 74
     0
  0
LTYPE
  5
73
330
5
100
AcDbSymbolTableRecord
100
AcDbLinetypeTableRecord
  2
EXLTYPE5
 70
     0
  3
四点鎖線
 72
    65
 73
    10
 40
39.0
 49
30.0
 74
     0
 49
-1.0
 74
     0
 49
1.0
 74
     0
 49
-1.0
 74
     0
 49
1.0
 74
     0
 49
-1.0
 74
     0
 49
1.0
 74
     0
 49
-1.0
 74
     0
 49
1.0
 74
     0
 49
-1.0
 74
     0
  0
ENDTAB
  0
TABLE
  2
LAYER
  5
2
330
0
100
AcDbSymbolTable
 70
     3
  0
LAYER
  5
10
330
2
100
AcDbSymbolTableRecord
100
AcDbLayerTableRecord
  2
0
 70
     0
 62
     7
  6
CONTINUOUS
  0
LAYER
  5
76
330
2
100
AcDbSymbolTableRecord
100
AcDbLayerTableRecord
  2
営業図
 70
     0
 62
     7
  6
CONTINUOUS
  0
LAYER
  5
DB
330
2
100
AcDbSymbolTableRecord
100
AcDbLayerTableRecord
  2
DEFPOINTS
 70
     0
 62
     7
  6
CONTINUOUS
  0
ENDTAB
  0
TABLE
  2
STYLE
  5
3
330
0
100
AcDbSymbolTable
 70
     4
  0
STYLE
  5
11
330
3
100
AcDbSymbolTableRecord
100
AcDbTextStyleTableRecord
  2
STANDARD
 70
     0
 40
0.0
 41
1.0
 50
0.0
 71
     0
 42
2.5
  3
monotxt
  4
extfont
  0
STYLE
  5
74
330
3
100
AcDbSymbolTableRecord
100
AcDbTextStyleTableRecord
  2
EXCADSTD
 70
     0
 40
0.0
 41
1.0
 50
0.0
 71
     0
 42
2.5
  3
monotxt
  4
extfont
  0
STYLE
  5
75
330
3
100
AcDbSymbolTableRecord
100
AcDbTextStyleTableRecord
  2
EXCADVERT
 70
     4
 40
0.0
 41
1.0
 50
0.0
 71
     0
 42
2.5
  3
monotxt
  4
extfont
  0
STYLE
  5
D9
330
3
100
AcDbSymbolTableRecord
100
AcDbTextStyleTableRecord
  2
EXCADDIM1
 70
     0
 40
0.0
 41
0.84
 50
0.0
 71
     0
 42
2.5
  3
monotxt
  4
extfont
  0
ENDTAB
  0
TABLE
  2
VIEW
  5
6
330
0
100
AcDbSymbolTable
 70
     0
  0
ENDTAB
  0
TABLE
  2
UCS
  5
7
330
0
100
AcDbSymbolTable
 70
     0
  0
ENDTAB
  0
TABLE
  2
APPID
  5
9
330
0
100
AcDbSymbolTable
 70
     2
  0
APPID
  5
12
330
9
100
AcDbSymbolTableRecord
100
AcDbRegAppTableRecord
  2
ACAD
 70
     0
  0
APPID
  5
45C
330
9
100
AcDbSymbolTableRecord
100
AcDbRegAppTableRecord
  2
ACAD_MLEADERVER
 70
     0
  0
ENDTAB
  0
TABLE
  2
DIMSTYLE
  5
A
330
0
100
AcDbSymbolTable
 70
     1
  0
DIMSTYLE
105
27
102
{ACAD_REACTORS
330
DA
330
E8
330
F5
102
}
330
A
100
AcDbSymbolTableRecord
100
AcDbDimStyleTableRecord
  2
ISO-25
 70
     0
  3

  4

  5

  6

  7

 40
1.0
 41
2.5
 42
0.625
 43
3.75
 44
1.25
 45
0.0
 46
0.0
 47
0.0
 48
0.0
140
2.5
141
2.5
142
0.0
143
0.03937007874016
144
1.0
145
0.0
146
1.0
147
0.625
 71
     0
 72
     0
 73
     0
 74
     0
 75
     0
 76
     0
 77
     1
 78
     8
170
     0
171
     3
172
     1
173
     0
174
     0
175
     0
176
     0
177
     0
178
     0
270
     2
271
     2
272
     2
273
     2
274
     3
340
11
275
     0
280
     0
281
     0
282
     0
283
     0
284
     8
285
     0
286
     0
287
     5
288
     0
  0
ENDTAB
  0
TABLE
  2
BLOCK_RECORD
  5
1
330
0
100
AcDbSymbolTable
 70
    18
  0
BLOCK_RECORD
  5
1F
330
1
100
AcDbSymbolTableRecord
100
AcDbBlockTableRecord
  2
*MODEL_SPACE
  0
BLOCK_RECORD
  5
1B
330
1
100
AcDbSymbolTableRecord
100
AcDbBlockTableRecord
  2
*PAPER_SPACE
  0
BLOCK_RECORD
  5
77
330
1
100
AcDbSymbolTableRecord
100
AcDbBlockTableRecord
  2
EX_NORM
  0
BLOCK_RECORD
  5
7A
330
1
100
AcDbSymbolTableRecord
100
AcDbBlockTableRecord
  2
EX_BNORM
  0
BLOCK_RECORD
  5
7D
330
1
100
AcDbSymbolTableRecord
100
AcDbBlockTableRecord
  2
EX_BCIR
  0
BLOCK_RECORD
  5
80
330
1
100
AcDbSymbolTableRecord
100
AcDbBlockTableRecord
  2
EX_RCIVIL
  0
BLOCK_RECORD
  5
83
330
1
100
AcDbSymbolTableRecord
100
AcDbBlockTableRecord
  2
EX_SLANT
  0
BLOCK_RECORD
  5
86
330
1
100
AcDbSymbolTableRecord
100
AcDbBlockTableRecord
  2
EX_NONE
  0
BLOCK_RECORD
  5
89
330
1
100
AcDbSymbolTableRecord
100
AcDbBlockTableRecord
  2
EX_CIVIL
  0
BLOCK_RECORD
  5
8C
330
1
100
AcDbSymbolTableRecord
100
AcDbBlockTableRecord
  2
EX_WCIR
  0
BLOCK_RECORD
  5
8F
330
1
100
AcDbSymbolTableRecord
100
AcDbBlockTableRecord
  2
EX_WCIR2
  0
BLOCK_RECORD
  5
92
330
1
100
AcDbSymbolTableRecord
100
AcDbBlockTableRecord
  2
EX_WNORM
  0
BLOCK_RECORD
  5
95
330
1
100
AcDbSymbolTableRecord
100
AcDbBlockTableRecord
  2
EX_NNORM
  0
BLOCK_RECORD
  5
98
330
1
100
AcDbSymbolTableRecord
100
AcDbBlockTableRecord
  2
EX_BBOX
  0
BLOCK_RECORD
  5
9B
330
1
100
AcDbSymbolTableRecord
100
AcDbBlockTableRecord
  2
EX_WBOX
  0
BLOCK_RECORD
  5
9E
330
1
100
AcDbSymbolTableRecord
100
AcDbBlockTableRecord
  2
EX_INTEGRAL
  0
BLOCK_RECORD
  5
DC
330
1
100
AcDbSymbolTableRecord
100
AcDbBlockTableRecord
  2
*D15
  0
BLOCK_RECORD
  5
E9
330
1
100
AcDbSymbolTableRecord
100
AcDbBlockTableRecord
  2
*D16
  0
BLOCK_RECORD
  5
F6
330
1
100
AcDbSymbolTableRecord
100
AcDbBlockTableRecord
  2
*D17
  0
ENDTAB
  0
ENDSEC
  0
SECTION
  2
BLOCKS
  0
BLOCK
  5
20
330
1F
100
AcDbEntity
  8
0
100
AcDbBlockBegin
  2
*MODEL_SPACE
 70
     0
 10
0.0
 20
0.0
 30
0.0
  3
*MODEL_SPACE
  1

  0
ENDBLK
  5
21
330
1F
100
AcDbEntity
  8
0
100
AcDbBlockEnd
  0
BLOCK
  5
1C
330
1B
100
AcDbEntity
 67
     1
  8
0
100
AcDbBlockBegin
  2
*PAPER_SPACE
 70
     0
 10
0.0
 20
0.0
 30
0.0
  3
*PAPER_SPACE
  1

  0
ENDBLK
  5
1D
330
1B
100
AcDbEntity
 67
     1
  8
0
100
AcDbBlockEnd
  0
BLOCK
  5
78
330
77
100
AcDbEntity
  8
0
100
AcDbBlockBegin
  2
EX_NORM
 70
     0
 10
0.0
 20
0.0
 30
0.0
  3
EX_NORM
  1

  0
LINE
  5
A1
330
77
100
AcDbEntity
  8
0
  6
CONTINUOUS
 62
     0
100
AcDbLine
 10
0.0
 20
0.0
 30
0.0
 11
-1.0
 21
0.0
 31
0.0
  0
LINE
  5
A2
330
77
100
AcDbEntity
  8
0
  6
CONTINUOUS
 62
     0
100
AcDbLine
 10
0.0
 20
0.0
 30
0.0
 11
-1.0
 21
0.166666667
 31
0.0
  0
LINE
  5
A3
330
77
100
AcDbEntity
  8
0
  6
CONTINUOUS
 62
     0
100
AcDbLine
 10
0.0
 20
0.0
 30
0.0
 11
-1.0
 21
-0.166666667
 31
0.0
  0
ENDBLK
  5
79
330
77
100
AcDbEntity
  8
0
100
AcDbBlockEnd
  0
BLOCK
  5
7B
330
7A
100
AcDbEntity
  8
0
100
AcDbBlockBegin
  2
EX_BNORM
 70
     0
 10
0.0
 20
0.0
 30
0.0
  3
EX_BNORM
  1

  0
LINE
  5
A4
330
7A
100
AcDbEntity
  8
0
  6
CONTINUOUS
 62
     0
100
AcDbLine
 10
0.0
 20
0.0
 30
0.0
 11
-1.0
 21
0.0
 31
0.0
  0
LINE
  5
A5
330
7A
100
AcDbEntity
  8
0
  6
CONTINUOUS
 62
     0
100
AcDbLine
 10
0.0
 20
0.0
 30
0.0
 11
-1.0
 21
0.166666667
 31
0.0
  0
LINE
  5
A6
330
7A
100
AcDbEntity
  8
0
  6
CONTINUOUS
 62
     0
100
AcDbLine
 10
0.0
 20
0.0
 30
0.0
 11
-1.0
 21
-0.166666667
 31
0.0
  0
LINE
  5
A7
330
7A
100
AcDbEntity
  8
0
  6
CONTINUOUS
 62
     0
100
AcDbLine
 10
0.0
 20
0.0
 30
0.0
 11
-1.0
 21
0.083333333
 31
0.0
  0
LINE
  5
A8
330
7A
100
AcDbEntity
  8
0
  6
CONTINUOUS
 62
     0
100
AcDbLine
 10
0.0
 20
0.0
 30
0.0
 11
-1.0
 21
-0.083333333
 31
0.0
  0
LINE
  5
A9
330
7A
100
AcDbEntity
  8
0
  6
CONTINUOUS
 62
     0
100
AcDbLine
 10
-1.0
 20
0.166666667
 30
0.0
 11
-1.0
 21
-0.166666667
 31
0.0
  0
ENDBLK
  5
7C
330
7A
100
AcDbEntity
  8
0
100
AcDbBlockEnd
  0
BLOCK
  5
7E
330
7D
100
AcDbEntity
  8
0
100
AcDbBlockBegin
  2
EX_BCIR
 70
     0
 10
0.0
 20
0.0
 30
0.0
  3
EX_BCIR
  1

  0
LINE
  5
AA
330
7D
100
AcDbEntity
  8
0
  6
CONTINUOUS
 62
     0
100
AcDbLine
 10
0.0
 20
0.0
 30
0.0
 11
-1.0
 21
0.0
 31
0.0
  0
CIRCLE
  5
AB
330
7D
100
AcDbEntity
  8
0
  6
CONTINUOUS
 62
     0
100
AcDbCircle
 10
0.0
 20
0.0
 30
0.0
 40
0.5
  0
CIRCLE
  5
AC
330
7D
100
AcDbEntity
  8
0
  6
CONTINUOUS
 62
     0
100
AcDbCircle
 10
0.0
 20
0.0
 30
0.0
 40
0.25
  0
ENDBLK
  5
7F
330
7D
100
AcDbEntity
  8
0
100
AcDbBlockEnd
  0
BLOCK
  5
81
330
80
100
AcDbEntity
  8
0
100
AcDbBlockBegin
  2
EX_RCIVIL
 70
     0
 10
0.0
 20
0.0
 30
0.0
  3
EX_RCIVIL
  1

  0
LINE
  5
AD
330
80
100
AcDbEntity
  8
0
  6
CONTINUOUS
 62
     0
100
AcDbLine
 10
0.0
 20
0.0
 30
0.0
 11
-1.0
 21
0.0
 31
0.0
  0
LINE
  5
AE
330
80
100
AcDbEntity
  8
0
  6
CONTINUOUS
 62
     0
100
AcDbLine
 10
-1.0
 20
-0.25
 30
0.0
 11
0.0
 21
-0.25
 31
0.0
  0
LINE
  5
AF
330
80
100
AcDbEntity
  8
0
  6
CONTINUOUS
 62
     0
100
AcDbLine
 10
-1.0
 20
-0.125
 30
0.0
 11
0.0
 21
-0.125
 31
0.0
  0
ENDBLK
  5
82
330
80
100
AcDbEntity
  8
0
100
AcDbBlockEnd
  0
BLOCK
  5
84
330
83
100
AcDbEntity
  8
0
100
AcDbBlockBegin
  2
EX_SLANT
 70
     0
 10
0.0
 20
0.0
 30
0.0
  3
EX_SLANT
  1

  0
LINE
  5
B0
330
83
100
AcDbEntity
  8
0
  6
CONTINUOUS
 62
     0
100
AcDbLine
 10
0.0
 20
0.0
 30
0.0
 11
-1.0
 21
0.0
 31
0.0
  0
LINE
  5
B1
330
83
100
AcDbEntity
  8
0
  6
CONTINUOUS
 62
     0
100
AcDbLine
 10
0.707106781
 20
0.707106781
 30
0.0
 11
-0.707106781
 21
-0.707106781
 31
0.0
  0
ENDBLK
  5
85
330
83
100
AcDbEntity
  8
0
100
AcDbBlockEnd
  0
BLOCK
  5
87
330
86
100
AcDbEntity
  8
0
100
AcDbBlockBegin
  2
EX_NONE
 70
     0
 10
0.0
 20
0.0
 30
0.0
  3
EX_NONE
  1

  0
LINE
  5
B2
330
86
100
AcDbEntity
  8
0
  6
CONTINUOUS
 62
     0
100
AcDbLine
 10
0.0
 20
0.0
 30
0.0
 11
-1.0
 21
0.0
 31
0.0
  0
ENDBLK
  5
88
330
86
100
AcDbEntity
  8
0
100
AcDbBlockEnd
  0
BLOCK
  5
8A
330
89
100
AcDbEntity
  8
0
100
AcDbBlockBegin
  2
EX_CIVIL
 70
     0
 10
0.0
 20
0.0
 30
0.0
  3
EX_CIVIL
  1

  0
LINE
  5
B3
330
89
100
AcDbEntity
  8
0
  6
CONTINUOUS
 62
     0
100
AcDbLine
 10
0.0
 20
0.0
 30
0.0
 11
-1.0
 21
0.0
 31
0.0
  0
LINE
  5
B4
330
89
100
AcDbEntity
  8
0
  6
CONTINUOUS
 62
     0
100
AcDbLine
 10
-1.0
 20
0.25
 30
0.0
 11
0.0
 21
0.25
 31
0.0
  0
LINE
  5
B5
330
89
100
AcDbEntity
  8
0
  6
CONTINUOUS
 62
     0
100
AcDbLine
 10
-1.0
 20
0.125
 30
0.0
 11
0.0
 21
0.125
 31
0.0
  0
ENDBLK
  5
8B
330
89
100
AcDbEntity
  8
0
100
AcDbBlockEnd
  0
BLOCK
  5
8D
330
8C
100
AcDbEntity
  8
0
100
AcDbBlockBegin
  2
EX_WCIR
 70
     0
 10
0.0
 20
0.0
 30
0.0
  3
EX_WCIR
  1

  0
LINE
  5
B6
330
8C
100
AcDbEntity
  8
0
  6
CONTINUOUS
 62
     0
100
AcDbLine
 10
0.0
 20
0.0
 30
0.0
 11
-1.0
 21
0.0
 31
0.0
  0
CIRCLE
  5
B7
330
8C
100
AcDbEntity
  8
0
  6
CONTINUOUS
 62
     0
100
AcDbCircle
 10
0.0
 20
0.0
 30
0.0
 40
0.5
  0
ENDBLK
  5
8E
330
8C
100
AcDbEntity
  8
0
100
AcDbBlockEnd
  0
BLOCK
  5
90
330
8F
100
AcDbEntity
  8
0
100
AcDbBlockBegin
  2
EX_WCIR2
 70
     0
 10
0.0
 20
0.0
 30
0.0
  3
EX_WCIR2
  1

  0
LINE
  5
B8
330
8F
100
AcDbEntity
  8
0
  6
CONTINUOUS
 62
     0
100
AcDbLine
 10
-0.5
 20
0.0
 30
0.0
 11
-1.0
 21
0.0
 31
0.0
  0
CIRCLE
  5
B9
330
8F
100
AcDbEntity
  8
0
  6
CONTINUOUS
 62
     0
100
AcDbCircle
 10
0.0
 20
0.0
 30
0.0
 40
0.5
  0
ENDBLK
  5
91
330
8F
100
AcDbEntity
  8
0
100
AcDbBlockEnd
  0
BLOCK
  5
93
330
92
100
AcDbEntity
  8
0
100
AcDbBlockBegin
  2
EX_WNORM
 70
     0
 10
0.0
 20
0.0
 30
0.0
  3
EX_WNORM
  1

  0
LINE
  5
BA
330
92
100
AcDbEntity
  8
0
  6
CONTINUOUS
 62
     0
100
AcDbLine
 10
-1.0
 20
0.0
 30
0.0
 11
-1.0
 21
0.0
 31
0.0
  0
LINE
  5
BB
330
92
100
AcDbEntity
  8
0
  6
CONTINUOUS
 62
     0
100
AcDbLine
 10
0.0
 20
0.0
 30
0.0
 11
-1.0
 21
0.166666667
 31
0.0
  0
LINE
  5
BC
330
92
100
AcDbEntity
  8
0
  6
CONTINUOUS
 62
     0
100
AcDbLine
 10
0.0
 20
0.0
 30
0.0
 11
-1.0
 21
-0.166666667
 31
0.0
  0
LINE
  5
BD
330
92
100
AcDbEntity
  8
0
  6
CONTINUOUS
 62
     0
100
AcDbLine
 10
-1.0
 20
0.166666667
 30
0.0
 11
-1.0
 21
-0.166666667
 31
0.0
  0
ENDBLK
  5
94
330
92
100
AcDbEntity
  8
0
100
AcDbBlockEnd
  0
BLOCK
  5
96
330
95
100
AcDbEntity
  8
0
100
AcDbBlockBegin
  2
EX_NNORM
 70
     0
 10
0.0
 20
0.0
 30
0.0
  3
EX_NNORM
  1

  0
LINE
  5
BE
330
95
100
AcDbEntity
  8
0
  6
CONTINUOUS
 62
     0
100
AcDbLine
 10
0.0
 20
0.0
 30
0.0
 11
-1.0
 21
0.0
 31
0.0
  0
LINE
  5
BF
330
95
100
AcDbEntity
  8
0
  6
CONTINUOUS
 62
     0
100
AcDbLine
 10
0.0
 20
0.0
 30
0.0
 11
-1.0
 21
0.166666667
 31
0.0
  0
LINE
  5
C0
330
95
100
AcDbEntity
  8
0
  6
CONTINUOUS
 62
     0
100
AcDbLine
 10
0.0
 20
0.0
 30
0.0
 11
-1.0
 21
-0.166666667
 31
0.0
  0
LINE
  5
C1
330
95
100
AcDbEntity
  8
0
  6
CONTINUOUS
 62
     0
100
AcDbLine
 10
-1.0
 20
0.166666667
 30
0.0
 11
-1.0
 21
-0.166666667
 31
0.0
  0
ENDBLK
  5
97
330
95
100
AcDbEntity
  8
0
100
AcDbBlockEnd
  0
BLOCK
  5
99
330
98
100
AcDbEntity
  8
0
100
AcDbBlockBegin
  2
EX_BBOX
 70
     0
 10
0.0
 20
0.0
 30
0.0
  3
EX_BBOX
  1

  0
LINE
  5
C2
330
98
100
AcDbEntity
  8
0
  6
CONTINUOUS
 62
     0
100
AcDbLine
 10
0.0
 20
0.0
 30
0.0
 11
-1.0
 21
0.0
 31
0.0
  0
LINE
  5
C3
330
98
100
AcDbEntity
  8
0
  6
CONTINUOUS
 62
     0
100
AcDbLine
 10
-0.5
 20
0.5
 30
0.0
 11
0.5
 21
0.5
 31
0.0
  0
LINE
  5
C4
330
98
100
AcDbEntity
  8
0
  6
CONTINUOUS
 62
     0
100
AcDbLine
 10
0.5
 20
0.5
 30
0.0
 11
0.5
 21
-0.5
 31
0.0
  0
LINE
  5
C5
330
98
100
AcDbEntity
  8
0
  6
CONTINUOUS
 62
     0
100
AcDbLine
 10
0.5
 20
-0.5
 30
0.0
 11
-0.5
 21
-0.5
 31
0.0
  0
LINE
  5
C6
330
98
100
AcDbEntity
  8
0
  6
CONTINUOUS
 62
     0
100
AcDbLine
 10
-0.5
 20
-0.5
 30
0.0
 11
-0.5
 21
0.5
 31
0.0
  0
LINE
  5
C7
330
98
100
AcDbEntity
  8
0
  6
CONTINUOUS
 62
     0
100
AcDbLine
 10
-0.25
 20
0.25
 30
0.0
 11
0.25
 21
0.25
 31
0.0
  0
LINE
  5
C8
330
98
100
AcDbEntity
  8
0
  6
CONTINUOUS
 62
     0
100
AcDbLine
 10
0.25
 20
0.25
 30
0.0
 11
0.25
 21
-0.25
 31
0.0
  0
LINE
  5
C9
330
98
100
AcDbEntity
  8
0
  6
CONTINUOUS
 62
     0
100
AcDbLine
 10
0.25
 20
-0.25
 30
0.0
 11
-0.25
 21
-0.25
 31
0.0
  0
LINE
  5
CA
330
98
100
AcDbEntity
  8
0
  6
CONTINUOUS
 62
     0
100
AcDbLine
 10
-0.25
 20
-0.25
 30
0.0
 11
-0.25
 21
0.25
 31
0.0
  0
ENDBLK
  5
9A
330
98
100
AcDbEntity
  8
0
100
AcDbBlockEnd
  0
BLOCK
  5
9C
330
9B
100
AcDbEntity
  8
0
100
AcDbBlockBegin
  2
EX_WBOX
 70
     0
 10
0.0
 20
0.0
 30
0.0
  3
EX_WBOX
  1

  0
LINE
  5
CB
330
9B
100
AcDbEntity
  8
0
  6
CONTINUOUS
 62
     0
100
AcDbLine
 10
-0.5
 20
0.0
 30
0.0
 11
-1.0
 21
0.0
 31
0.0
  0
LINE
  5
CC
330
9B
100
AcDbEntity
  8
0
  6
CONTINUOUS
 62
     0
100
AcDbLine
 10
-0.5
 20
0.5
 30
0.0
 11
0.5
 21
0.5
 31
0.0
  0
LINE
  5
CD
330
9B
100
AcDbEntity
  8
0
  6
CONTINUOUS
 62
     0
100
AcDbLine
 10
0.5
 20
0.5
 30
0.0
 11
0.5
 21
-0.5
 31
0.0
  0
LINE
  5
CE
330
9B
100
AcDbEntity
  8
0
  6
CONTINUOUS
 62
     0
100
AcDbLine
 10
0.5
 20
-0.5
 30
0.0
 11
-0.5
 21
-0.5
 31
0.0
  0
LINE
  5
CF
330
9B
100
AcDbEntity
  8
0
  6
CONTINUOUS
 62
     0
100
AcDbLine
 10
-0.5
 20
-0.5
 30
0.0
 11
-0.5
 21
0.5
 31
0.0
  0
ENDBLK
  5
9D
330
9B
100
AcDbEntity
  8
0
100
AcDbBlockEnd
  0
BLOCK
  5
9F
330
9E
100
AcDbEntity
  8
0
100
AcDbBlockBegin
  2
EX_INTEGRAL
 70
     0
 10
0.0
 20
0.0
 30
0.0
  3
EX_INTEGRAL
  1

  0
LINE
  5
D0
330
9E
100
AcDbEntity
  8
0
  6
CONTINUOUS
 62
     0
100
AcDbLine
 10
0.0
 20
0.0
 30
0.0
 11
-1.0
 21
0.0
 31
0.0
  0
ARC
  5
D1
330
9E
100
AcDbEntity
  8
0
  6
CONTINUOUS
 62
     0
100
AcDbCircle
 10
0.542115
 20
0.164992
 30
0.0
 40
0.56667
100
AcDbArc
 50
73.07249033629006
 51
196.9275130221199
  0
ARC
  5
D2
330
9E
100
AcDbEntity
  8
0
  6
CONTINUOUS
 62
     0
100
AcDbCircle
 10
-0.542115
 20
-0.164992
 30
0.0
 40
0.56667
100
AcDbArc
 50
253.0724869220464
 51
16.9275130559125
  0
ENDBLK
  5
A0
330
9E
100
AcDbEntity
  8
0
100
AcDbBlockEnd
  0
BLOCK
  5
DD
330
DC
100
AcDbEntity
  8
0
100
AcDbBlockBegin
  2
*D15
 70
     1
 10
0.0
 20
0.0
 30
0.0
  3
*D15
  1

  0
LINE
  5
DF
330
DC
100
AcDbEntity
  8
営業図
  6
CONTINUOUS
 62
     1
100
AcDbLine
 10
196.43507187775
 20
172.60740090148
 30
0.0
 11
193.34754787775
 21
172.60740090148
 31
0.0
  0
LINE
  5
E0
330
DC
100
AcDbEntity
  8
営業図
  6
CONTINUOUS
 62
     1
100
AcDbLine
 10
195.59754787775
 20
243.10740090148
 30
0.0
 11
195.59754787775
 21
177.10740090148
 31
0.0
  0
INSERT
  5
E1
330
DC
100
AcDbEntity
  8
営業図
 62
     1
100
AcDbBlockReference
  2
EX_BNORM
 10
195.59754787775
 20
247.60740090148
 30
0.0
 41
4.5
 42
4.5
 43
4.5
 50
90.0
  0
INSERT
  5
E2
330
DC
100
AcDbEntity
  8
営業図
 62
     1
100
AcDbBlockReference
  2
EX_BNORM
 10
195.59754787775
 20
172.60740090148
 30
0.0
 41
4.5
 42
4.5
 43
4.5
 50
270.0
  0
MTEXT
  5
E3
330
DC
100
AcDbEntity
  8
営業図
 62
     1
100
AcDbMText
 10
192.09754787775
 20
228.10740090148
 30
0.0
 40
4.6771656
 41
0.0
 71
     5
 72
     1
  1
%%c75
  7
EXCADDIM1
 11
-6.049014748177263E-16
 21
1.0
 31
0.0
  0
POINT
  5
E4
330
DC
100
AcDbEntity
  8
DEFPOINTS
 62
     0
100
AcDbPoint
 10
195.59754787775
 20
247.60740090148
 30
0.0
  0
POINT
  5
E5
330
DC
100
AcDbEntity
  8
DEFPOINTS
 62
     0
100
AcDbPoint
 10
198.68507187775
 20
172.60740090148
 30
0.0
  0
POINT
  5
E6
330
DC
100
AcDbEntity
  8
DEFPOINTS
 62
     0
100
AcDbPoint
 10
195.59754787775
 20
172.60740090148
 30
0.0
  0
ENDBLK
  5
DE
330
DC
100
AcDbEntity
  8
0
100
AcDbBlockEnd
  0
BLOCK
  5
EA
330
E9
100
AcDbEntity
  8
0
100
AcDbBlockBegin
  2
*D16
 70
     1
 10
0.0
 20
0.0
 30
0.0
  3
*D16
  1

  0
LINE
  5
EC
330
E9
100
AcDbEntity
  8
営業図
  6
CONTINUOUS
 62
     1
100
AcDbLine
 10
108.59245087775
 20
177.60740090148
 30
0.0
 11
86.59245087775
 21
177.60740090148
 31
0.0
  0
LINE
  5
ED
330
E9
100
AcDbEntity
  8
営業図
  6
CONTINUOUS
 62
     1
100
AcDbLine
 10
108.59245087775
 20
242.60740090148
 30
0.0
 11
86.59245087775
 21
242.60740090148
 31
0.0
  0
LINE
  5
EE
330
E9
100
AcDbEntity
  8
営業図
  6
CONTINUOUS
 62
     1
100
AcDbLine
 10
88.84245087775
 20
182.10740090148
 30
0.0
 11
88.84245087775
 21
238.10740090148
 31
0.0
  0
INSERT
  5
EF
330
E9
100
AcDbEntity
  8
営業図
 62
     1
100
AcDbBlockReference
  2
EX_BNORM
 10
88.84245087775
 20
177.60740090148
 30
0.0
 41
4.5
 42
4.5
 43
4.5
 50
270.0
  0
INSERT
  5
F0
330
E9
100
AcDbEntity
  8
営業図
 62
     1
100
AcDbBlockReference
  2
EX_BNORM
 10
88.84245087775
 20
242.60740090148
 30
0.0
 41
4.5
 42
4.5
 43
4.5
 50
90.0
  0
MTEXT
  5
F1
330
E9
100
AcDbEntity
  8
営業図
 62
     1
100
AcDbMText
 10
85.34245087775
 20
213.10740090148
 30
0.0
 40
4.6771656
 41
0.0
 71
     5
 72
     1
  1
%%c65
  7
EXCADDIM1
 11
-6.049014748177263E-16
 21
1.0
 31
0.0
  0
POINT
  5
F2
330
E9
100
AcDbEntity
  8
DEFPOINTS
 62
     0
100
AcDbPoint
 10
110.84245087775
 20
177.60740090148
 30
0.0
  0
POINT
  5
F3
330
E9
100
AcDbEntity
  8
DEFPOINTS
 62
     0
100
AcDbPoint
 10
110.84245087775
 20
242.60740090148
 30
0.0
  0
POINT
  5
F4
330
E9
100
AcDbEntity
  8
DEFPOINTS
 62
     0
100
AcDbPoint
 10
88.84245087775
 20
242.60740090148
 30
0.0
  0
ENDBLK
  5
EB
330
E9
100
AcDbEntity
  8
0
100
AcDbBlockEnd
  0
BLOCK
  5
F7
330
F6
100
AcDbEntity
  8
0
100
AcDbBlockBegin
  2
*D17
 70
     1
 10
0.0
 20
0.0
 30
0.0
  3
*D17
  1

  0
LINE
  5
F9
330
F6
100
AcDbEntity
  8
営業図
  6
CONTINUOUS
 62
     1
100
AcDbLine
 10
161.59245087775
 20
250.60740090148
 30
0.0
 11
76.59245087775
 21
250.60740090148
 31
0.0
  0
LINE
  5
FA
330
F6
100
AcDbEntity
  8
営業図
  6
CONTINUOUS
 62
     1
100
AcDbLine
 10
161.59245087775
 20
169.60740090148
 30
0.0
 11
76.59245087775
 21
169.60740090148
 31
0.0
  0
LINE
  5
FB
330
F6
100
AcDbEntity
  8
営業図
  6
CONTINUOUS
 62
     1
100
AcDbLine
 10
78.84245087775
 20
246.10740090148
 30
0.0
 11
78.84245087775
 21
174.10740090148
 31
0.0
  0
INSERT
  5
FC
330
F6
100
AcDbEntity
  8
営業図
 62
     1
100
AcDbBlockReference
  2
EX_BNORM
 10
78.84245087775
 20
250.60740090148
 30
0.0
 41
4.5
 42
4.5
 43
4.5
 50
90.0
  0
INSERT
  5
FD
330
F6
100
AcDbEntity
  8
営業図
 62
     1
100
AcDbBlockReference
  2
EX_BNORM
 10
78.84245087775
 20
169.60740090148
 30
0.0
 41
4.5
 42
4.5
 43
4.5
 50
270.0
  0
MTEXT
  5
FE
330
F6
100
AcDbEntity
  8
営業図
 62
     1
100
AcDbMText
 10
75.34245087775
 20
213.10740090148
 30
0.0
 40
4.6771656
 41
0.0
 71
     5
 72
     1
  1
%%c81
  7
EXCADDIM1
 11
-6.049014748177263E-16
 21
1.0
 31
0.0
  0
POINT
  5
FF
330
F6
100
AcDbEntity
  8
DEFPOINTS
 62
     0
100
AcDbPoint
 10
163.84245087775
 20
250.60740090148
 30
0.0
  0
POINT
  5
100
330
F6
100
AcDbEntity
  8
DEFPOINTS
 62
     0
100
AcDbPoint
 10
163.84245087775
 20
169.60740090148
 30
0.0
  0
POINT
  5
101
330
F6
100
AcDbEntity
  8
DEFPOINTS
 62
     0
100
AcDbPoint
 10
78.84245087775
 20
169.60740090148
 30
0.0
  0
ENDBLK
  5
F8
330
F6
100
AcDbEntity
  8
0
100
AcDbBlockEnd
  0
ENDSEC
  0
SECTION
  2
ENTITIES
  0
POINT
  5
D3
330
1F
100
AcDbEntity
  8
営業図
  6
CONTINUOUS
 62
     3
100
AcDbPoint
 10
0.0
 20
0.0
 30
0.0
  0
POINT
  5
D4
330
1F
100
AcDbEntity
  8
営業図
  6
CONTINUOUS
 62
     3
100
AcDbPoint
 10
0.0
 20
0.0
 30
0.0
  0
POINT
  5
D5
330
1F
100
AcDbEntity
  8
営業図
  6
CONTINUOUS
 62
     3
100
AcDbPoint
 10
0.0
 20
0.0
 30
0.0
  0
POINT
  5
D6
330
1F
100
AcDbEntity
  8
営業図
  6
CONTINUOUS
 62
     3
100
AcDbPoint
 10
0.0
 20
0.0
 30
0.0
  0
POINT
  5
D7
330
1F
100
AcDbEntity
  8
営業図
  6
CONTINUOUS
 62
     3
100
AcDbPoint
 10
0.0
 20
0.0
 30
0.0
  0
POINT
  5
D8
330
1F
100
AcDbEntity
  8
営業図
  6
CONTINUOUS
 62
     3
100
AcDbPoint
 10
0.0
 20
0.0
 30
0.0
  0
DIMENSION
  5
DA
330
1F
100
AcDbEntity
  8
営業図
  6
CONTINUOUS
 62
     1
100
AcDbDimension
  2
*D15
 10
195.59754787775
 20
172.60740090148
 30
0.0
 11
192.09754787775
 21
228.10740090148
 31
0.0
 70
   160
  1
%%c<>
 53
90.00000000000004
  3
ISO-25
100
AcDbAlignedDimension
 13
195.59754787775
 23
247.60740090148
 33
0.0
 14
198.68507187775
 24
172.60740090148
 34
0.0
 50
90.0
100
AcDbRotatedDimension
1001
ACAD
1000
DSTYLE
1002
{
1070
   270
1070
     2
1070
     6
1000
EX_BNORM
1070
     7
1000
EX_BNORM
1070
    41
1040
4.5
1070
    42
1040
2.25
1070
    44
1040
2.25
1070
    73
1070
     0
1070
    74
1070
     0
1070
    75
1070
     1
1070
    76
1070
     0
1070
    77
1070
     1
1070
    78
1070
     0
1070
   140
1040
4.6771656
1070
   147
1040
0.0
1070
   173
1070
     1
1070
   176
1070
     1
1070
   177
1070
     1
1070
   178
1070
     1
1070
   271
1070
     0
1070
   277
1070
     2
1070
   279
1070
     2
1070
   280
1070
     0
1070
   287
1070
     5
1070
   340
1005
D9
1002
}
  0
LEADER
  5
E7
330
1F
100
AcDbEntity
  8
営業図
  6
CONTINUOUS
 62
     1
100
AcDbLeader
  3
ISO-25
 76
     3
 10
295.84245087775
 20
248.35738590148
 30
0.0
 10
320.84245087775
 20
291.65865490148
 30
0.0
 10
349.35
 20
291.65865490148
 30
0.0
1001
ACAD
1000
DSTYLE
1002
{
1070
     5
1000
EX_BNORM
1070
    41
1040
4.5
1070
   341
1005
7A
1002
}
  0
DIMENSION
  5
E8
330
1F
100
AcDbEntity
  8
営業図
  6
CONTINUOUS
 62
     1
100
AcDbDimension
  2
*D16
 10
88.84245087775
 20
242.60740090148
 30
0.0
 11
85.34245087775
 21
213.10740090148
 31
0.0
 70
   160
  1
%%c<>
 53
90.00000000000004
  3
ISO-25
100
AcDbAlignedDimension
 13
110.84245087775
 23
177.60740090148
 33
0.0
 14
110.84245087775
 24
242.60740090148
 34
0.0
 50
90.0
100
AcDbRotatedDimension
1001
ACAD
1000
DSTYLE
1002
{
1070
   270
1070
     2
1070
     6
1000
EX_BNORM
1070
     7
1000
EX_BNORM
1070
    41
1040
4.5
1070
    42
1040
2.25
1070
    44
1040
2.25
1070
    73
1070
     0
1070
    74
1070
     0
1070
    75
1070
     0
1070
    76
1070
     0
1070
    77
1070
     1
1070
    78
1070
     0
1070
   140
1040
4.6771656
1070
   147
1040
0.0
1070
   173
1070
     1
1070
   176
1070
     1
1070
   177
1070
     1
1070
   178
1070
     1
1070
   271
1070
     0
1070
   277
1070
     2
1070
   279
1070
     2
1070
   280
1070
     0
1070
   287
1070
     5
1070
   340
1005
D9
1002
}
  0
DIMENSION
  5
F5
330
1F
100
AcDbEntity
  8
営業図
  6
CONTINUOUS
 62
     1
100
AcDbDimension
  2
*D17
 10
78.84245087775
 20
169.60740090148
 30
0.0
 11
75.34245087775
 21
213.10740090148
 31
0.0
 70
   160
  1
%%c<>
 53
90.00000000000004
  3
ISO-25
100
AcDbAlignedDimension
 13
163.84245087775
 23
250.60740090148
 33
0.0
 14
163.84245087775
 24
169.60740090148
 34
0.0
 50
90.0
100
AcDbRotatedDimension
1001
ACAD
1000
DSTYLE
1002
{
1070
   270
1070
     2
1070
     6
1000
EX_BNORM
1070
     7
1000
EX_BNORM
1070
    41
1040
4.5
1070
    42
1040
2.25
1070
    44
1040
2.25
1070
    73
1070
     0
1070
    74
1070
     0
1070
    75
1070
     0
1070
    76
1070
     0
1070
    77
1070
     1
1070
    78
1070
     0
1070
   140
1040
4.6771656
1070
   147
1040
0.0
1070
   173
1070
     1
1070
   176
1070
     1
1070
   177
1070
     1
1070
   178
1070
     1
1070
   271
1070
     0
1070
   277
1070
     2
1070
   279
1070
     2
1070
   280
1070
     0
1070
   287
1070
     5
1070
   340
1005
D9
1002
}
  0
CIRCLE
  5
102
330
1F
100
AcDbEntity
  8
営業図
  6
CONTINUOUS
 62
     7
100
AcDbCircle
 10
465.66715787775
 20
352.16022690148
 30
0.0
 40
37.5
  0
ARC
  5
103
330
1F
100
AcDbEntity
  8
営業図
  6
CONTINUOUS
 62
     7
100
AcDbCircle
 10
413.50053187775
 20
352.16022690148
 30
0.0
 40
14.833333
100
AcDbArc
 50
154.0107688523
 51
205.9892708434
  0
ARC
  5
104
330
1F
100
AcDbEntity
  8
営業図
  6
CONTINUOUS
 62
     7
100
AcDbCircle
 10
432.50077587775
 20
352.16022690148
 30
0.0
 40
14.833605
100
AcDbArc
 50
154.0112845143
 51
205.9886978856001
  0
ARC
  5
105
330
1F
100
AcDbEntity
  8
営業図
  6
CONTINUOUS
 62
     7
100
AcDbCircle
 10
410.83378387775
 20
352.16022690148
 30
0.0
 40
14.833333
100
AcDbArc
 50
334.0107887001005
 51
25.98929069126
  0
LINE
  5
106
330
1F
100
AcDbEntity
  8
営業図
  6
CONTINUOUS
 62
     7
100
AcDbLine
 10
424.16715787775
 20
345.66022690148
 30
0.0
 11
419.16709687775
 21
345.66022690148
 31
0.0
  0
LINE
  5
107
330
1F
100
AcDbEntity
  8
営業図
  6
CONTINUOUS
 62
     7
100
AcDbLine
 10
424.16721887775
 20
358.66022690148
 30
0.0
 11
419.16703587775
 21
358.66022690148
 31
0.0
  0
LINE
  5
108
330
1F
100
AcDbEntity
  8
営業図
  6
CONTINUOUS
 62
     7
100
AcDbLine
 10
407.16721887775
 20
345.66022690148
 30
0.0
 11
408.66715787775
 21
352.16022690148
 31
0.0
  0
LINE
  5
109
330
1F
100
AcDbEntity
  8
営業図
  6
CONTINUOUS
 62
     7
100
AcDbLine
 10
408.66715787775
 20
352.16022690148
 30
0.0
 11
407.16715787775
 21
358.66022690148
 31
0.0
  0
LINE
  5
10A
330
1F
100
AcDbEntity
  8
営業図
  6
CONTINUOUS
 62
     7
100
AcDbLine
 10
400.16715787775
 20
345.66022690148
 30
0.0
 11
407.16721887775
 21
345.66022690148
 31
0.0
  0
LINE
  5
10B
330
1F
100
AcDbEntity
  8
営業図
  6
CONTINUOUS
 62
     7
100
AcDbLine
 10
407.16715787775
 20
358.66022690148
 30
0.0
 11
400.16715787775
 21
358.66022690148
 31
0.0
  0
ARC
  5
10C
330
1F
100
AcDbEntity
  8
営業図
  6
CONTINUOUS
 62
     7
100
AcDbCircle
 10
402.41715787775
 20
342.66022690148
 30
0.0
 40
3.750000000000002
100
AcDbArc
 50
126.8698726885
 51
233.1301097114001
  0
ARC
  5
10D
330
1F
100
AcDbEntity
  8
営業図
  6
CONTINUOUS
 62
     7
100
AcDbCircle
 10
402.41715787775
 20
361.66022690148
 30
0.0
 40
3.750000000000002
100
AcDbArc
 50
126.8698726885
 51
233.1301097114001
  0
ARC
  5
10E
330
1F
100
AcDbEntity
  8
営業図
  6
CONTINUOUS
 62
     7
100
AcDbCircle
 10
421.41727987775
 20
342.66022690148
 30
0.0
 40
3.750046
100
AcDbArc
 50
126.8708467167
 51
233.1291929790001
  0
ARC
  5
10F
330
1F
100
AcDbEntity
  8
営業図
  6
CONTINUOUS
 62
     7
100
AcDbCircle
 10
421.41721887775
 20
361.66022690148
 30
0.0
 40
3.750046
100
AcDbArc
 50
126.8708467167
 51
233.1291929790001
  0
ARC
  5
110
330
1F
100
AcDbEntity
  8
営業図
  6
CONTINUOUS
 62
     7
100
AcDbCircle
 10
421.91709687775
 20
361.66022690148
 30
0.0
 40
3.750046
100
AcDbArc
 50
306.8708092688002
 51
53.12921282679996
  0
LINE
  5
111
330
1F
100
AcDbEntity
  8
営業図
  6
CONTINUOUS
 62
     7
100
AcDbLine
 10
419.16709687775
 20
339.66022690148
 30
0.0
 11
424.16715787775
 21
339.66022690148
 31
0.0
  0
LINE
  5
112
330
1F
100
AcDbEntity
  8
営業図
  6
CONTINUOUS
 62
     7
100
AcDbLine
 10
419.16709687775
 20
364.66022690148
 30
0.0
 11
424.16715787775
 21
364.66022690148
 31
0.0
  0
LINE
  5
113
330
1F
100
AcDbEntity
  8
営業図
  6
CONTINUOUS
 62
     7
100
AcDbLine
 10
400.16715787775
 20
339.66022690148
 30
0.0
 11
407.16721887775
 21
339.66022690148
 31
0.0
  0
LINE
  5
114
330
1F
100
AcDbEntity
  8
営業図
  6
CONTINUOUS
 62
     7
100
AcDbLine
 10
407.16715787775
 20
364.66022690148
 30
0.0
 11
400.16715787775
 21
364.66022690148
 31
0.0
  0
LINE
  5
115
330
1F
100
AcDbEntity
  8
営業図
  6
CONTINUOUS
 62
     7
100
AcDbLine
 10
407.16721887775
 20
339.66022690148
 30
0.0
 11
408.66721887775
 21
342.66022690148
 31
0.0
  0
LINE
  5
116
330
1F
100
AcDbEntity
  8
営業図
  6
CONTINUOUS
 62
     7
100
AcDbLine
 10
408.66721887775
 20
342.66022690148
 30
0.0
 11
407.16721887775
 21
345.66022690148
 31
0.0
  0
LINE
  5
117
330
1F
100
AcDbEntity
  8
営業図
  6
CONTINUOUS
 62
     7
100
AcDbLine
 10
407.16715787775
 20
358.66022690148
 30
0.0
 11
408.66715787775
 21
361.66022690148
 31
0.0
  0
LINE
  5
118
330
1F
100
AcDbEntity
  8
営業図
  6
CONTINUOUS
 62
     7
100
AcDbLine
 10
408.66715787775
 20
361.66022690148
 30
0.0
 11
407.16715787775
 21
364.66022690148
 31
0.0
  0
LINE
  5
119
330
1F
100
AcDbEntity
  8
営業図
  6
CONTINUOUS
 62
     7
100
AcDbLine
 10
417.66715787775
 20
342.66022690148
 30
0.0
 11
417.66709687775
 21
361.66022690148
 31
0.0
  0
LINE
  5
11A
330
1F
100
AcDbEntity
  8
営業図
  6
CONTINUOUS
 62
     7
100
AcDbLine
 10
425.66715787775
 20
361.66022690148
 30
0.0
 11
425.66715787775
 21
342.66022690148
 31
0.0
  0
LINE
  5
11B
330
1F
100
AcDbEntity
  8
営業図
  6
CONTINUOUS
 62
     7
100
AcDbLine
 10
398.66715787775
 20
342.66022690148
 30
0.0
 11
398.66715787775
 21
361.66022690148
 31
0.0
  0
LINE
  5
11C
330
1F
100
AcDbEntity
  8
営業図
  6
CONTINUOUS
 62
     7
100
AcDbLine
 10
413.16709687775
 20
361.66022690148
 30
0.0
 11
413.16715787775
 21
342.66022690148
 31
0.0
  0
LINE
  5
11D
330
1F
100
AcDbEntity
  8
営業図
  6
CONTINUOUS
 62
     7
100
AcDbLine
 10
413.16715787775
 20
345.2724099014799
 30
0.0
 11
417.66758587775
 21
345.2724099014799
 31
0.0
  0
LINE
  5
11E
330
1F
100
AcDbEntity
  8
営業図
  6
CONTINUOUS
 62
     7
100
AcDbLine
 10
417.66752387775
 20
359.2724099014799
 30
0.0
 11
413.16715787775
 21
359.2724099014799
 31
0.0
  0
LINE
  5
11F
330
1F
100
AcDbEntity
  8
営業図
  6
CONTINUOUS
 62
     7
100
AcDbLine
 10
417.66715787775
 20
342.66022690148
 30
0.0
 11
413.16715787775
 21
342.66022690148
 31
0.0
  0
LINE
  5
120
330
1F
100
AcDbEntity
  8
営業図
  6
CONTINUOUS
 62
     7
100
AcDbLine
 10
417.66709687775
 20
361.66022690148
 30
0.0
 11
413.16715787775
 21
361.66022690148
 31
0.0
  0
LINE
  5
121
330
1F
100
AcDbEntity
  8
営業図
  6
CONTINUOUS
 62
     7
100
AcDbLine
 10
407.91715787775
 20
341.16022690148
 30
0.0
 11
413.16715787775
 21
342.66022690148
 31
0.0
  0
LINE
  5
122
330
1F
100
AcDbEntity
  8
営業図
  6
CONTINUOUS
 62
     7
100
AcDbLine
 10
407.91715787775
 20
363.16022690148
 30
0.0
 11
413.16715787775
 21
361.66022690148
 31
0.0
  0
LINE
  5
123
330
1F
100
AcDbEntity
  8
営業図
  6
CONTINUOUS
 62
     7
100
AcDbLine
 10
413.16666987775
 20
352.16022690148
 30
0.0
 11
417.66715787775
 21
352.16022690148
 31
0.0
  0
ARC
  5
124
330
1F
100
AcDbEntity
  8
営業図
  6
CONTINUOUS
 62
     7
100
AcDbCircle
 10
421.91709687775
 20
342.66025690148
 30
0.0
 40
3.750053000000001
100
AcDbArc
 50
306.8702936068001
 51
53.12852527743996
  0
LINE
  5
125
330
1F
100
AcDbEntity
  8
営業図
  6
CONTINUOUS
 62
     7
100
AcDbLine
 10
425.66715787775
 20
360.16022690148
 30
0.0
 11
429.03043987775
 21
360.16022690148
 31
0.0
  0
LINE
  5
126
330
1F
100
AcDbEntity
  8
営業図
  6
CONTINUOUS
 62
     7
100
AcDbLine
 10
425.66715787775
 20
344.16022690148
 30
0.0
 11
429.03043987775
 21
344.16022690148
 31
0.0
  0
ARC
  5
127
330
1F
100
AcDbEntity
  8
営業図
  6
CONTINUOUS
 62
     7
100
AcDbCircle
 10
404.61234887775
 20
387.41025690148
 30
0.0
 40
2.999969
100
AcDbArc
 50
59.99939546096992
 51
240.0005612244002
  0
LINE
  5
128
330
1F
100
AcDbEntity
  8
営業図
  6
CONTINUOUS
 62
     7
100
AcDbLine
 10
430.21977087775
 20
369.16166090148
 30
0.0
 11
403.11234887775
 21
384.81214290148
 31
0.0
  0
ARC
  5
129
330
1F
100
AcDbEntity
  8
営業図
  6
CONTINUOUS
 62
     7
100
AcDbCircle
 10
434.23441887775
 20
376.08133890148
 30
0.0
 40
2.0
100
AcDbArc
 50
239.5138908732
 51
323.4602865648004
  0
LINE
  5
12A
330
1F
100
AcDbEntity
  8
営業図
  6
CONTINUOUS
 62
     7
100
AcDbLine
 10
433.21977087775
 20
374.3578279014799
 30
0.0
 11
406.11234887775
 21
390.0082799014799
 31
0.0
  0
ARC
  5
12B
330
1F
100
AcDbEntity
  8
営業図
  6
CONTINUOUS
 62
     7
100
AcDbCircle
 10
429.23447987775
 20
367.4211829014799
 30
0.0
 40
2.0
100
AcDbArc
 50
336.5397098163005
 51
60.48610550783997
  0
LINE
  5
12C
330
1F
100
AcDbEntity
  8
営業図
  6
EXLTYPE2
 62
     1
100
AcDbLine
 10
385.66709687775
 20
352.16022690148
 30
0.0
 11
515.66709687775
 21
352.16022690148
 31
0.0
  0
LINE
  5
12D
330
1F
100
AcDbEntity
  8
営業図
  6
EXLTYPE2
 62
     1
100
AcDbLine
 10
465.66709687775
 20
402.16022690148
 30
0.0
 11
465.66709687775
 21
302.16022690148
 31
0.0
  0
LINE
  5
12E
330
1F
100
AcDbEntity
  8
営業図
  6
EXLTYPE2
 62
     1
100
AcDbLine
 10
465.66709687775
 20
352.16022690148
 30
0.0
 11
396.38505387775
 21
392.16022690148
 31
0.0
  0
CIRCLE
  5
12F
330
1F
100
AcDbEntity
  8
営業図
  6
CONTINUOUS
 62
     7
100
AcDbCircle
 10
465.66709687775
 20
352.16022690148
 30
0.0
 40
35.5
  0
LINE
  5
130
330
1F
100
AcDbEntity
  8
営業図
  6
CONTINUOUS
 62
     7
100
AcDbLine
 10
563.8424208777501
 20
174.60740090148
 30
0.0
 11
563.8424208777501
 21
245.60740090148
 31
0.0
  0
LINE
  5
131
330
1F
100
AcDbEntity
  8
営業図
  6
CONTINUOUS
 62
     7
100
AcDbLine
 10
156.84245087775
 20
176.60740090148
 30
0.0
 11
156.84245087775
 21
243.60740090148
 31
0.0
  0
LINE
  5
132
330
1F
100
AcDbEntity
  8
営業図
  6
CONTINUOUS
 62
     7
100
AcDbLine
 10
179.84245087775
 20
171.60740090148
 30
0.0
 11
179.84245087775
 21
248.60740090148
 31
0.0
  0
LINE
  5
133
330
1F
100
AcDbEntity
  8
営業図
  6
CONTINUOUS
 62
     7
100
AcDbLine
 10
163.84245087775
 20
250.60740090148
 30
0.0
 11
177.84245087775
 21
250.60740090148
 31
0.0
  0
LINE
  5
134
330
1F
100
AcDbEntity
  8
営業図
  6
CONTINUOUS
 62
     7
100
AcDbLine
 10
179.84245087775
 20
172.60740090148
 30
0.0
 11
561.8424208777501
 21
172.60740090148
 31
0.0
  0
LINE
  5
135
330
1F
100
AcDbEntity
  8
営業図
  6
CONTINUOUS
 62
     7
100
AcDbLine
 10
163.84245087775
 20
169.60740090148
 30
0.0
 11
177.84245087775
 21
169.60740090148
 31
0.0
  0
LINE
  5
136
330
1F
100
AcDbEntity
  8
営業図
  6
CONTINUOUS
 62
     7
100
AcDbLine
 10
179.84245087775
 20
248.60740090148
 30
0.0
 11
177.84245087775
 21
250.60740090148
 31
0.0
  0
LINE
  5
137
330
1F
100
AcDbEntity
  8
営業図
  6
CONTINUOUS
 62
     7
100
AcDbLine
 10
177.84245087775
 20
169.60740090148
 30
0.0
 11
179.84245087775
 21
171.60740090148
 31
0.0
  0
ARC
  5
138
330
1F
100
AcDbEntity
  8
営業図
  6
CONTINUOUS
 62
     7
100
AcDbCircle
 10
163.84245087775
 20
243.60740090148
 30
0.0
 40
7.000000000000004
100
AcDbArc
 50
89.99998127603001
 51
180.0000198478001
  0
ARC
  5
139
330
1F
100
AcDbEntity
  8
営業図
  6
CONTINUOUS
 62
     7
100
AcDbCircle
 10
163.84245087775
 20
176.60740090148
 30
0.0
 40
7.000000000000004
100
AcDbArc
 50
180.0000198478001
 51
270.0000011239002
  0
LINE
  5
13A
330
1F
100
AcDbEntity
  8
営業図
  6
CONTINUOUS
 62
     7
100
AcDbLine
 10
177.84245087775
 20
250.60740090148
 30
0.0
 11
177.84245087775
 21
169.60740090148
 31
0.0
  0
LINE
  5
13B
330
1F
100
AcDbEntity
  8
営業図
  6
CONTINUOUS
 62
     7
100
AcDbLine
 10
563.8424208777501
 20
245.60740090148
 30
0.0
 11
561.8424208777501
 21
247.60740090148
 31
0.0
  0
LINE
  5
13C
330
1F
100
AcDbEntity
  8
営業図
  6
CONTINUOUS
 62
     7
100
AcDbLine
 10
561.8424208777501
 20
172.60740090148
 30
0.0
 11
563.8424208777501
 21
174.60740090148
 31
0.0
  0
LINE
  5
13D
330
1F
100
AcDbEntity
  8
営業図
  6
CONTINUOUS
 62
     7
100
AcDbLine
 10
561.8424208777501
 20
247.60740090148
 30
0.0
 11
561.8424208777501
 21
172.60740090148
 31
0.0
  0
CIRCLE
  5
13E
330
1F
100
AcDbEntity
  8
営業図
  6
CONTINUOUS
 62
     7
100
AcDbCircle
 10
388.93855087775
 20
210.10738590148
 30
0.0
 40
4.0
  0
CIRCLE
  5
13F
330
1F
100
AcDbEntity
  8
営業図
  6
CONTINUOUS
 62
     7
100
AcDbCircle
 10
388.93855087775
 20
210.10738590148
 30
0.0
 40
10.75
  0
LINE
  5
140
330
1F
100
AcDbEntity
  8
営業図
  6
CONTINUOUS
 62
     7
100
AcDbLine
 10
378.18858187775
 20
203.81388290148
 30
0.0
 11
388.93855087775
 21
197.60738590148
 31
0.0
  0
LINE
  5
141
330
1F
100
AcDbEntity
  8
営業図
  6
CONTINUOUS
 62
     7
100
AcDbLine
 10
388.93855087775
 20
197.60738590148
 30
0.0
 11
399.68858187775
 21
203.81391290148
 31
0.0
  0
LINE
  5
142
330
1F
100
AcDbEntity
  8
営業図
  6
CONTINUOUS
 62
     7
100
AcDbLine
 10
399.68858187775
 20
203.81391290148
 30
0.0
 11
399.68855087775
 21
216.40087290148
 31
0.0
  0
LINE
  5
143
330
1F
100
AcDbEntity
  8
営業図
  6
CONTINUOUS
 62
     7
100
AcDbLine
 10
399.68855087775
 20
216.40087290148
 30
0.0
 11
388.93855087775
 21
222.60738590148
 31
0.0
  0
LINE
  5
144
330
1F
100
AcDbEntity
  8
営業図
  6
CONTINUOUS
 62
     7
100
AcDbLine
 10
388.93855087775
 20
222.60738590148
 30
0.0
 11
378.18855087775
 21
216.40085790148
 31
0.0
  0
LINE
  5
145
330
1F
100
AcDbEntity
  8
営業図
  6
CONTINUOUS
 62
     7
100
AcDbLine
 10
378.18855087775
 20
216.40085790148
 30
0.0
 11
378.18858187775
 21
203.81388290148
 31
0.0
  0
ARC
  5
146
330
1F
100
AcDbEntity
  8
営業図
  6
CONTINUOUS
 62
     7
100
AcDbCircle
 10
358.84245087775
 20
230.10740090148
 30
0.0
 40
3.250000000000002
100
AcDbArc
 50
202.6198779376
 51
337.3801243102003
  0
ARC
  5
147
330
1F
100
AcDbEntity
  8
営業図
  6
CONTINUOUS
 62
     7
100
AcDbCircle
 10
232.85697787775
 20
230.08562690148
 30
0.0
 40
3.228258000000001
100
AcDbArc
 50
200.9663790366
 51
337.6377834306004
  0
LINE
  5
148
330
1F
100
AcDbEntity
  8
営業図
  6
CONTINUOUS
 62
     7
100
AcDbLine
 10
235.84245087775
 20
228.85740090148
 30
0.0
 11
235.84245087775
 21
240.35738590148
 31
0.0
  0
LINE
  5
149
330
1F
100
AcDbEntity
  8
営業図
  6
CONTINUOUS
 62
     7
100
AcDbLine
 10
237.84245087775
 20
242.35738590148
 30
0.0
 11
353.84245087775
 21
242.35738590148
 31
0.0
  0
LINE
  5
14A
330
1F
100
AcDbEntity
  8
営業図
  6
CONTINUOUS
 62
     7
100
AcDbLine
 10
355.84245087775
 20
240.35738590148
 30
0.0
 11
355.84245087775
 21
228.85740090148
 31
0.0
  0
LINE
  5
14B
330
1F
100
AcDbEntity
  8
営業図
  6
CONTINUOUS
 62
     7
100
AcDbLine
 10
229.84245087775
 20
229.74750690148
 30
0.0
 11
229.84245087775
 21
240.35738590148
 31
0.0
  0
ARC
  5
14C
330
1F
100
AcDbEntity
  8
営業図
  6
CONTINUOUS
 62
     7
100
AcDbCircle
 10
237.84245087775
 20
240.35738590148
 30
0.0
 40
2.0
100
AcDbArc
 50
89.99998127603001
 51
180.0000198478001
  0
ARC
  5
14D
330
1F
100
AcDbEntity
  8
営業図
  6
CONTINUOUS
 62
     7
100
AcDbCircle
 10
237.84245087775
 20
240.35738590148
 30
0.0
 40
8.0
100
AcDbArc
 50
89.99998127603001
 51
180.0000198478001
  0
ARC
  5
14E
330
1F
100
AcDbEntity
  8
営業図
  6
CONTINUOUS
 62
     7
100
AcDbCircle
 10
353.84245087775
 20
240.35738590148
 30
0.0
 40
2.0
100
AcDbArc
 50
0.0
 51
89.99998127603001
  0
LINE
  5
14F
330
1F
100
AcDbEntity
  8
営業図
  6
CONTINUOUS
 62
     7
100
AcDbLine
 10
237.84245087775
 20
248.35738590148
 30
0.0
 11
353.84245087775
 21
248.35738590148
 31
0.0
  0
LINE
  5
150
330
1F
100
AcDbEntity
  8
営業図
  6
CONTINUOUS
 62
     7
100
AcDbLine
 10
361.84245087775
 20
228.85740090148
 30
0.0
 11
361.84245087775
 21
240.35738590148
 31
0.0
  0
ARC
  5
151
330
1F
100
AcDbEntity
  8
営業図
  6
CONTINUOUS
 62
     7
100
AcDbCircle
 10
353.84245087775
 20
240.35738590148
 30
0.0
 40
8.0
100
AcDbArc
 50
0.0
 51
89.99998127603001
  0
LINE
  5
152
330
1F
100
AcDbEntity
  8
営業図
  6
CONTINUOUS
 62
     7
100
AcDbLine
 10
179.84245087775
 20
247.60740090148
 30
0.0
 11
234.46055387775
 21
247.60740090148
 31
0.0
  0
LINE
  5
153
330
1F
100
AcDbEntity
  8
営業図
  6
CONTINUOUS
 62
     7
100
AcDbLine
 10
561.8424208777501
 20
247.60740090148
 30
0.0
 11
357.22434787775
 21
247.60740090148
 31
0.0
  0
LINE
  5
154
330
1F
100
AcDbEntity
  8
営業図
  6
CONTINUOUS
 62
     1
100
AcDbLine
 10
388.93855087775
 20
230.10738590148
 30
0.0
 11
388.93855087775
 21
190.10738590148
 31
0.0
  0
LINE
  5
155
330
1F
100
AcDbEntity
  8
営業図
  6
CONTINUOUS
 62
     1
100
AcDbLine
 10
563.8424208777501
 20
139.60740090148
 30
0.0
 11
563.8424208777501
 21
173.10740090148
 31
0.0
  0
LINE
  5
156
330
1F
100
AcDbEntity
  8
営業図
  6
CONTINUOUS
 62
     1
100
AcDbLine
 10
563.8424208777501
 20
139.60740090148
 30
0.0
 11
563.8424208777501
 21
138.10740090148
 31
0.0
  0
CIRCLE
  5
157
330
1F
100
AcDbEntity
  8
営業図
  6
CONTINUOUS
 62
     1
100
AcDbCircle
 10
563.8424208777501
 20
139.60740090148
 30
0.0
 40
0.36
  0
CIRCLE
  5
158
330
1F
100
AcDbEntity
  8
営業図
  6
CONTINUOUS
 62
     1
100
AcDbCircle
 10
563.8424208777501
 20
139.60740090148
 30
0.0
 40
0.7500000000000001
  0
TEXT
  5
159
330
1F
100
AcDbEntity
  8
営業図
  6
CONTINUOUS
 62
     1
100
AcDbText
 10
324.24244487775
 20
292.96180470148
 30
0.0
 40
4.6771656
  1
ハンドル
 41
0.8003347436747433
  7
EXCADSTD
 72
     5
 11
347.28244487775
 21
292.96180470148
 31
0.0
100
AcDbText
  0
CIRCLE
  5
15A
330
1F
100
AcDbEntity
  8
営業図
  6
CONTINUOUS
 62
     7
100
AcDbCircle
 10
388.93855087775
 20
210.10740090148
 30
0.0
 40
3.000000000000002
  0
CIRCLE
  5
15B
330
1F
100
AcDbEntity
  8
営業図
  6
CONTINUOUS
 62
     7
100
AcDbCircle
 10
388.93855087775
 20
210.10740090148
 30
0.0
 40
8.0
  0
LINE
  5
15C
330
1F
100
AcDbEntity
  8
営業図
  6
CONTINUOUS
 62
     7
100
AcDbLine
 10
108.84245087775
 20
179.60740090148
 30
0.0
 11
108.84245087775
 21
240.60740090148
 31
0.0
  0
LINE
  5
15D
330
1F
100
AcDbEntity
  8
営業図
  6
CONTINUOUS
 62
     7
100
AcDbLine
 10
148.84245087775
 20
179.60740090148
 30
0.0
 11
148.84245087775
 21
240.60740090148
 31
0.0
  0
LINE
  5
15E
330
1F
100
AcDbEntity
  8
営業図
  6
CONTINUOUS
 62
     7
100
AcDbLine
 10
110.84245087775
 20
242.60740090148
 30
0.0
 11
146.84245087775
 21
242.60740090148
 31
0.0
  0
LINE
  5
15F
330
1F
100
AcDbEntity
  8
営業図
  6
CONTINUOUS
 62
     7
100
AcDbLine
 10
110.84245087775
 20
177.60740090148
 30
0.0
 11
146.84245087775
 21
177.60740090148
 31
0.0
  0
LINE
  5
160
330
1F
100
AcDbEntity
  8
営業図
  6
CONTINUOUS
 62
     7
100
AcDbLine
 10
108.84245087775
 20
240.60740090148
 30
0.0
 11
110.84245087775
 21
242.60740090148
 31
0.0
  0
LINE
  5
161
330
1F
100
AcDbEntity
  8
営業図
  6
CONTINUOUS
 62
     7
100
AcDbLine
 10
110.84245087775
 20
177.60740090148
 30
0.0
 11
108.84245087775
 21
179.60740090148
 31
0.0
  0
LINE
  5
162
330
1F
100
AcDbEntity
  8
営業図
  6
CONTINUOUS
 62
     7
100
AcDbLine
 10
148.84245087775
 20
240.60740090148
 30
0.0
 11
146.84245087775
 21
242.60740090148
 31
0.0
  0
LINE
  5
163
330
1F
100
AcDbEntity
  8
営業図
  6
CONTINUOUS
 62
     7
100
AcDbLine
 10
146.84245087775
 20
177.60740090148
 30
0.0
 11
148.84245087775
 21
179.60740090148
 31
0.0
  0
LINE
  5
164
330
1F
100
AcDbEntity
  8
営業図
  6
CONTINUOUS
 62
     7
100
AcDbLine
 10
110.84245087775
 20
242.60740090148
 30
0.0
 11
110.84245087775
 21
177.60740090148
 31
0.0
  0
LINE
  5
165
330
1F
100
AcDbEntity
  8
営業図
  6
CONTINUOUS
 62
     7
100
AcDbLine
 10
146.84245087775
 20
177.60740090148
 30
0.0
 11
146.84245087775
 21
242.60740090148
 31
0.0
  0
LINE
  5
166
330
1F
100
AcDbEntity
  8
営業図
  6
CONTINUOUS
 62
     1
100
AcDbLine
 10
108.84245087775
 20
178.10740090148
 30
0.0
 11
108.84245087775
 21
139.60740090148
 31
0.0
  0
LINE
  5
167
330
1F
100
AcDbEntity
  8
営業図
  6
CONTINUOUS
 62
     1
100
AcDbLine
 10
108.84245087775
 20
139.60740090148
 30
0.0
 11
108.84245087775
 21
138.10740090148
 31
0.0
  0
CIRCLE
  5
168
330
1F
100
AcDbEntity
  8
営業図
  6
CONTINUOUS
 62
     1
100
AcDbCircle
 10
108.84245087775
 20
139.60740090148
 30
0.0
 40
0.36
  0
CIRCLE
  5
169
330
1F
100
AcDbEntity
  8
営業図
  6
CONTINUOUS
 62
     1
100
AcDbCircle
 10
108.84245087775
 20
139.60740090148
 30
0.0
 40
0.7500000000000001
  0
LINE
  5
16A
330
1F
100
AcDbEntity
  8
営業図
  6
CONTINUOUS
 62
     7
100
AcDbLine
 10
148.84245087775
 20
232.60740090148
 30
0.0
 11
156.84244387775
 21
232.60740090148
 31
0.0
  0
LINE
  5
16B
330
1F
100
AcDbEntity
  8
営業図
  6
CONTINUOUS
 62
     7
100
AcDbLine
 10
148.84245087775
 20
187.60740090148
 30
0.0
 11
156.84244387775
 21
187.60740090148
 31
0.0
  0
POINT
  5
16C
330
1F
100
AcDbEntity
  8
営業図
  6
CONTINUOUS
 62
     1
100
AcDbPoint
 10
78.84245087775
 20
210.10740090148
 30
0.0
  0
TEXT
  5
16D
330
1F
100
AcDbEntity
  8
営業図
  6
CONTINUOUS
 62
     1
100
AcDbText
 10
322.34242087775
 20
140.91055070148
 30
0.0
 40
4.6771656
  1
４５０～５７５
 41
0.9973340524733196
  7
EXCADSTD
 72
     5
 11
363.38242087775
 21
140.91055070148
 31
0.0
100
AcDbText
  0
LINE
  5
16E
330
1F
100
AcDbEntity
  8
営業図
  6
CONTINUOUS
 62
     1
100
AcDbLine
 10
563.8424208777501
 20
139.60740090148
 30
0.0
 11
108.84245087775
 21
139.60740090148
 31
0.0
  0
LINE
  5
16F
330
1F
100
AcDbEntity
  8
営業図
  6
EXLTYPE2
 62
     1
100
AcDbLine
 10
98.84245087775
 20
210.10740090148
 30
0.0
 11
573.8424208777501
 21
210.10740090148
 31
0.0
  0
TEXT
  5
170
330
1F
100
AcDbEntity
  8
営業図
  6
CONTINUOUS
 62
     1
100
AcDbText
 10
423.4499999999999
 20
270.5284713406
 30
0.0
 40
4.6771656
  1
ＰＴ３／８
 41
0.9744018460083886
  7
EXCADSTD
 72
     5
 11
452.49
 21
270.5284713406
 31
0.0
100
AcDbText
  0
LEADER
  5
171
330
1F
100
AcDbEntity
  8
営業図
  6
CONTINUOUS
 62
     1
100
AcDbLeader
  3
ISO-25
 76
     3
 10
394.31355109426
 20
219.50412927648
 30
0.0
 10
422.87575726508
 20
268.9753215406
 30
0.0
 10
453.0
 20
268.9753215406
 30
0.0
1001
ACAD
1000
DSTYLE
1002
{
1070
     5
1000
EX_BNORM
1070
    41
1040
4.5
1070
   341
1005
7A
1002
}
  0
TEXT
  5
172
330
1F
100
AcDbEntity
  8
営業図
  6
CONTINUOUS
 62
     6
100
AcDbText
 10
483.6
 20
13.202756075
 30
0.0
 40
4.0925199
  1
オイルジャッキ　ＤＰ－１Ｊ
 41
0.9031425751916161
  7
EXCADSTD
 72
     5
 11
551.01
 21
13.202756075
 31
0.0
100
AcDbText
  0
LINE
  5
173
330
1F
100
AcDbEntity
  8
営業図
  6
CONTINUOUS
 62
    54
100
AcDbLine
 10
336.4242424239065
 20
20.40105600296044
 30
0.0
 11
336.4398530875931
 21
20.41666666664696
 31
0.0
  0
LINE
  5
174
330
1F
100
AcDbEntity
  8
営業図
  6
CONTINUOUS
 62
    54
100
AcDbLine
 10
336.4242424239059
 20
20.10107130791138
 30
0.0
 11
336.7398377826421
 21
20.4166666666475
 31
0.0
  0
LINE
  5
175
330
1F
100
AcDbEntity
  8
営業図
  6
CONTINUOUS
 62
    54
100
AcDbLine
 10
336.4242424239068
 20
19.80108661286364
 30
0.0
 11
337.0398224776898
 21
20.41666666664669
 31
0.0
  0
LINE
  5
176
330
1F
100
AcDbEntity
  8
営業図
  6
CONTINUOUS
 62
    54
100
AcDbLine
 10
336.4242424239076
 20
19.50110191781596
 30
0.0
 11
337.3398071727376
 21
20.41666666664591
 31
0.0
  0
LINE
  5
177
330
1F
100
AcDbEntity
  8
営業図
  6
CONTINUOUS
 62
    54
100
AcDbLine
 10
336.4242424239057
 20
19.20111722276551
 30
0.0
 11
337.6397918677879
 21
20.41666666664781
 31
0.0
  0
LINE
  5
178
330
1F
100
AcDbEntity
  8
営業図
  6
CONTINUOUS
 62
    54
100
AcDbLine
 10
336.4242424239051
 20
18.90113252771645
 30
0.0
 11
337.9397765628356
 21
20.41666666664699
 31
0.0
  0
LINE
  5
179
330
1F
100
AcDbEntity
  8
営業図
  6
CONTINUOUS
 62
    54
100
AcDbLine
 10
336.4242424239059
 20
18.60114783266874
 30
0.0
 11
338.2198251372954
 21
20.39673054605814
 31
0.0
  0
LINE
  5
17A
330
1F
100
AcDbEntity
  8
営業図
  6
CONTINUOUS
 62
    54
100
AcDbLine
 10
336.4242424239068
 20
18.30116313762102
 30
0.0
 11
338.4475852034821
 21
20.32450591719642
 31
0.0
  0
LINE
  5
17B
330
1F
100
AcDbEntity
  8
営業図
  6
CONTINUOUS
 62
    54
100
AcDbLine
 10
336.4242424239062
 20
18.00117844257196
 30
0.0
 11
337.4848484845111
 21
19.06178450317689
 31
0.0
  0
LINE
  5
17C
330
1F
100
AcDbEntity
  8
営業図
  6
CONTINUOUS
 62
    54
100
AcDbLine
 10
336.4242424239056
 20
17.70119374752286
 30
0.0
 11
337.4848484845111
 21
18.76179980812831
 31
0.0
  0
LINE
  5
17D
330
1F
100
AcDbEntity
  8
営業図
  6
CONTINUOUS
 62
    54
100
AcDbLine
 10
336.4242424239064
 20
17.40120905247516
 30
0.0
 11
337.4848484845111
 21
18.46181511307987
 31
0.0
  0
LINE
  5
17E
330
1F
100
AcDbEntity
  8
営業図
  6
CONTINUOUS
 62
    54
100
AcDbLine
 10
336.4242424239059
 20
17.10122435742606
 30
0.0
 11
337.4848484845111
 21
18.16183041803129
 31
0.0
  0
LINE
  5
17F
330
1F
100
AcDbEntity
  8
営業図
  6
CONTINUOUS
 62
    54
100
AcDbLine
 10
336.4242424239067
 20
16.80123966237839
 30
0.0
 11
337.4848484845111
 21
17.86184572298281
 31
0.0
  0
LINE
  5
180
330
1F
100
AcDbEntity
  8
営業図
  6
CONTINUOUS
 62
    54
100
AcDbLine
 10
336.4242424239062
 20
16.50125496732929
 30
0.0
 11
337.4848484845111
 21
17.56186102793426
 31
0.0
  0
LINE
  5
181
330
1F
100
AcDbEntity
  8
営業図
  6
CONTINUOUS
 62
    54
100
AcDbLine
 10
336.4242424239069
 20
16.20127027228158
 30
0.0
 11
337.4848484845111
 21
17.26187633288576
 31
0.0
  0
LINE
  5
182
330
1F
100
AcDbEntity
  8
営業図
  6
CONTINUOUS
 62
    54
100
AcDbLine
 10
336.4242424239064
 20
15.90128557723248
 30
0.0
 11
337.4848484845111
 21
16.96189163783719
 31
0.0
  0
LINE
  5
183
330
1F
100
AcDbEntity
  8
営業図
  6
CONTINUOUS
 62
    54
100
AcDbLine
 10
336.4242424239059
 20
15.60130088218345
 30
0.0
 11
337.4848484845111
 21
16.6619069427887
 31
0.0
  0
LINE
  5
184
330
1F
100
AcDbEntity
  8
営業図
  6
CONTINUOUS
 62
    54
100
AcDbLine
 10
336.4242424239067
 20
15.30131618713571
 30
0.0
 11
337.4848484845111
 21
16.36192224774017
 31
0.0
  0
LINE
  5
185
330
1F
100
AcDbEntity
  8
営業図
  6
CONTINUOUS
 62
    54
100
AcDbLine
 10
336.4242424239075
 20
15.001331492088
 30
0.0
 11
337.4848484845111
 21
16.06193755269168
 31
0.0
  0
LINE
  5
186
330
1F
100
AcDbEntity
  8
営業図
  6
CONTINUOUS
 62
    54
100
AcDbLine
 10
336.4242424239069
 20
14.70134679703893
 30
0.0
 11
337.4848484845111
 21
15.76195285764316
 31
0.0
  0
LINE
  5
187
330
1F
100
AcDbEntity
  8
営業図
  6
CONTINUOUS
 62
    54
100
AcDbLine
 10
336.4242424239077
 20
14.40136210199123
 30
0.0
 11
337.4848484845111
 21
15.46196816259461
 31
0.0
  0
LINE
  5
188
330
1F
100
AcDbEntity
  8
営業図
  6
CONTINUOUS
 62
    54
100
AcDbLine
 10
336.4242424239058
 20
14.10137740694077
 30
0.0
 11
337.4848484845111
 21
15.16198346754607
 31
0.0
  0
LINE
  5
189
330
1F
100
AcDbEntity
  8
営業図
  6
CONTINUOUS
 62
    54
100
AcDbLine
 10
336.4242424239066
 20
13.80139271189307
 30
0.0
 11
337.4848484845111
 21
14.86199877249757
 31
0.0
  0
LINE
  5
18A
330
1F
100
AcDbEntity
  8
営業図
  6
CONTINUOUS
 62
    54
100
AcDbLine
 10
336.424242423906
 20
13.50140801684397
 30
0.0
 11
337.4848484845111
 21
14.56201407744904
 31
0.0
  0
LINE
  5
18B
330
1F
100
AcDbEntity
  8
営業図
  6
CONTINUOUS
 62
    54
100
AcDbLine
 10
336.4242424239069
 20
13.20142332179629
 30
0.0
 11
337.4848484845111
 21
14.26202938240052
 31
0.0
  0
LINE
  5
18C
330
1F
100
AcDbEntity
  8
営業図
  6
CONTINUOUS
 62
    54
100
AcDbLine
 10
336.4242424239077
 20
12.90143862674855
 30
0.0
 11
337.4848484845111
 21
13.96204468735202
 31
0.0
  0
LINE
  5
18D
330
1F
100
AcDbEntity
  8
営業図
  6
CONTINUOUS
 62
    54
100
AcDbLine
 10
336.4242424239058
 20
12.60145393169813
 30
0.0
 11
337.4848484845111
 21
13.66205999230349
 31
0.0
  0
LINE
  5
18E
330
1F
100
AcDbEntity
  8
営業図
  6
CONTINUOUS
 62
    54
100
AcDbLine
 10
336.4242424239065
 20
12.30146923665039
 30
0.0
 11
337.4848484845111
 21
13.36207529725493
 31
0.0
  0
LINE
  5
18F
330
1F
100
AcDbEntity
  8
営業図
  6
CONTINUOUS
 62
    54
100
AcDbLine
 10
336.4242424239073
 20
12.00148454160271
 30
0.0
 11
337.4848484845111
 21
13.06209060220645
 31
0.0
  0
LINE
  5
190
330
1F
100
AcDbEntity
  8
営業図
  6
CONTINUOUS
 62
    54
100
AcDbLine
 10
336.4242424239068
 20
11.70149984655365
 30
0.0
 11
337.4848484845111
 21
12.76210590715795
 31
0.0
  0
LINE
  5
191
330
1F
100
AcDbEntity
  8
営業図
  6
CONTINUOUS
 62
    54
100
AcDbLine
 10
336.4242424239049
 20
11.4015151515032
 30
0.0
 11
337.4848484845111
 21
12.46212121210942
 31
0.0
  0
LINE
  5
192
330
1F
100
AcDbEntity
  8
営業図
  6
CONTINUOUS
 62
    54
100
AcDbLine
 10
336.724227118954
 20
11.40151515150377
 30
0.0
 11
339.0757575754174
 21
13.75304560796708
 31
0.0
  0
LINE
  5
193
330
1F
100
AcDbEntity
  8
営業図
  6
CONTINUOUS
 62
    54
100
AcDbLine
 10
337.0242118140017
 20
11.40151515150292
 30
0.0
 11
339.075757575418
 21
13.45306091291934
 31
0.0
  0
LINE
  5
194
330
1F
100
AcDbEntity
  8
営業図
  6
CONTINUOUS
 62
    54
100
AcDbLine
 10
337.3241965090508
 20
11.4015151515035
 30
0.0
 11
339.0757575754189
 21
13.15307621787166
 31
0.0
  0
LINE
  5
195
330
1F
100
AcDbEntity
  8
営業図
  6
CONTINUOUS
 62
    54
100
AcDbLine
 10
337.6241812040985
 20
11.40151515150268
 30
0.0
 11
339.0757575754184
 21
12.85309152282257
 31
0.0
  0
LINE
  5
196
330
1F
100
AcDbEntity
  8
営業図
  6
CONTINUOUS
 62
    54
100
AcDbLine
 10
337.9241658991462
 20
11.40151515150187
 30
0.0
 11
339.0757575754191
 21
12.55310682777486
 31
0.0
  0
LINE
  5
197
330
1F
100
AcDbEntity
  8
営業図
  6
CONTINUOUS
 62
    54
100
AcDbLine
 10
338.2506192565932
 20
11.42798381390037
 30
0.0
 11
339.049288913022
 21
12.22665347032919
 31
0.0
  0
LINE
  5
198
330
1F
100
AcDbEntity
  8
営業図
  6
CONTINUOUS
 62
    54
100
AcDbLine
 10
336.7242271189546
 20
11.40151515150371
 30
0.0
 11
336.4242424239048
 21
11.70149984655335
 31
0.0
  0
LINE
  5
199
330
1F
100
AcDbEntity
  8
営業図
  6
CONTINUOUS
 62
    54
100
AcDbLine
 10
337.0242118140036
 20
11.4015151515032
 30
0.0
 11
336.4242424239057
 21
12.00148454160109
 31
0.0
  0
LINE
  5
19A
330
1F
100
AcDbEntity
  8
営業図
  6
CONTINUOUS
 62
    54
100
AcDbLine
 10
337.3241965090513
 20
11.40151515150398
 30
0.0
 11
336.4242424239065
 21
12.30146923664876
 31
0.0
  0
LINE
  5
19B
330
1F
100
AcDbEntity
  8
営業図
  6
CONTINUOUS
 62
    54
100
AcDbLine
 10
337.6241812041004
 20
11.40151515150344
 30
0.0
 11
336.4242424239059
 21
12.60145393169786
 31
0.0
  0
LINE
  5
19C
330
1F
100
AcDbEntity
  8
営業図
  6
CONTINUOUS
 62
    54
100
AcDbLine
 10
337.9241658991494
 20
11.40151515150287
 30
0.0
 11
336.4242424239068
 21
12.90143862674557
 31
0.0
  0
LINE
  5
19D
330
1F
100
AcDbEntity
  8
営業図
  6
CONTINUOUS
 62
    54
100
AcDbLine
 10
338.2067085309408
 20
11.41895721476004
 30
0.0
 11
336.4242424239048
 21
13.20142332179602
 31
0.0
  0
LINE
  5
19E
330
1F
100
AcDbEntity
  8
営業図
  6
CONTINUOUS
 62
    54
100
AcDbLine
 10
338.4367432834259
 20
11.48890715732344
 30
0.0
 11
336.4242424239057
 21
13.50140801684373
 31
0.0
  0
LINE
  5
19F
330
1F
100
AcDbEntity
  8
営業図
  6
CONTINUOUS
 62
    54
100
AcDbLine
 10
338.6286650116484
 20
11.59697012414948
 30
0.0
 11
337.7122722156316
 21
12.51336292016632
 31
0.0
  0
LINE
  5
1A0
330
1F
100
AcDbEntity
  8
営業図
  6
CONTINUOUS
 62
    54
100
AcDbLine
 10
338.7888971095314
 20
11.73672272131501
 30
0.0
 11
337.883222906808
 21
12.64239692403842
 31
0.0
  0
LINE
  5
1A1
330
1F
100
AcDbEntity
  8
営業図
  6
CONTINUOUS
 62
    54
100
AcDbLine
 10
338.9187753276517
 20
11.90682919824321
 30
0.0
 11
337.9910940302119
 21
12.83451049568304
 31
0.0
  0
LINE
  5
1A2
330
1F
100
AcDbEntity
  8
営業図
  6
CONTINUOUS
 62
    54
100
AcDbLine
 10
339.0155967118625
 20
12.10999250908096
 30
0.0
 11
338.0151515148132
 21
13.1104377061303
 31
0.0
  0
LINE
  5
1A3
330
1F
100
AcDbEntity
  8
営業図
  6
CONTINUOUS
 62
    54
100
AcDbLine
 10
339.0703561701708
 20
12.35521774582113
 30
0.0
 11
338.0151515148132
 21
13.41042240117872
 31
0.0
  0
LINE
  5
1A4
330
1F
100
AcDbEntity
  8
営業図
  6
CONTINUOUS
 62
    54
100
AcDbLine
 10
339.075757575418
 20
12.64980103562249
 30
0.0
 11
338.0151515148132
 21
13.71040709622729
 31
0.0
  0
LINE
  5
1A5
330
1F
100
AcDbEntity
  8
営業図
  6
CONTINUOUS
 62
    54
100
AcDbLine
 10
339.0757575754188
 20
12.94978573067019
 30
0.0
 11
338.0151515148132
 21
14.0103917912758
 31
0.0
  0
LINE
  5
1A6
330
1F
100
AcDbEntity
  8
営業図
  6
CONTINUOUS
 62
    54
100
AcDbLine
 10
339.0757575754196
 20
13.24977042571793
 30
0.0
 11
338.0151515148132
 21
14.31037648632437
 31
0.0
  0
LINE
  5
1A7
330
1F
100
AcDbEntity
  8
営業図
  6
CONTINUOUS
 62
    54
100
AcDbLine
 10
339.0757575754191
 20
13.54975512076697
 30
0.0
 11
338.0151515148132
 21
14.6103611813728
 31
0.0
  0
LINE
  5
1A8
330
1F
100
AcDbEntity
  8
営業図
  6
CONTINUOUS
 62
    54
100
AcDbLine
 10
339.0757575754185
 20
13.84973981581606
 30
0.0
 11
338.0151515148132
 21
14.91034587642141
 31
0.0
  0
LINE
  5
1A9
330
1F
100
AcDbEntity
  8
営業図
  6
CONTINUOUS
 62
    54
100
AcDbLine
 10
339.0757575754179
 20
14.14972451086513
 30
0.0
 11
338.0151515148132
 21
15.21033057146993
 31
0.0
  0
LINE
  5
1AA
330
1F
100
AcDbEntity
  8
営業図
  6
CONTINUOUS
 62
    54
100
AcDbLine
 10
339.0757575754188
 20
14.44970920591287
 30
0.0
 11
338.0151515148132
 21
15.51031526651846
 31
0.0
  0
LINE
  5
1AB
330
1F
100
AcDbEntity
  8
営業図
  6
CONTINUOUS
 62
    54
100
AcDbLine
 10
339.0757575754196
 20
14.74969390096055
 30
0.0
 11
338.0151515148132
 21
15.8102999615669
 31
0.0
  0
LINE
  5
1AC
330
1F
100
AcDbEntity
  8
営業図
  6
CONTINUOUS
 62
    54
100
AcDbLine
 10
339.0757575754191
 20
15.04967859600964
 30
0.0
 11
338.0151515148132
 21
16.11028465661548
 31
0.0
  0
LINE
  5
1AD
330
1F
100
AcDbEntity
  8
営業図
  6
CONTINUOUS
 62
    54
100
AcDbLine
 10
339.0757575754184
 20
15.34966329105871
 30
0.0
 11
338.0151515148132
 21
16.41026935166395
 31
0.0
  0
LINE
  5
1AE
330
1F
100
AcDbEntity
  8
営業図
  6
CONTINUOUS
 62
    54
100
AcDbLine
 10
339.0757575754193
 20
15.64964798610645
 30
0.0
 11
338.0151515148132
 21
16.71025404671254
 31
0.0
  0
LINE
  5
1AF
330
1F
100
AcDbEntity
  8
営業図
  6
CONTINUOUS
 62
    54
100
AcDbLine
 10
339.0757575754187
 20
15.94963268115551
 30
0.0
 11
338.0151515148132
 21
17.01023874176105
 31
0.0
  0
LINE
  5
1B0
330
1F
100
AcDbEntity
  8
営業図
  6
CONTINUOUS
 62
    54
100
AcDbLine
 10
339.0757575754195
 20
16.24961737620322
 30
0.0
 11
338.0151515148132
 21
17.31022343680955
 31
0.0
  0
LINE
  5
1B1
330
1F
100
AcDbEntity
  8
営業図
  6
CONTINUOUS
 62
    54
100
AcDbLine
 10
339.0757575754189
 20
16.54960207125228
 30
0.0
 11
338.0151515148132
 21
17.61020813185809
 31
0.0
  0
LINE
  5
1B2
330
1F
100
AcDbEntity
  8
営業図
  6
CONTINUOUS
 62
    54
100
AcDbLine
 10
339.0757575754184
 20
16.84958676630138
 30
0.0
 11
338.0151515148132
 21
17.91019282690662
 31
0.0
  0
LINE
  5
1B3
330
1F
100
AcDbEntity
  8
営業図
  6
CONTINUOUS
 62
    54
100
AcDbLine
 10
339.0757575754193
 20
17.14957146134906
 30
0.0
 11
338.0151515148132
 21
18.21017752195513
 31
0.0
  0
LINE
  5
1B4
330
1F
100
AcDbEntity
  8
営業図
  6
CONTINUOUS
 62
    54
100
AcDbLine
 10
339.0757575754187
 20
17.44955615639815
 30
0.0
 11
338.0151515148132
 21
18.51016221700367
 31
0.0
  0
LINE
  5
1B5
330
1F
100
AcDbEntity
  8
営業図
  6
CONTINUOUS
 62
    54
100
AcDbLine
 10
339.0757575754195
 20
17.74954085144586
 30
0.0
 11
338.0151515148132
 21
18.81014691205222
 31
0.0
  0
LINE
  5
1B6
330
1F
100
AcDbEntity
  8
営業図
  6
CONTINUOUS
 62
    54
100
AcDbLine
 10
339.0757575754189
 20
18.04952554649493
 30
0.0
 11
336.7086164552663
 21
20.41666666664747
 31
0.0
  0
LINE
  5
1B7
330
1F
100
AcDbEntity
  8
営業図
  6
CONTINUOUS
 62
    54
100
AcDbLine
 10
339.0757575754184
 20
18.34951024154402
 30
0.0
 11
337.0086011503154
 21
20.41666666664693
 31
0.0
  0
LINE
  5
1B8
330
1F
100
AcDbEntity
  8
営業図
  6
CONTINUOUS
 62
    54
100
AcDbLine
 10
339.0757575754191
 20
18.6494949365917
 30
0.0
 11
337.3085858453645
 21
20.41666666664636
 31
0.0
  0
LINE
  5
1B9
330
1F
100
AcDbEntity
  8
営業図
  6
CONTINUOUS
 62
    54
100
AcDbLine
 10
339.0757575754187
 20
18.9494796316408
 30
0.0
 11
337.6085705404123
 21
20.4166666666472
 31
0.0
  0
LINE
  5
1BA
330
1F
100
AcDbEntity
  8
営業図
  6
CONTINUOUS
 62
    54
100
AcDbLine
 10
339.0757575754195
 20
19.24946432668851
 30
0.0
 11
337.9085552354613
 21
20.41666666664663
 31
0.0
  0
LINE
  5
1BB
330
1F
100
AcDbEntity
  8
営業図
  6
CONTINUOUS
 62
    54
100
AcDbLine
 10
339.0536303093541
 20
19.57157628780236
 30
0.0
 11
338.2306671965765
 21
20.39453940057994
 31
0.0
  0
LINE
  5
1BC
330
1F
100
AcDbEntity
  8
営業図
  6
CONTINUOUS
 62
    54
100
AcDbLine
 10
337.4848484845111
 20
19.34044994235425
 30
0.0
 11
336.4242424239052
 21
20.40105600296017
 31
0.0
  0
LINE
  5
1BD
330
1F
100
AcDbEntity
  8
営業図
  6
CONTINUOUS
 62
    54
100
AcDbLine
 10
337.8904421471519
 20
19.16739347076918
 30
0.0
 11
338.7964100252508
 21
20.07336134886797
 31
0.0
  0
LINE
  5
1BE
330
1F
100
AcDbEntity
  8
営業図
  6
CONTINUOUS
 62
    54
100
AcDbLine
 10
337.9946872545543
 20
18.9716538831231
 30
0.0
 11
338.9246727986235
 21
19.90163942719231
 31
0.0
  0
LINE
  5
1BF
330
1F
100
AcDbEntity
  8
営業図
  6
CONTINUOUS
 62
    54
100
AcDbLine
 10
337.4848484845111
 20
18.7404805522572
 30
0.0
 11
336.4242424239063
 21
19.80108661286201
 31
0.0
  0
LINE
  5
1C0
330
1F
100
AcDbEntity
  8
営業図
  6
CONTINUOUS
 62
    54
100
AcDbLine
 10
338.0151515148132
 20
18.39214875328485
 30
0.0
 11
339.0717039021322
 21
19.44870114060389
 31
0.0
  0
LINE
  5
1C1
330
1F
100
AcDbEntity
  8
営業図
  6
CONTINUOUS
 62
    54
100
AcDbLine
 10
337.4848484845111
 20
18.14051116216016
 30
0.0
 11
336.424242423906
 21
19.20111722276524
 31
0.0
  0
LINE
  5
1C2
330
1F
100
AcDbEntity
  8
営業図
  6
CONTINUOUS
 62
    54
100
AcDbLine
 10
338.0151515148132
 20
18.09216405823633
 30
0.0
 11
339.0757575754191
 21
19.15277011884224
 31
0.0
  0
LINE
  5
1C3
330
1F
100
AcDbEntity
  8
営業図
  6
CONTINUOUS
 62
    54
100
AcDbLine
 10
338.0151515148132
 20
17.7921793631878
 30
0.0
 11
339.0757575754185
 21
18.85278542379317
 31
0.0
  0
LINE
  5
1C4
330
1F
100
AcDbEntity
  8
営業図
  6
CONTINUOUS
 62
    54
100
AcDbLine
 10
337.4848484845111
 20
17.54054177206311
 30
0.0
 11
336.4242424239044
 21
18.60114783266982
 31
0.0
  0
LINE
  5
1C5
330
1F
100
AcDbEntity
  8
営業図
  6
CONTINUOUS
 62
    54
100
AcDbLine
 10
337.4848484845111
 20
17.24055707701463
 30
0.0
 11
336.424242423905
 21
18.30116313762075
 31
0.0
  0
LINE
  5
1C6
330
1F
100
AcDbEntity
  8
営業図
  6
CONTINUOUS
 62
    54
100
AcDbLine
 10
337.4848484845111
 20
16.94057238196606
 30
0.0
 11
336.4242424239069
 21
18.0011784425703
 31
0.0
  0
LINE
  5
1C7
330
1F
100
AcDbEntity
  8
営業図
  6
CONTINUOUS
 62
    54
100
AcDbLine
 10
337.4848484845111
 20
16.64058768691753
 30
0.0
 11
336.424242423906
 21
17.70119374752259
 31
0.0
  0
LINE
  5
1C8
330
1F
100
AcDbEntity
  8
営業図
  6
CONTINUOUS
 62
    54
100
AcDbLine
 10
338.0151515148132
 20
16.2922558879452
 30
0.0
 11
339.0757575754185
 21
17.3528619485505
 31
0.0
  0
LINE
  5
1C9
330
1F
100
AcDbEntity
  8
営業図
  6
CONTINUOUS
 62
    54
100
AcDbLine
 10
337.4848484845111
 20
16.34060299186901
 30
0.0
 11
336.4242424239053
 21
17.40120905247485
 31
0.0
  0
LINE
  5
1CA
330
1F
100
AcDbEntity
  8
営業図
  6
CONTINUOUS
 62
    54
100
AcDbLine
 10
337.4848484845111
 20
16.04061829682053
 30
0.0
 11
336.4242424239058
 21
17.10122435742582
 31
0.0
  0
LINE
  5
1CB
330
1F
100
AcDbEntity
  8
営業図
  6
CONTINUOUS
 62
    54
100
AcDbLine
 10
338.0151515148132
 20
15.69228649784817
 30
0.0
 11
339.0757575754174
 21
16.75289255845234
 31
0.0
  0
LINE
  5
1CC
330
1F
100
AcDbEntity
  8
営業図
  6
CONTINUOUS
 62
    54
100
AcDbLine
 10
337.4848484845111
 20
15.74063360177199
 30
0.0
 11
336.4242424239064
 21
16.80123966237673
 31
0.0
  0
LINE
  5
1CD
330
1F
100
AcDbEntity
  8
営業図
  6
CONTINUOUS
 62
    54
100
AcDbLine
 10
338.0151515148132
 20
15.39230180279965
 30
0.0
 11
339.0757575754182
 21
16.45290786340466
 31
0.0
  0
LINE
  5
1CE
330
1F
100
AcDbEntity
  8
営業図
  6
CONTINUOUS
 62
    54
100
AcDbLine
 10
338.0151515148132
 20
15.09231710775111
 30
0.0
 11
339.0757575754191
 21
16.15292316835692
 31
0.0
  0
LINE
  5
1CF
330
1F
100
AcDbEntity
  8
営業図
  6
CONTINUOUS
 62
    54
100
AcDbLine
 10
337.4848484845111
 20
15.1406642116749
 30
0.0
 11
336.4242424239061
 21
16.20127027227992
 31
0.0
  0
LINE
  5
1D0
330
1F
100
AcDbEntity
  8
営業図
  6
CONTINUOUS
 62
    54
100
AcDbLine
 10
338.0151515148132
 20
14.79233241270262
 30
0.0
 11
339.0757575754184
 21
15.85293847330786
 31
0.0
  0
LINE
  5
1D1
330
1F
100
AcDbEntity
  8
営業図
  6
CONTINUOUS
 62
    54
100
AcDbLine
 10
337.4848484845111
 20
14.84067951662648
 30
0.0
 11
336.4242424239053
 21
15.90128557723224
 31
0.0
  0
LINE
  5
1D2
330
1F
100
AcDbEntity
  8
営業図
  6
CONTINUOUS
 62
    54
100
AcDbLine
 10
338.0151515148132
 20
14.49234771765407
 30
0.0
 11
339.0757575754193
 21
15.55295377826015
 31
0.0
  0
LINE
  5
1D3
330
1F
100
AcDbEntity
  8
営業図
  6
CONTINUOUS
 62
    54
100
AcDbLine
 10
337.4848484845111
 20
14.24071012652938
 30
0.0
 11
336.4242424239064
 21
15.30131618713408
 31
0.0
  0
LINE
  5
1D4
330
1F
100
AcDbEntity
  8
営業図
  6
CONTINUOUS
 62
    54
100
AcDbLine
 10
338.0151515148132
 20
14.1923630226056
 30
0.0
 11
339.0757575754174
 21
15.25296908320973
 31
0.0
  0
LINE
  5
1D5
330
1F
100
AcDbEntity
  8
営業図
  6
CONTINUOUS
 62
    54
100
AcDbLine
 10
337.4848484845111
 20
13.94072543148082
 30
0.0
 11
336.4242424239056
 21
15.00133149208634
 31
0.0
  0
LINE
  5
1D6
330
1F
100
AcDbEntity
  8
営業図
  6
CONTINUOUS
 62
    54
100
AcDbLine
 10
337.4848484845111
 20
13.64074073643237
 30
0.0
 11
336.4242424239048
 21
14.70134679703867
 31
0.0
  0
LINE
  5
1D7
330
1F
100
AcDbEntity
  8
営業図
  6
CONTINUOUS
 62
    54
100
AcDbLine
 10
338.0151515148132
 20
13.59239363250855
 30
0.0
 11
339.0757575754189
 21
14.65299969311428
 31
0.0
  0
LINE
  5
1D8
330
1F
100
AcDbEntity
  8
営業図
  6
CONTINUOUS
 62
    54
100
AcDbLine
 10
337.4848484845111
 20
13.34075604138379
 30
0.0
 11
336.4242424239053
 21
14.40136210198957
 31
0.0
  0
LINE
  5
1D9
330
1F
100
AcDbEntity
  8
営業図
  6
CONTINUOUS
 62
    54
100
AcDbLine
 10
338.0151515148132
 20
13.29240893746001
 30
0.0
 11
339.0757575754184
 21
14.35301499806524
 31
0.0
  0
LINE
  5
1DA
330
1F
100
AcDbEntity
  8
営業図
  6
CONTINUOUS
 62
    54
100
AcDbLine
 10
337.4848484845111
 20
13.04077134633529
 30
0.0
 11
336.4242424239059
 21
14.1013774069405
 31
0.0
  0
LINE
  5
1DB
330
1F
100
AcDbEntity
  8
営業図
  6
CONTINUOUS
 62
    54
100
AcDbLine
 10
337.7227612411734
 20
19.29969725983914
 30
0.0
 11
338.637756326779
 21
20.21469234544477
 31
0.0
  0
LINE
  5
1DC
330
1F
100
AcDbEntity
  8
営業図
  6
CONTINUOUS
 62
    54
100
AcDbLine
 10
337.4848484845111
 20
19.04046524730573
 30
0.0
 11
336.4242424239058
 21
20.10107130791111
 31
0.0
  0
LINE
  5
1DD
330
1F
100
AcDbEntity
  8
営業図
  6
CONTINUOUS
 62
    54
100
AcDbLine
 10
338.0151515148132
 20
18.69213344833341
 30
0.0
 11
339.0196050863163
 21
19.69658701983654
 31
0.0
  0
LINE
  5
1DE
330
1F
100
AcDbEntity
  8
営業図
  6
CONTINUOUS
 62
    54
100
AcDbLine
 10
337.4848484845111
 20
18.44049585720872
 30
0.0
 11
336.4242424239055
 21
19.50110191781433
 31
0.0
  0
LINE
  5
1DF
330
1F
100
AcDbEntity
  8
営業図
  6
CONTINUOUS
 62
    54
100
AcDbLine
 10
337.4848484845111
 20
17.84052646711162
 30
0.0
 11
336.4242424239052
 21
18.90113252771753
 31
0.0
  0
LINE
  5
1E0
330
1F
100
AcDbEntity
  8
営業図
  6
CONTINUOUS
 62
    54
100
AcDbLine
 10
338.0151515148132
 20
17.49219466813928
 30
0.0
 11
339.0757575754193
 21
18.55280072874544
 31
0.0
  0
LINE
  5
1E1
330
1F
100
AcDbEntity
  8
営業図
  6
CONTINUOUS
 62
    54
100
AcDbLine
 10
338.0151515148132
 20
17.19220997309076
 30
0.0
 11
339.0757575754188
 21
18.25281603369637
 31
0.0
  0
LINE
  5
1E2
330
1F
100
AcDbEntity
  8
営業図
  6
CONTINUOUS
 62
    54
100
AcDbLine
 10
338.0151515148132
 20
16.89222527804225
 30
0.0
 11
339.0757575754183
 21
17.9528313386473
 31
0.0
  0
LINE
  5
1E3
330
1F
100
AcDbEntity
  8
営業図
  6
CONTINUOUS
 62
    54
100
AcDbLine
 10
338.0151515148132
 20
16.59224058299375
 30
0.0
 11
339.0757575754191
 21
17.6528466435996
 31
0.0
  0
LINE
  5
1E4
330
1F
100
AcDbEntity
  8
営業図
  6
CONTINUOUS
 62
    54
100
AcDbLine
 10
338.0151515148132
 20
15.99227119289671
 30
0.0
 11
339.0757575754193
 21
17.05287725350282
 31
0.0
  0
LINE
  5
1E5
330
1F
100
AcDbEntity
  8
営業図
  6
CONTINUOUS
 62
    54
100
AcDbLine
 10
337.4848484845111
 20
15.4406489067235
 30
0.0
 11
336.4242424239056
 21
16.50125496732902
 31
0.0
  0
LINE
  5
1E6
330
1F
100
AcDbEntity
  8
営業図
  6
CONTINUOUS
 62
    54
100
AcDbLine
 10
337.4848484845111
 20
14.54069482157787
 30
0.0
 11
336.4242424239045
 21
15.6013008821845
 31
0.0
  0
LINE
  5
1E7
330
1F
100
AcDbEntity
  8
営業図
  6
CONTINUOUS
 62
    54
100
AcDbLine
 10
338.0151515148132
 20
13.89237832755702
 30
0.0
 11
339.0757575754182
 21
14.95298438816199
 31
0.0
  0
LINE
  5
1E8
330
1F
100
AcDbEntity
  8
営業図
  6
CONTINUOUS
 62
    54
100
AcDbLine
 10
338.0151515148132
 20
12.99242424241146
 30
0.0
 11
339.0757575754192
 21
14.05303030301751
 31
0.0
  0
LINE
  5
1E9
330
1F
100
AcDbEntity
  8
営業図
  6
CONTINUOUS
 62
    54
100
AcDbLine
 10
337.4848484845111
 20
12.74078665128678
 30
0.0
 11
336.4242424239051
 21
13.8013927118928
 31
0.0
  0
LINE
  5
1EA
330
1F
100
AcDbEntity
  8
営業図
  6
CONTINUOUS
 62
    54
100
AcDbLine
 10
339.6176970272634
 20
19.51273833935689
 30
0.0
 11
340.5099889330094
 21
20.40503024510287
 31
0.0
  0
LINE
  5
1EB
330
1F
100
AcDbEntity
  8
営業図
  6
CONTINUOUS
 62
    54
100
AcDbLine
 10
339.6060606057195
 20
19.20111722276446
 30
0.0
 11
340.8216100496005
 21
20.4166666666454
 31
0.0
  0
LINE
  5
1EC
330
1F
100
AcDbEntity
  8
営業図
  6
CONTINUOUS
 62
    54
100
AcDbLine
 10
339.6060606057204
 20
18.90113252771678
 30
0.0
 11
341.1215947446482
 21
20.41666666664461
 31
0.0
  0
LINE
  5
1ED
330
1F
100
AcDbEntity
  8
営業図
  6
CONTINUOUS
 62
    54
100
AcDbLine
 10
339.6060606057198
 20
18.60114783266768
 30
0.0
 11
341.4016433191092
 21
20.39673054605705
 31
0.0
  0
LINE
  5
1EE
330
1F
100
AcDbEntity
  8
営業図
  6
CONTINUOUS
 62
    54
100
AcDbLine
 10
339.606060605722
 20
18.30116313762136
 30
0.0
 11
341.6294033852973
 21
20.32450591719675
 31
0.0
  0
LINE
  5
1EF
330
1F
100
AcDbEntity
  8
営業図
  6
CONTINUOUS
 62
    54
100
AcDbLine
 10
339.6060606057214
 20
18.00117844257226
 30
0.0
 11
340.6666666663257
 21
19.0617845031765
 31
0.0
  0
LINE
  5
1F0
330
1F
100
AcDbEntity
  8
営業図
  6
CONTINUOUS
 62
    54
100
AcDbLine
 10
339.6060606057209
 20
17.7011937475232
 30
0.0
 11
340.6666666663257
 21
18.761799808128
 31
0.0
  0
LINE
  5
1F1
330
1F
100
AcDbEntity
  8
営業図
  6
CONTINUOUS
 62
    54
100
AcDbLine
 10
339.6060606057204
 20
17.4012090524741
 30
0.0
 11
340.6666666663257
 21
18.46181511307948
 31
0.0
  0
LINE
  5
1F2
330
1F
100
AcDbEntity
  8
営業図
  6
CONTINUOUS
 62
    54
100
AcDbLine
 10
339.606060605721
 20
17.1012243574264
 30
0.0
 11
340.6666666663257
 21
18.16183041803102
 31
0.0
  0
LINE
  5
1F3
330
1F
100
AcDbEntity
  8
営業図
  6
CONTINUOUS
 62
    54
100
AcDbLine
 10
339.6060606057206
 20
16.8012396623773
 30
0.0
 11
340.6666666663257
 21
17.86184572298245
 31
0.0
  0
LINE
  5
1F4
330
1F
100
AcDbEntity
  8
営業図
  6
CONTINUOUS
 62
    54
100
AcDbLine
 10
339.6060606057214
 20
16.50125496732962
 30
0.0
 11
340.6666666663257
 21
17.56186102793396
 31
0.0
  0
LINE
  5
1F5
330
1F
100
AcDbEntity
  8
営業図
  6
CONTINUOUS
 62
    54
100
AcDbLine
 10
339.6060606057221
 20
16.20127027228188
 30
0.0
 11
340.6666666663257
 21
17.2618763328854
 31
0.0
  0
LINE
  5
1F6
330
1F
100
AcDbEntity
  8
営業図
  6
CONTINUOUS
 62
    54
100
AcDbLine
 10
339.6060606057202
 20
15.90128557723146
 30
0.0
 11
340.6666666663257
 21
16.96189163783693
 31
0.0
  0
LINE
  5
1F7
330
1F
100
AcDbEntity
  8
営業図
  6
CONTINUOUS
 62
    54
100
AcDbLine
 10
339.606060605721
 20
15.60130088218375
 30
0.0
 11
340.6666666663257
 21
16.66190694278837
 31
0.0
  0
LINE
  5
1F8
330
1F
100
AcDbEntity
  8
営業図
  6
CONTINUOUS
 62
    54
100
AcDbLine
 10
339.6060606057205
 20
15.30131618713468
 30
0.0
 11
340.6666666663257
 21
16.36192224773987
 31
0.0
  0
LINE
  5
1F9
330
1F
100
AcDbEntity
  8
営業図
  6
CONTINUOUS
 62
    54
100
AcDbLine
 10
339.6060606057213
 20
15.00133149208694
 30
0.0
 11
340.6666666663257
 21
16.06193755269134
 31
0.0
  0
LINE
  5
1FA
330
1F
100
AcDbEntity
  8
営業図
  6
CONTINUOUS
 62
    54
100
AcDbLine
 10
339.6060606057221
 20
14.70134679703924
 30
0.0
 11
340.6666666663257
 21
15.76195285764282
 31
0.0
  0
LINE
  5
1FB
330
1F
100
AcDbEntity
  8
営業図
  6
CONTINUOUS
 62
    54
100
AcDbLine
 10
339.6060606057202
 20
14.40136210198882
 30
0.0
 11
340.6666666663257
 21
15.46196816259427
 31
0.0
  0
LINE
  5
1FC
330
1F
100
AcDbEntity
  8
営業図
  6
CONTINUOUS
 62
    54
100
AcDbLine
 10
339.606060605721
 20
14.10137740694111
 30
0.0
 11
340.6666666663257
 21
15.16198346754575
 31
0.0
  0
LINE
  5
1FD
330
1F
100
AcDbEntity
  8
営業図
  6
CONTINUOUS
 62
    54
100
AcDbLine
 10
339.6060606057204
 20
13.80139271189204
 30
0.0
 11
340.6666666663257
 21
14.86199877249727
 31
0.0
  0
LINE
  5
1FE
330
1F
100
AcDbEntity
  8
営業図
  6
CONTINUOUS
 62
    54
100
AcDbLine
 10
339.6060606057213
 20
13.5014080168443
 30
0.0
 11
340.6666666663257
 21
14.56201407744872
 31
0.0
  0
LINE
  5
1FF
330
1F
100
AcDbEntity
  8
営業図
  6
CONTINUOUS
 62
    54
100
AcDbLine
 10
339.6060606057193
 20
13.20142332179388
 30
0.0
 11
340.6666666663257
 21
14.26202938240022
 31
0.0
  0
LINE
  5
200
330
1F
100
AcDbEntity
  8
営業図
  6
CONTINUOUS
 62
    54
100
AcDbLine
 10
339.6060606057202
 20
12.90143862674617
 30
0.0
 11
340.7576522819915
 21
14.05303030301746
 31
0.0
  0
LINE
  5
201
330
1F
100
AcDbEntity
  8
営業図
  6
CONTINUOUS
 62
    54
100
AcDbLine
 10
339.606060605721
 20
12.60145393169846
 30
0.0
 11
341.0576369770399
 21
14.05303030301746
 31
0.0
  0
LINE
  5
202
330
1F
100
AcDbEntity
  8
営業図
  6
CONTINUOUS
 62
    54
100
AcDbLine
 10
339.6060606057204
 20
12.30146923664937
 30
0.0
 11
342.2575757572333
 21
14.95298438816232
 31
0.0
  0
LINE
  5
203
330
1F
100
AcDbEntity
  8
営業図
  6
CONTINUOUS
 62
    54
100
AcDbLine
 10
339.6060606057213
 20
12.00148454160166
 30
0.0
 11
342.2575757572342
 21
14.65299969311461
 31
0.0
  0
LINE
  5
204
330
1F
100
AcDbEntity
  8
営業図
  6
CONTINUOUS
 62
    54
100
AcDbLine
 10
339.6060606057193
 20
11.70149984655121
 30
0.0
 11
340.6666666663259
 21
12.76210590715777
 31
0.0
  0
LINE
  5
205
330
1F
100
AcDbEntity
  8
営業図
  6
CONTINUOUS
 62
    54
100
AcDbLine
 10
340.8969850015802
 20
12.99242424241208
 30
0.0
 11
342.2575757572336
 21
14.35301499806552
 31
0.0
  0
LINE
  5
206
330
1F
100
AcDbEntity
  8
営業図
  6
CONTINUOUS
 62
    54
100
AcDbLine
 10
339.6060606057188
 20
11.40151515150217
 30
0.0
 11
340.6666666663266
 21
12.46212121211006
 31
0.0
  0
LINE
  5
207
330
1F
100
AcDbEntity
  8
営業図
  6
CONTINUOUS
 62
    54
100
AcDbLine
 10
341.1969696966279
 20
12.9924242424113
 30
0.0
 11
342.2575757572345
 21
14.05303030301784
 31
0.0
  0
LINE
  5
208
330
1F
100
AcDbEntity
  8
営業図
  6
CONTINUOUS
 62
    54
100
AcDbLine
 10
339.9060453007679
 20
11.40151515150268
 30
0.0
 11
340.6666666663275
 21
12.16213651706233
 31
0.0
  0
LINE
  5
209
330
1F
100
AcDbEntity
  8
営業図
  6
CONTINUOUS
 62
    54
100
AcDbLine
 10
341.1969696966287
 20
12.69243954736356
 30
0.0
 11
342.2575757572325
 21
13.75304560796739
 31
0.0
  0
LINE
  5
20A
330
1F
100
AcDbEntity
  8
営業図
  6
CONTINUOUS
 62
    54
100
AcDbLine
 10
340.2060299958169
 20
11.40151515150326
 30
0.0
 11
340.6666666663256
 21
11.8621518220119
 31
0.0
  0
LINE
  5
20B
330
1F
100
AcDbEntity
  8
営業図
  6
CONTINUOUS
 62
    54
100
AcDbLine
 10
341.1969696966295
 20
12.39245485231585
 30
0.0
 11
342.2575757572333
 21
13.45306091291967
 31
0.0
  0
LINE
  5
20C
330
1F
100
AcDbEntity
  8
営業図
  6
CONTINUOUS
 62
    54
100
AcDbLine
 10
340.5060146908646
 20
11.40151515150244
 30
0.0
 11
340.6666666663264
 21
11.56216712696419
 31
0.0
  0
LINE
  5
20D
330
1F
100
AcDbEntity
  8
営業図
  6
CONTINUOUS
 62
    54
100
AcDbLine
 10
341.196969696629
 20
12.09247015726679
 30
0.0
 11
342.2575757572342
 21
13.15307621787197
 31
0.0
  0
LINE
  5
20E
330
1F
100
AcDbEntity
  8
営業図
  6
CONTINUOUS
 62
    54
100
AcDbLine
 10
341.1969696966297
 20
11.79248546221908
 30
0.0
 11
342.2575757572336
 21
12.8530915228229
 31
0.0
  0
LINE
  5
20F
330
1F
100
AcDbEntity
  8
営業図
  6
CONTINUOUS
 62
    54
100
AcDbLine
 10
341.1969696966306
 20
11.49250076717134
 30
0.0
 11
342.2575757572343
 21
12.55310682777516
 31
0.0
  0
LINE
  5
210
330
1F
100
AcDbEntity
  8
営業図
  6
CONTINUOUS
 62
    54
100
AcDbLine
 10
341.4059687760105
 20
11.40151515150274
 30
0.0
 11
342.2575757572325
 21
12.25312213272474
 31
0.0
  0
LINE
  5
211
330
1F
100
AcDbEntity
  8
営業図
  6
CONTINUOUS
 62
    54
100
AcDbLine
 10
341.7059534710609
 20
11.40151515150464
 30
0.0
 11
342.2575757572333
 21
11.953137437677
 31
0.0
  0
LINE
  5
212
330
1F
100
AcDbEntity
  8
営業図
  6
CONTINUOUS
 62
    54
100
AcDbLine
 10
342.0059381661086
 20
11.40151515150386
 30
0.0
 11
342.2575757572341
 21
11.65315274262932
 31
0.0
  0
LINE
  5
213
330
1F
100
AcDbEntity
  8
営業図
  6
CONTINUOUS
 62
    54
100
AcDbLine
 10
339.9060453007697
 20
11.40151515150338
 30
0.0
 11
339.6060606057201
 21
11.70149984655301
 31
0.0
  0
LINE
  5
214
330
1F
100
AcDbEntity
  8
営業図
  6
CONTINUOUS
 62
    54
100
AcDbLine
 10
340.2060299958174
 20
11.40151515150422
 30
0.0
 11
339.6060606057196
 21
12.00148454160211
 31
0.0
  0
LINE
  5
215
330
1F
100
AcDbEntity
  8
営業図
  6
CONTINUOUS
 62
    54
100
AcDbLine
 10
340.5060146908665
 20
11.40151515150365
 30
0.0
 11
339.606060605719
 21
12.30146923665118
 31
0.0
  0
LINE
  5
216
330
1F
100
AcDbEntity
  8
営業図
  6
CONTINUOUS
 62
    54
100
AcDbLine
 10
340.6666666663264
 20
11.54084787109235
 30
0.0
 11
339.6060606057198
 21
12.60145393169891
 31
0.0
  0
LINE
  5
217
330
1F
100
AcDbEntity
  8
営業図
  6
CONTINUOUS
 62
    54
100
AcDbLine
 10
340.6666666663258
 20
11.84083256614141
 30
0.0
 11
339.6060606057192
 21
12.90143862674795
 31
0.0
  0
LINE
  5
218
330
1F
100
AcDbEntity
  8
営業図
  6
CONTINUOUS
 62
    54
100
AcDbLine
 10
341.405968776011
 20
11.40151515150473
 30
0.0
 11
341.1969696966278
 21
11.61051423088792
 31
0.0
  0
LINE
  5
219
330
1F
100
AcDbEntity
  8
営業図
  6
CONTINUOUS
 62
    54
100
AcDbLine
 10
340.6666666663266
 20
12.14081726118915
 30
0.0
 11
339.6060606057201
 21
13.20142332179569
 31
0.0
  0
LINE
  5
21A
330
1F
100
AcDbEntity
  8
営業図
  6
CONTINUOUS
 62
    54
100
AcDbLine
 10
341.7059534710587
 20
11.40151515150552
 30
0.0
 11
341.1969696966272
 21
11.91049892593698
 31
0.0
  0
LINE
  5
21B
330
1F
100
AcDbEntity
  8
営業図
  6
CONTINUOUS
 62
    54
100
AcDbLine
 10
340.6666666663247
 20
12.44080195623957
 30
0.0
 11
339.6060606057195
 21
13.50140801684475
 31
0.0
  0
LINE
  5
21C
330
1F
100
AcDbEntity
  8
営業図
  6
CONTINUOUS
 62
    54
100
AcDbLine
 10
342.0059381661078
 20
11.40151515150498
 30
0.0
 11
341.1969696966268
 21
12.21048362098608
 31
0.0
  0
LINE
  5
21D
330
1F
100
AcDbEntity
  8
営業図
  6
CONTINUOUS
 62
    54
100
AcDbLine
 10
340.6666666663255
 20
12.74078665128731
 30
0.0
 11
339.606060605719
 21
13.80139271189385
 31
0.0
  0
LINE
  5
21E
330
1F
100
AcDbEntity
  8
営業図
  6
CONTINUOUS
 62
    54
100
AcDbLine
 10
342.2575757572314
 20
11.44986225542996
 30
0.0
 11
341.1969696966275
 21
12.51046831603376
 31
0.0
  0
LINE
  5
21F
330
1F
100
AcDbEntity
  8
営業図
  6
CONTINUOUS
 62
    54
100
AcDbLine
 10
340.7150137702505
 20
12.99242424241082
 30
0.0
 11
339.6060606057197
 21
14.10137740694153
 31
0.0
  0
LINE
  5
220
330
1F
100
AcDbEntity
  8
営業図
  6
CONTINUOUS
 62
    54
100
AcDbLine
 10
342.2575757572322
 20
11.74984695047767
 30
0.0
 11
341.1969696966283
 21
12.8104530110815
 31
0.0
  0
LINE
  5
221
330
1F
100
AcDbEntity
  8
営業図
  6
CONTINUOUS
 62
    54
100
AcDbLine
 10
341.0149984652995
 20
12.99242424241027
 30
0.0
 11
339.6060606057206
 21
14.40136210198927
 31
0.0
  0
LINE
  5
222
330
1F
100
AcDbEntity
  8
営業図
  6
CONTINUOUS
 62
    54
100
AcDbLine
 10
342.2575757572329
 20
12.04983164552538
 30
0.0
 11
339.60606060572
 21
14.70134679703833
 31
0.0
  0
LINE
  5
223
330
1F
100
AcDbEntity
  8
営業図
  6
CONTINUOUS
 62
    54
100
AcDbLine
 10
342.2575757572324
 20
12.34981634057448
 30
0.0
 11
339.6060606057208
 21
15.00133149208604
 31
0.0
  0
LINE
  5
224
330
1F
100
AcDbEntity
  8
営業図
  6
CONTINUOUS
 62
    54
100
AcDbLine
 10
342.2575757572318
 20
12.64980103562354
 30
0.0
 11
340.8543464898379
 21
14.05303030301746
 31
0.0
  0
LINE
  5
225
330
1F
100
AcDbEntity
  8
営業図
  6
CONTINUOUS
 62
    54
100
AcDbLine
 10
342.2575757572313
 20
12.94978573067264
 30
0.0
 11
341.1543311848865
 21
14.05303030301746
 31
0.0
  0
LINE
  5
226
330
1F
100
AcDbEntity
  8
営業図
  6
CONTINUOUS
 62
    54
100
AcDbLine
 10
342.2575757572321
 20
13.24977042572032
 30
0.0
 11
341.1969696966283
 21
14.31037648632407
 31
0.0
  0
LINE
  5
227
330
1F
100
AcDbEntity
  8
営業図
  6
CONTINUOUS
 62
    54
100
AcDbLine
 10
342.2575757572329
 20
13.54975512076805
 30
0.0
 11
341.1969696966283
 21
14.61036118137262
 31
0.0
  0
LINE
  5
228
330
1F
100
AcDbEntity
  8
営業図
  6
CONTINUOUS
 62
    54
100
AcDbLine
 10
342.2575757572337
 20
13.84973981581573
 30
0.0
 11
341.1969696966283
 21
14.91034587642111
 31
0.0
  0
LINE
  5
229
330
1F
100
AcDbEntity
  8
営業図
  6
CONTINUOUS
 62
    54
100
AcDbLine
 10
342.2575757572332
 20
14.14972451086483
 30
0.0
 11
341.1969696966283
 21
15.21033057146963
 31
0.0
  0
LINE
  5
22A
330
1F
100
AcDbEntity
  8
営業図
  6
CONTINUOUS
 62
    54
100
AcDbLine
 10
342.2575757572326
 20
14.44970920591389
 30
0.0
 11
341.1969696966283
 21
15.51031526651812
 31
0.0
  0
LINE
  5
22B
330
1F
100
AcDbEntity
  8
営業図
  6
CONTINUOUS
 62
    54
100
AcDbLine
 10
342.2575757572321
 20
14.74969390096299
 30
0.0
 11
341.1969696966283
 21
15.81029996156672
 31
0.0
  0
LINE
  5
22C
330
1F
100
AcDbEntity
  8
営業図
  6
CONTINUOUS
 62
    54
100
AcDbLine
 10
342.2575757572329
 20
15.0496785960107
 30
0.0
 11
341.1969696966283
 21
16.11028465661521
 31
0.0
  0
LINE
  5
22D
330
1F
100
AcDbEntity
  8
営業図
  6
CONTINUOUS
 62
    54
100
AcDbLine
 10
342.2575757572323
 20
15.34966329105976
 30
0.0
 11
341.1969696966283
 21
16.41026935166372
 31
0.0
  0
LINE
  5
22E
330
1F
100
AcDbEntity
  8
営業図
  6
CONTINUOUS
 62
    54
100
AcDbLine
 10
342.2575757572332
 20
15.64964798610747
 30
0.0
 11
341.1969696966283
 21
16.71025404671224
 31
0.0
  0
LINE
  5
22F
330
1F
100
AcDbEntity
  8
営業図
  6
CONTINUOUS
 62
    54
100
AcDbLine
 10
342.2575757572326
 20
15.94963268115654
 30
0.0
 11
341.1969696966283
 21
17.01023874176074
 31
0.0
  0
LINE
  5
230
330
1F
100
AcDbEntity
  8
営業図
  6
CONTINUOUS
 62
    54
100
AcDbLine
 10
342.257575757232
 20
16.24961737620563
 30
0.0
 11
341.1969696966283
 21
17.31022343680929
 31
0.0
  0
LINE
  5
231
330
1F
100
AcDbEntity
  8
営業図
  6
CONTINUOUS
 62
    54
100
AcDbLine
 10
342.2575757572329
 20
16.54960207125331
 30
0.0
 11
341.1969696966283
 21
17.61020813185774
 31
0.0
  0
LINE
  5
232
330
1F
100
AcDbEntity
  8
営業図
  6
CONTINUOUS
 62
    54
100
AcDbLine
 10
342.2575757572323
 20
16.84958676630241
 30
0.0
 11
341.1969696966283
 21
17.9101928269063
 31
0.0
  0
LINE
  5
233
330
1F
100
AcDbEntity
  8
営業図
  6
CONTINUOUS
 62
    54
100
AcDbLine
 10
342.2575757572317
 20
17.14957146135147
 30
0.0
 11
341.1969696966283
 21
18.21017752195484
 31
0.0
  0
LINE
  5
234
330
1F
100
AcDbEntity
  8
営業図
  6
CONTINUOUS
 62
    54
100
AcDbLine
 10
342.2575757572326
 20
17.44955615639921
 30
0.0
 11
341.1969696966283
 21
18.5101622170034
 31
0.0
  0
LINE
  5
235
330
1F
100
AcDbEntity
  8
営業図
  6
CONTINUOUS
 62
    54
100
AcDbLine
 10
342.2575757572333
 20
17.74954085144689
 30
0.0
 11
341.1969696966283
 21
18.81014691205185
 31
0.0
  0
LINE
  5
236
330
1F
100
AcDbEntity
  8
営業図
  6
CONTINUOUS
 62
    54
100
AcDbLine
 10
342.2575757572329
 20
18.04952554649599
 30
0.0
 11
341.1962161441525
 21
19.11088515957636
 31
0.0
  0
LINE
  5
237
330
1F
100
AcDbEntity
  8
営業図
  6
CONTINUOUS
 62
    54
100
AcDbLine
 10
342.2575757572322
 20
18.34951024154505
 30
0.0
 11
340.26814071783
 21
20.33894528094734
 31
0.0
  0
LINE
  5
238
330
1F
100
AcDbEntity
  8
営業図
  6
CONTINUOUS
 62
    54
100
AcDbLine
 10
342.2575757572317
 20
18.64949493659415
 30
0.0
 11
340.5030935577407
 21
20.40397713608511
 31
0.0
  0
LINE
  5
239
330
1F
100
AcDbEntity
  8
営業図
  6
CONTINUOUS
 62
    54
100
AcDbLine
 10
342.2575757572325
 20
18.94947963164182
 30
0.0
 11
340.7903887222274
 21
20.41666666664687
 31
0.0
  0
LINE
  5
23A
330
1F
100
AcDbEntity
  8
営業図
  6
CONTINUOUS
 62
    54
100
AcDbLine
 10
342.2575757572333
 20
19.24946432668956
 30
0.0
 11
341.0903734172765
 21
20.41666666664633
 31
0.0
  0
LINE
  5
23B
330
1F
100
AcDbEntity
  8
営業図
  6
CONTINUOUS
 62
    54
100
AcDbLine
 10
342.2354484911679
 20
19.57157628780342
 30
0.0
 11
341.4124853783918
 21
20.39453940057961
 31
0.0
  0
LINE
  5
23C
330
1F
100
AcDbEntity
  8
営業図
  6
CONTINUOUS
 62
    54
100
AcDbLine
 10
340.955991733439
 20
19.35110957028981
 30
0.0
 11
341.8195745085943
 21
20.21469234544508
 31
0.0
  0
LINE
  5
23D
330
1F
100
AcDbEntity
  8
営業図
  6
CONTINUOUS
 62
    54
100
AcDbLine
 10
340.7366849558529
 20
19.27043165282731
 30
0.0
 11
339.9089402155037
 21
20.09817639317655
 31
0.0
  0
LINE
  5
23E
330
1F
100
AcDbEntity
  8
営業図
  6
CONTINUOUS
 62
    54
100
AcDbLine
 10
340.6666666663257
 20
19.04046524730608
 30
0.0
 11
339.7756960876499
 21
19.93143582598192
 31
0.0
  0
LINE
  5
23F
330
1F
100
AcDbEntity
  8
営業図
  6
CONTINUOUS
 62
    54
100
AcDbLine
 10
341.1485401679523
 20
19.24367330975452
 30
0.0
 11
341.978228207066
 21
20.0733613488683
 31
0.0
  0
LINE
  5
240
330
1F
100
AcDbEntity
  8
営業図
  6
CONTINUOUS
 62
    54
100
AcDbLine
 10
340.955991733439
 20
19.35110957028982
 30
0.0
 11
340.0724940820369
 21
20.2346072216919
 31
0.0
  0
LINE
  5
241
330
1F
100
AcDbEntity
  8
営業図
  6
CONTINUOUS
 62
    54
100
AcDbLine
 10
341.1969696966283
 20
18.99211814338216
 30
0.0
 11
342.1064909804388
 21
19.90163942719261
 31
0.0
  0
LINE
  5
242
330
1F
100
AcDbEntity
  8
営業図
  6
CONTINUOUS
 62
    54
100
AcDbLine
 10
340.6666666663257
 20
18.74048055225751
 30
0.0
 11
339.6749849029419
 21
19.73216231564132
 31
0.0
  0
LINE
  5
243
330
1F
100
AcDbEntity
  8
営業図
  6
CONTINUOUS
 62
    54
100
AcDbLine
 10
340.6666666663257
 20
18.44049585720899
 30
0.0
 11
339.6148490189086
 21
19.49231350462612
 31
0.0
  0
LINE
  5
244
330
1F
100
AcDbEntity
  8
営業図
  6
CONTINUOUS
 62
    54
100
AcDbLine
 10
340.6666666663257
 20
18.14051116216044
 30
0.0
 11
339.6060606057198
 21
19.20111722276626
 31
0.0
  0
LINE
  5
245
330
1F
100
AcDbEntity
  8
営業図
  6
CONTINUOUS
 62
    54
100
AcDbLine
 10
341.1969696966283
 20
18.6921334483337
 30
0.0
 11
342.2014232681315
 21
19.69658701983687
 31
0.0
  0
LINE
  5
246
330
1F
100
AcDbEntity
  8
営業図
  6
CONTINUOUS
 62
    54
100
AcDbLine
 10
341.1969696966283
 20
18.39214875328511
 30
0.0
 11
342.2535220839474
 21
19.44870114060419
 31
0.0
  0
LINE
  5
247
330
1F
100
AcDbEntity
  8
営業図
  6
CONTINUOUS
 62
    54
100
AcDbLine
 10
341.1969696966283
 20
18.09216405823665
 30
0.0
 11
342.2575757572343
 21
19.15277011884257
 31
0.0
  0
LINE
  5
248
330
1F
100
AcDbEntity
  8
営業図
  6
CONTINUOUS
 62
    54
100
AcDbLine
 10
341.1969696966283
 20
17.7921793631881
 30
0.0
 11
342.2575757572351
 21
18.85278542379483
 31
0.0
  0
LINE
  5
249
330
1F
100
AcDbEntity
  8
営業図
  6
CONTINUOUS
 62
    54
100
AcDbLine
 10
341.1969696966283
 20
17.49219466813962
 30
0.0
 11
342.2575757572345
 21
18.55280072874577
 31
0.0
  0
LINE
  5
24A
330
1F
100
AcDbEntity
  8
営業図
  6
CONTINUOUS
 62
    54
100
AcDbLine
 10
341.1969696966283
 20
17.19220997309103
 30
0.0
 11
342.257575757234
 21
18.25281603369667
 31
0.0
  0
LINE
  5
24B
330
1F
100
AcDbEntity
  8
営業図
  6
CONTINUOUS
 62
    54
100
AcDbLine
 10
341.1969696966283
 20
16.89222527804256
 30
0.0
 11
342.2575757572334
 21
17.95283133864764
 31
0.0
  0
LINE
  5
24C
330
1F
100
AcDbEntity
  8
営業図
  6
CONTINUOUS
 62
    54
100
AcDbLine
 10
341.1969696966283
 20
16.59224058299401
 30
0.0
 11
342.2575757572343
 21
17.6528466435999
 31
0.0
  0
LINE
  5
24D
330
1F
100
AcDbEntity
  8
営業図
  6
CONTINUOUS
 62
    54
100
AcDbLine
 10
341.1969696966283
 20
16.29225588794551
 30
0.0
 11
342.2575757572337
 21
17.35286194855083
 31
0.0
  0
LINE
  5
24E
330
1F
100
AcDbEntity
  8
営業図
  6
CONTINUOUS
 62
    54
100
AcDbLine
 10
341.1969696966283
 20
15.99227119289698
 30
0.0
 11
342.2575757572345
 21
17.05287725350312
 31
0.0
  0
LINE
  5
24F
330
1F
100
AcDbEntity
  8
営業図
  6
CONTINUOUS
 62
    54
100
AcDbLine
 10
341.1969696966283
 20
15.69228649784842
 30
0.0
 11
342.2575757572354
 21
16.75289255845541
 31
0.0
  0
LINE
  5
250
330
1F
100
AcDbEntity
  8
営業図
  6
CONTINUOUS
 62
    54
100
AcDbLine
 10
341.1969696966283
 20
15.39230180279995
 30
0.0
 11
342.2575757572334
 21
16.45290786340499
 31
0.0
  0
LINE
  5
251
330
1F
100
AcDbEntity
  8
営業図
  6
CONTINUOUS
 62
    54
100
AcDbLine
 10
341.1969696966283
 20
15.09231710775139
 30
0.0
 11
342.2575757572342
 21
16.15292316835725
 31
0.0
  0
LINE
  5
252
330
1F
100
AcDbEntity
  8
営業図
  6
CONTINUOUS
 62
    54
100
AcDbLine
 10
341.1969696966283
 20
14.79233241270289
 30
0.0
 11
342.2575757572337
 21
15.85293847330819
 31
0.0
  0
LINE
  5
253
330
1F
100
AcDbEntity
  8
営業図
  6
CONTINUOUS
 62
    54
100
AcDbLine
 10
341.1969696966283
 20
14.49234771765433
 30
0.0
 11
342.2575757572345
 21
15.55295377826048
 31
0.0
  0
LINE
  5
254
330
1F
100
AcDbEntity
  8
営業図
  6
CONTINUOUS
 62
    54
100
AcDbLine
 10
341.1969696966283
 20
14.19236302260584
 30
0.0
 11
342.2575757572353
 21
15.25296908321277
 31
0.0
  0
LINE
  5
255
330
1F
100
AcDbEntity
  8
営業図
  6
CONTINUOUS
 62
    54
100
AcDbLine
 10
340.6666666663257
 20
14.24071012652971
 30
0.0
 11
339.6060606057202
 21
15.30131618713511
 31
0.0
  0
LINE
  5
256
330
1F
100
AcDbEntity
  8
営業図
  6
CONTINUOUS
 62
    54
100
AcDbLine
 10
340.6666666663257
 20
14.54069482157824
 30
0.0
 11
339.6060606057197
 21
15.6013008821842
 31
0.0
  0
LINE
  5
257
330
1F
100
AcDbEntity
  8
営業図
  6
CONTINUOUS
 62
    54
100
AcDbLine
 10
340.6666666663257
 20
14.84067951662676
 30
0.0
 11
339.6060606057206
 21
15.90128557723191
 31
0.0
  0
LINE
  5
258
330
1F
100
AcDbEntity
  8
営業図
  6
CONTINUOUS
 62
    54
100
AcDbLine
 10
340.6666666663257
 20
15.14066421167529
 30
0.0
 11
339.6060606057214
 21
16.20127027227962
 31
0.0
  0
LINE
  5
259
330
1F
100
AcDbEntity
  8
営業図
  6
CONTINUOUS
 62
    54
100
AcDbLine
 10
340.6666666663257
 20
15.44064890672379
 30
0.0
 11
339.6060606057208
 21
16.50125496732868
 31
0.0
  0
LINE
  5
25A
330
1F
100
AcDbEntity
  8
営業図
  6
CONTINUOUS
 62
    54
100
AcDbLine
 10
340.6666666663257
 20
15.74063360177231
 30
0.0
 11
339.6060606057202
 21
16.80123966237778
 31
0.0
  0
LINE
  5
25B
330
1F
100
AcDbEntity
  8
営業図
  6
CONTINUOUS
 62
    54
100
AcDbLine
 10
340.6666666663257
 20
16.0406182968208
 30
0.0
 11
339.6060606057197
 21
17.10122435742684
 31
0.0
  0
LINE
  5
25C
330
1F
100
AcDbEntity
  8
営業図
  6
CONTINUOUS
 62
    54
100
AcDbLine
 10
340.6666666663257
 20
16.34060299186941
 30
0.0
 11
339.6060606057205
 21
17.40120905247458
 31
0.0
  0
LINE
  5
25D
330
1F
100
AcDbEntity
  8
営業図
  6
CONTINUOUS
 62
    54
100
AcDbLine
 10
340.6666666663257
 20
16.64058768691789
 30
0.0
 11
339.60606060572
 21
17.70119374752362
 31
0.0
  0
LINE
  5
25E
330
1F
100
AcDbEntity
  8
営業図
  6
CONTINUOUS
 62
    54
100
AcDbLine
 10
340.6666666663257
 20
16.9405723819664
 30
0.0
 11
339.6060606057193
 21
18.00117844257272
 31
0.0
  0
LINE
  5
25F
330
1F
100
AcDbEntity
  8
営業図
  6
CONTINUOUS
 62
    54
100
AcDbLine
 10
340.6666666663257
 20
17.24055707701493
 30
0.0
 11
339.6060606057202
 21
18.30116313762042
 31
0.0
  0
LINE
  5
260
330
1F
100
AcDbEntity
  8
営業図
  6
CONTINUOUS
 62
    54
100
AcDbLine
 10
340.6666666663257
 20
17.54054177206341
 30
0.0
 11
339.6060606057196
 21
18.60114783266949
 31
0.0
  0
LINE
  5
261
330
1F
100
AcDbEntity
  8
営業図
  6
CONTINUOUS
 62
    54
100
AcDbLine
 10
340.6666666663257
 20
17.84052646711197
 30
0.0
 11
339.6060606057204
 21
18.9011325277172
 31
0.0
  0
LINE
  5
262
330
1F
100
AcDbEntity
  8
営業図
  6
CONTINUOUS
 62
    54
100
AcDbLine
 10
342.7878787875356
 20
20.40105600295966
 30
0.0
 11
342.8034894512207
 21
20.41666666664482
 31
0.0
  0
LINE
  5
263
330
1F
100
AcDbEntity
  8
営業図
  6
CONTINUOUS
 62
    54
100
AcDbLine
 10
342.7878787875351
 20
20.10107130791063
 30
0.0
 11
343.1034741462712
 21
20.41666666664675
 31
0.0
  0
LINE
  5
264
330
1F
100
AcDbEntity
  8
営業図
  6
CONTINUOUS
 62
    54
100
AcDbLine
 10
342.7878787875359
 20
19.80108661286289
 30
0.0
 11
343.4034588413189
 21
20.41666666664594
 31
0.0
  0
LINE
  5
265
330
1F
100
AcDbEntity
  8
営業図
  6
CONTINUOUS
 62
    54
100
AcDbLine
 10
342.7878787875353
 20
19.50110191781382
 30
0.0
 11
343.703443536368
 21
20.41666666664648
 31
0.0
  0
LINE
  5
266
330
1F
100
AcDbEntity
  8
営業図
  6
CONTINUOUS
 62
    54
100
AcDbLine
 10
342.7878787875348
 20
19.20111722276472
 30
0.0
 11
343.8484848481413
 21
20.26172328337126
 31
0.0
  0
LINE
  5
267
330
1F
100
AcDbEntity
  8
営業図
  6
CONTINUOUS
 62
    54
100
AcDbLine
 10
342.7878787875355
 20
18.90113252771705
 30
0.0
 11
343.8484848481394
 21
19.96173858832084
 31
0.0
  0
LINE
  5
268
330
1F
100
AcDbEntity
  8
営業図
  6
CONTINUOUS
 62
    54
100
AcDbLine
 10
342.7878787875364
 20
18.60114783266931
 30
0.0
 11
343.8484848481402
 21
19.66175389327313
 31
0.0
  0
LINE
  5
269
330
1F
100
AcDbEntity
  8
営業図
  6
CONTINUOUS
 62
    54
100
AcDbLine
 10
342.7878787875358
 20
18.30116313762024
 30
0.0
 11
343.848484848141
 21
19.36176919822542
 31
0.0
  0
LINE
  5
26A
330
1F
100
AcDbEntity
  8
営業図
  6
CONTINUOUS
 62
    54
100
AcDbLine
 10
342.7878787875339
 20
18.00117844256982
 30
0.0
 11
343.8484848481405
 21
19.06178450317636
 31
0.0
  0
LINE
  5
26B
330
1F
100
AcDbEntity
  8
営業図
  6
CONTINUOUS
 62
    54
100
AcDbLine
 10
342.7878787875347
 20
17.70119374752208
 30
0.0
 11
343.8484848481413
 21
18.76179980812865
 31
0.0
  0
LINE
  5
26C
330
1F
100
AcDbEntity
  8
営業図
  6
CONTINUOUS
 62
    54
100
AcDbLine
 10
342.7878787875355
 20
17.40120905247441
 30
0.0
 11
343.8484848481394
 21
18.46181511307823
 31
0.0
  0
LINE
  5
26D
330
1F
100
AcDbEntity
  8
営業図
  6
CONTINUOUS
 62
    54
100
AcDbLine
 10
342.787878787535
 20
17.10122435742531
 30
0.0
 11
343.8484848481402
 21
18.16183041803049
 31
0.0
  0
LINE
  5
26E
330
1F
100
AcDbEntity
  8
営業図
  6
CONTINUOUS
 62
    54
100
AcDbLine
 10
342.7878787875358
 20
16.8012396623776
 30
0.0
 11
343.848484848141
 21
17.86184572298278
 31
0.0
  0
LINE
  5
26F
330
1F
100
AcDbEntity
  8
営業図
  6
CONTINUOUS
 62
    54
100
AcDbLine
 10
342.7878787875367
 20
16.50125496732989
 30
0.0
 11
343.8484848481405
 21
17.56186102793368
 31
0.0
  0
LINE
  5
270
330
1F
100
AcDbEntity
  8
営業図
  6
CONTINUOUS
 62
    54
100
AcDbLine
 10
342.7878787875347
 20
16.20127027227947
 30
0.0
 11
343.8484848481413
 21
17.26187633288601
 31
0.0
  0
LINE
  5
271
330
1F
100
AcDbEntity
  8
営業図
  6
CONTINUOUS
 62
    54
100
AcDbLine
 10
342.7878787875355
 20
15.90128557723173
 30
0.0
 11
343.848484848142
 21
16.96189163783826
 31
0.0
  0
LINE
  5
272
330
1F
100
AcDbEntity
  8
営業図
  6
CONTINUOUS
 62
    54
100
AcDbLine
 10
342.787878787535
 20
15.60130088218266
 30
0.0
 11
343.8484848481402
 21
16.66190694278784
 31
0.0
  0
LINE
  5
273
330
1F
100
AcDbEntity
  8
営業図
  6
CONTINUOUS
 62
    54
100
AcDbLine
 10
342.7878787875358
 20
15.30131618713495
 30
0.0
 11
343.8484848481396
 21
16.36192224773875
 31
0.0
  0
LINE
  5
274
330
1F
100
AcDbEntity
  8
営業図
  6
CONTINUOUS
 62
    54
100
AcDbLine
 10
342.7878787875366
 20
15.00133149208725
 30
0.0
 11
343.8484848481405
 21
16.06193755269107
 31
0.0
  0
LINE
  5
275
330
1F
100
AcDbEntity
  8
営業図
  6
CONTINUOUS
 62
    54
100
AcDbLine
 10
342.7878787875346
 20
14.70134679703679
 30
0.0
 11
343.8484848481412
 21
15.76195285764333
 31
0.0
  0
LINE
  5
276
330
1F
100
AcDbEntity
  8
営業図
  6
CONTINUOUS
 62
    54
100
AcDbLine
 10
342.7878787875355
 20
14.40136210198908
 30
0.0
 11
343.8484848481393
 21
15.46196816259291
 31
0.0
  0
LINE
  5
277
330
1F
100
AcDbEntity
  8
営業図
  6
CONTINUOUS
 62
    54
100
AcDbLine
 10
342.7878787875349
 20
14.10137740693999
 30
0.0
 11
343.8484848481401
 21
15.16198346754517
 31
0.0
  0
LINE
  5
278
330
1F
100
AcDbEntity
  8
営業図
  6
CONTINUOUS
 62
    54
100
AcDbLine
 10
342.7878787875356
 20
13.80139271189231
 30
0.0
 11
343.8484848481409
 21
14.86199877249749
 31
0.0
  0
LINE
  5
279
330
1F
100
AcDbEntity
  8
営業図
  6
CONTINUOUS
 62
    54
100
AcDbLine
 10
342.7878787875366
 20
13.50140801684457
 30
0.0
 11
343.8484848481403
 21
14.5620140774484
 31
0.0
  0
LINE
  5
27A
330
1F
100
AcDbEntity
  8
営業図
  6
CONTINUOUS
 62
    54
100
AcDbLine
 10
342.7878787875346
 20
13.20142332179415
 30
0.0
 11
343.8484848481412
 21
14.26202938240069
 31
0.0
  0
LINE
  5
27B
330
1F
100
AcDbEntity
  8
営業図
  6
CONTINUOUS
 62
    54
100
AcDbLine
 10
342.7878787875355
 20
12.90143862674641
 30
0.0
 11
343.848484848142
 21
13.96204468735298
 31
0.0
  0
LINE
  5
27C
330
1F
100
AcDbEntity
  8
営業図
  6
CONTINUOUS
 62
    54
100
AcDbLine
 10
342.7878787875349
 20
12.60145393169738
 30
0.0
 11
343.8484848481401
 21
13.66205999230256
 31
0.0
  0
LINE
  5
27D
330
1F
100
AcDbEntity
  8
営業図
  6
CONTINUOUS
 62
    54
100
AcDbLine
 10
342.7878787875356
 20
12.30146923664964
 30
0.0
 11
343.8484848481395
 21
13.36207529725346
 31
0.0
  0
LINE
  5
27E
330
1F
100
AcDbEntity
  8
営業図
  6
CONTINUOUS
 62
    54
100
AcDbLine
 10
342.7878787875365
 20
12.00148454160193
 30
0.0
 11
343.8484848481403
 21
13.06209060220576
 31
0.0
  0
LINE
  5
27F
330
1F
100
AcDbEntity
  8
営業図
  6
CONTINUOUS
 62
    54
100
AcDbLine
 10
342.7878787875346
 20
11.70149984655148
 30
0.0
 11
343.8484848481411
 21
12.76210590715802
 31
0.0
  0
LINE
  5
280
330
1F
100
AcDbEntity
  8
営業図
  6
CONTINUOUS
 62
    54
100
AcDbLine
 10
342.7878787875354
 20
11.4015151515038
 30
0.0
 11
343.8484848481406
 21
12.46212121210898
 31
0.0
  0
LINE
  5
281
330
1F
100
AcDbEntity
  8
営業図
  6
CONTINUOUS
 62
    54
100
AcDbLine
 10
343.0878634825831
 20
11.40151515150298
 30
0.0
 11
343.84848484814
 21
12.16213651705991
 31
0.0
  0
LINE
  5
282
330
1F
100
AcDbEntity
  8
営業図
  6
CONTINUOUS
 62
    54
100
AcDbLine
 10
343.3878481776322
 20
11.40151515150353
 30
0.0
 11
343.8484848481409
 21
11.86215182201217
 31
0.0
  0
LINE
  5
283
330
1F
100
AcDbEntity
  8
営業図
  6
CONTINUOUS
 62
    54
100
AcDbLine
 10
343.6878328726813
 20
11.4015151515041
 30
0.0
 11
343.8484848481403
 21
11.56216712696311
 31
0.0
  0
LINE
  5
284
330
1F
100
AcDbEntity
  8
営業図
  6
CONTINUOUS
 62
    54
100
AcDbLine
 10
343.087863482585
 20
11.40151515150314
 30
0.0
 11
342.7878787875367
 21
11.70149984655139
 31
0.0
  0
LINE
  5
285
330
1F
100
AcDbEntity
  8
営業図
  6
CONTINUOUS
 62
    54
100
AcDbLine
 10
343.3878481776327
 20
11.40151515150395
 30
0.0
 11
342.7878787875376
 21
12.00148454159913
 31
0.0
  0
LINE
  5
286
330
1F
100
AcDbEntity
  8
営業図
  6
CONTINUOUS
 62
    54
100
AcDbLine
 10
343.6878328726817
 20
11.40151515150338
 30
0.0
 11
342.7878787875356
 21
12.30146923664955
 31
0.0
  0
LINE
  5
287
330
1F
100
AcDbEntity
  8
営業図
  6
CONTINUOUS
 62
    54
100
AcDbLine
 10
343.8484848481417
 20
11.54084787109208
 30
0.0
 11
342.7878787875364
 21
12.60145393169726
 31
0.0
  0
LINE
  5
288
330
1F
100
AcDbEntity
  8
営業図
  6
CONTINUOUS
 62
    54
100
AcDbLine
 10
343.848484848141
 20
11.84083256614114
 30
0.0
 11
342.7878787875372
 21
12.90143862674497
 31
0.0
  0
LINE
  5
289
330
1F
100
AcDbEntity
  8
営業図
  6
CONTINUOUS
 62
    54
100
AcDbLine
 10
343.8484848481419
 20
12.14081726118888
 30
0.0
 11
342.7878787875367
 21
13.20142332179406
 31
0.0
  0
LINE
  5
28A
330
1F
100
AcDbEntity
  8
営業図
  6
CONTINUOUS
 62
    54
100
AcDbLine
 10
343.8484848481413
 20
12.44080195623794
 30
0.0
 11
342.7878787875362
 21
13.50140801684313
 31
0.0
  0
LINE
  5
28B
330
1F
100
AcDbEntity
  8
営業図
  6
CONTINUOUS
 62
    54
100
AcDbLine
 10
343.8484848481422
 20
12.74078665128565
 30
0.0
 11
342.787878787537
 21
13.80139271189083
 31
0.0
  0
LINE
  5
28C
330
1F
100
AcDbEntity
  8
営業図
  6
CONTINUOUS
 62
    54
100
AcDbLine
 10
343.8484848481415
 20
13.04077134633472
 30
0.0
 11
342.7878787875364
 21
14.1013774069399
 31
0.0
  0
LINE
  5
28D
330
1F
100
AcDbEntity
  8
営業図
  6
CONTINUOUS
 62
    54
100
AcDbLine
 10
343.8484848481423
 20
13.34075604138246
 30
0.0
 11
342.7878787875371
 21
14.40136210198764
 31
0.0
  0
LINE
  5
28E
330
1F
100
AcDbEntity
  8
営業図
  6
CONTINUOUS
 62
    54
100
AcDbLine
 10
343.8484848481419
 20
13.64074073643152
 30
0.0
 11
342.7878787875352
 21
14.70134679703806
 31
0.0
  0
LINE
  5
28F
330
1F
100
AcDbEntity
  8
営業図
  6
CONTINUOUS
 62
    54
100
AcDbLine
 10
343.8484848481413
 20
13.94072543148059
 30
0.0
 11
342.787878787536
 21
15.00133149208574
 31
0.0
  0
LINE
  5
290
330
1F
100
AcDbEntity
  8
営業図
  6
CONTINUOUS
 62
    54
100
AcDbLine
 10
343.8484848481407
 20
14.24071012652965
 30
0.0
 11
342.7878787875369
 21
15.30131618713348
 31
0.0
  0
LINE
  5
291
330
1F
100
AcDbEntity
  8
営業図
  6
CONTINUOUS
 62
    54
100
AcDbLine
 10
343.8484848481415
 20
14.54069482157736
 30
0.0
 11
342.7878787875363
 21
15.60130088218254
 31
0.0
  0
LINE
  5
292
330
1F
100
AcDbEntity
  8
営業図
  6
CONTINUOUS
 62
    54
100
AcDbLine
 10
343.8484848481423
 20
14.8406795166251
 30
0.0
 11
342.7878787875371
 21
15.90128557723028
 31
0.0
  0
LINE
  5
293
330
1F
100
AcDbEntity
  8
営業図
  6
CONTINUOUS
 62
    54
100
AcDbLine
 10
343.8484848481418
 20
15.14066421167414
 30
0.0
 11
342.7878787875366
 21
16.20127027227932
 31
0.0
  0
LINE
  5
294
330
1F
100
AcDbEntity
  8
営業図
  6
CONTINUOUS
 62
    54
100
AcDbLine
 10
343.8484848481412
 20
15.44064890672323
 30
0.0
 11
342.787878787536
 21
16.50125496732841
 31
0.0
  0
LINE
  5
295
330
1F
100
AcDbEntity
  8
営業図
  6
CONTINUOUS
 62
    54
100
AcDbLine
 10
343.848484848142
 20
15.74063360177094
 30
0.0
 11
342.7878787875368
 21
16.80123966237612
 31
0.0
  0
LINE
  5
296
330
1F
100
AcDbEntity
  8
営業図
  6
CONTINUOUS
 62
    54
100
AcDbLine
 10
343.8484848481415
 20
16.04061829682004
 30
0.0
 11
342.7878787875363
 21
17.10122435742522
 31
0.0
  0
LINE
  5
297
330
1F
100
AcDbEntity
  8
営業図
  6
CONTINUOUS
 62
    54
100
AcDbLine
 10
343.8484848481409
 20
16.3406029918691
 30
0.0
 11
342.7878787875358
 21
17.40120905247428
 31
0.0
  0
LINE
  5
298
330
1F
100
AcDbEntity
  8
営業図
  6
CONTINUOUS
 62
    54
100
AcDbLine
 10
343.8484848481418
 20
16.64058768691681
 30
0.0
 11
342.7878787875366
 21
17.70119374752199
 31
0.0
  0
LINE
  5
299
330
1F
100
AcDbEntity
  8
営業図
  6
CONTINUOUS
 62
    54
100
AcDbLine
 10
343.8484848481412
 20
16.94057238196588
 30
0.0
 11
342.787878787536
 21
18.00117844257106
 31
0.0
  0
LINE
  5
29A
330
1F
100
AcDbEntity
  8
営業図
  6
CONTINUOUS
 62
    54
100
AcDbLine
 10
343.848484848142
 20
17.24055707701361
 30
0.0
 11
342.7878787875368
 21
18.30116313761879
 31
0.0
  0
LINE
  5
29B
330
1F
100
AcDbEntity
  8
営業図
  6
CONTINUOUS
 62
    54
100
AcDbLine
 10
343.8484848481414
 20
17.54054177206268
 30
0.0
 11
342.7878787875363
 21
18.60114783266786
 31
0.0
  0
LINE
  5
29C
330
1F
100
AcDbEntity
  8
営業図
  6
CONTINUOUS
 62
    54
100
AcDbLine
 10
343.8484848481422
 20
17.84052646711039
 30
0.0
 11
342.7878787875371
 21
18.90113252771557
 31
0.0
  0
LINE
  5
29D
330
1F
100
AcDbEntity
  8
営業図
  6
CONTINUOUS
 62
    54
100
AcDbLine
 10
343.8484848481417
 20
18.14051116215946
 30
0.0
 11
342.7878787875366
 21
19.20111722276463
 31
0.0
  0
LINE
  5
29E
330
1F
100
AcDbEntity
  8
営業図
  6
CONTINUOUS
 62
    54
100
AcDbLine
 10
343.8484848481412
 20
18.44049585720855
 30
0.0
 11
342.7878787875359
 21
19.50110191781373
 31
0.0
  0
LINE
  5
29F
330
1F
100
AcDbEntity
  8
営業図
  6
CONTINUOUS
 62
    54
100
AcDbLine
 10
343.8484848481419
 20
18.74048055225626
 30
0.0
 11
342.7878787875368
 21
19.80108661286141
 31
0.0
  0
LINE
  5
2A0
330
1F
100
AcDbEntity
  8
営業図
  6
CONTINUOUS
 62
    54
100
AcDbLine
 10
343.8484848481414
 20
19.04046524730532
 30
0.0
 11
342.7878787875362
 21
20.1010713079105
 31
0.0
  0
LINE
  5
2A1
330
1F
100
AcDbEntity
  8
営業図
  6
CONTINUOUS
 62
    54
100
AcDbLine
 10
343.8484848481409
 20
19.34044994235439
 30
0.0
 11
342.7878787875356
 21
20.40105600295957
 31
0.0
  0
LINE
  5
2A2
330
1F
100
AcDbEntity
  8
営業図
  6
CONTINUOUS
 62
    54
100
AcDbLine
 10
343.8484848481417
 20
19.64043463740213
 30
0.0
 11
343.0722528188969
 21
20.4166666666469
 31
0.0
  0
LINE
  5
2A3
330
1F
100
AcDbEntity
  8
営業図
  6
CONTINUOUS
 62
    54
100
AcDbLine
 10
343.8484848481411
 20
19.94041933245119
 30
0.0
 11
343.3722375139446
 21
20.41666666664771
 31
0.0
  0
LINE
  5
2A4
330
1F
100
AcDbEntity
  8
営業図
  6
CONTINUOUS
 62
    54
100
AcDbLine
 10
343.8484848481419
 20
20.24040402749887
 30
0.0
 11
343.6722222089936
 21
20.41666666664715
 31
0.0
  0
LINE
  5
2A5
330
1F
100
AcDbEntity
  8
営業図
  6
CONTINUOUS
 62
    54
100
AcDbLine
 10
344.3787878784435
 20
20.11668197159783
 30
0.0
 11
344.6787725734918
 21
20.41666666664612
 31
0.0
  0
LINE
  5
2A6
330
1F
100
AcDbEntity
  8
営業図
  6
CONTINUOUS
 62
    54
100
AcDbLine
 10
344.3787878784415
 20
19.81669727654742
 30
0.0
 11
344.9787572685408
 21
20.41666666664669
 31
0.0
  0
LINE
  5
2A7
330
1F
100
AcDbEntity
  8
営業図
  6
CONTINUOUS
 62
    54
100
AcDbLine
 10
344.3787878784423
 20
19.51671258149971
 30
0.0
 11
345.2787419635886
 21
20.41666666664585
 31
0.0
  0
LINE
  5
2A8
330
1F
100
AcDbEntity
  8
営業図
  6
CONTINUOUS
 62
    54
100
AcDbLine
 10
344.3787878784432
 20
19.216727886452
 30
0.0
 11
345.4393939390483
 21
20.27733394705718
 31
0.0
  0
LINE
  5
2A9
330
1F
100
AcDbEntity
  8
営業図
  6
CONTINUOUS
 62
    54
100
AcDbLine
 10
344.378787878444
 20
18.91674319140429
 30
0.0
 11
345.4393939390492
 21
19.97734925200944
 31
0.0
  0
LINE
  5
2AA
330
1F
100
AcDbEntity
  8
営業図
  6
CONTINUOUS
 62
    54
100
AcDbLine
 10
344.3787878784435
 20
18.61675849635522
 30
0.0
 11
345.43939393905
 21
19.67736455696176
 31
0.0
  0
LINE
  5
2AB
330
1F
100
AcDbEntity
  8
営業図
  6
CONTINUOUS
 62
    54
100
AcDbLine
 10
345.9696969693525
 20
20.20766758726435
 30
0.0
 11
346.1786960487357
 21
20.41666666664754
 31
0.0
  0
LINE
  5
2AC
330
1F
100
AcDbEntity
  8
営業図
  6
CONTINUOUS
 62
    54
100
AcDbLine
 10
344.3787878784429
 20
18.31677380130613
 30
0.0
 11
345.4393939390494
 21
19.37737986191267
 31
0.0
  0
LINE
  5
2AD
330
1F
100
AcDbEntity
  8
営業図
  6
CONTINUOUS
 62
    54
100
AcDbLine
 10
345.9696969693533
 20
19.90768289221661
 30
0.0
 11
346.4786807437835
 21
20.41666666664672
 31
0.0
  0
LINE
  5
2AE
330
1F
100
AcDbEntity
  8
営業図
  6
CONTINUOUS
 62
    54
100
AcDbLine
 10
344.3787878784423
 20
18.01678910625706
 30
0.0
 11
345.4393939390502
 21
19.07739516686496
 31
0.0
  0
LINE
  5
2AF
330
1F
100
AcDbEntity
  8
営業図
  6
CONTINUOUS
 62
    54
100
AcDbLine
 10
345.9696969693514
 20
19.60769819716619
 30
0.0
 11
346.7786654388311
 21
20.41666666664591
 31
0.0
  0
LINE
  5
2B0
330
1F
100
AcDbEntity
  8
営業図
  6
CONTINUOUS
 62
    54
100
AcDbLine
 10
344.3787878784431
 20
17.71680441120935
 30
0.0
 11
345.4393939390483
 21
18.77741047181453
 31
0.0
  0
LINE
  5
2B1
330
1F
100
AcDbEntity
  8
営業図
  6
CONTINUOUS
 62
    54
100
AcDbLine
 10
345.9696969693522
 20
19.30771350211851
 30
0.0
 11
347.030303029956
 21
20.36831956272231
 31
0.0
  0
LINE
  5
2B2
330
1F
100
AcDbEntity
  8
営業図
  6
CONTINUOUS
 62
    54
100
AcDbLine
 10
344.3787878784439
 20
17.41681971616165
 30
0.0
 11
345.4393939390492
 21
18.47742577676683
 31
0.0
  0
LINE
  5
2B3
330
1F
100
AcDbEntity
  8
営業図
  6
CONTINUOUS
 62
    54
100
AcDbLine
 10
345.9696969693517
 20
19.00772880706941
 30
0.0
 11
347.0303030299555
 21
20.06833486767321
 31
0.0
  0
LINE
  5
2B4
330
1F
100
AcDbEntity
  8
営業図
  6
CONTINUOUS
 62
    54
100
AcDbLine
 10
344.3787878784435
 20
17.11683502111258
 30
0.0
 11
345.4393939390486
 21
18.17744108171776
 31
0.0
  0
LINE
  5
2B5
330
1F
100
AcDbEntity
  8
営業図
  6
CONTINUOUS
 62
    54
100
AcDbLine
 10
345.9696969693525
 20
18.70774411202171
 30
0.0
 11
347.0303030299563
 21
19.76835017262553
 31
0.0
  0
LINE
  5
2B6
330
1F
100
AcDbEntity
  8
営業図
  6
CONTINUOUS
 62
    54
100
AcDbLine
 10
347.5606060602589
 20
20.29865320292812
 30
0.0
 11
347.6786195239771
 21
20.41666666664624
 31
0.0
  0
LINE
  5
2B7
330
1F
100
AcDbEntity
  8
営業図
  6
CONTINUOUS
 62
    54
100
AcDbLine
 10
344.3787878784442
 20
16.81685032606484
 30
0.0
 11
345.4393939390494
 21
17.87745638667002
 31
0.0
  0
LINE
  5
2B8
330
1F
100
AcDbEntity
  8
営業図
  6
CONTINUOUS
 62
    54
100
AcDbLine
 10
345.9696969693506
 20
18.40775941697125
 30
0.0
 11
347.0303030299558
 21
19.46836547757643
 31
0.0
  0
LINE
  5
2B9
330
1F
100
AcDbEntity
  8
営業図
  6
CONTINUOUS
 62
    54
100
AcDbLine
 10
347.560606060257
 20
19.99866850787767
 30
0.0
 11
347.9786042190248
 21
20.4166666666454
 31
0.0
  0
LINE
  5
2BA
330
1F
100
AcDbEntity
  8
営業図
  6
CONTINUOUS
 62
    54
100
AcDbLine
 10
344.3787878784423
 20
16.51686563101442
 30
0.0
 11
345.4393939390502
 21
17.57747169162234
 31
0.0
  0
LINE
  5
2BB
330
1F
100
AcDbEntity
  8
営業図
  6
CONTINUOUS
 62
    54
100
AcDbLine
 10
345.9696969693514
 20
18.10777472192355
 30
0.0
 11
347.0303030299566
 21
19.16838078252873
 31
0.0
  0
LINE
  5
2BC
330
1F
100
AcDbEntity
  8
営業図
  6
CONTINUOUS
 62
    54
100
AcDbLine
 10
347.5606060602591
 20
19.69868381283132
 30
0.0
 11
348.2785889140739
 21
20.41666666664597
 31
0.0
  0
LINE
  5
2BD
330
1F
100
AcDbEntity
  8
営業図
  6
CONTINUOUS
 62
    54
100
AcDbLine
 10
344.3787878784431
 20
16.21688093596671
 30
0.0
 11
345.4393939390509
 21
17.2774869965746
 31
0.0
  0
LINE
  5
2BE
330
1F
100
AcDbEntity
  8
営業図
  6
CONTINUOUS
 62
    54
100
AcDbLine
 10
345.9696969693522
 20
17.80779002687584
 30
0.0
 11
347.030303029956
 21
18.86839608747963
 31
0.0
  0
LINE
  5
2BF
330
1F
100
AcDbEntity
  8
営業図
  6
CONTINUOUS
 62
    54
100
AcDbLine
 10
347.5606060602586
 20
19.39869911778222
 30
0.0
 11
348.5785736091215
 21
20.41666666664515
 31
0.0
  0
LINE
  5
2C0
330
1F
100
AcDbEntity
  8
営業図
  6
CONTINUOUS
 62
    54
100
AcDbLine
 10
344.3787878784426
 20
15.91689624091764
 30
0.0
 11
345.4393939390491
 21
16.97750230152418
 31
0.0
  0
LINE
  5
2C1
330
1F
100
AcDbEntity
  8
営業図
  6
CONTINUOUS
 62
    54
100
AcDbLine
 10
345.9696969693516
 20
17.50780533182677
 30
0.0
 11
347.0303030299555
 21
18.5684113924306
 31
0.0
  0
LINE
  5
2C2
330
1F
100
AcDbEntity
  8
営業図
  6
CONTINUOUS
 62
    54
100
AcDbLine
 10
347.5606060602595
 20
19.09871442273455
 30
0.0
 11
348.6212121208632
 21
20.15932048333834
 31
0.0
  0
LINE
  5
2C3
330
1F
100
AcDbEntity
  8
営業図
  6
CONTINUOUS
 62
    54
100
AcDbLine
 10
344.3787878784433
 20
15.61691154586991
 30
0.0
 11
345.4393939390499
 21
16.67751760647644
 31
0.0
  0
LINE
  5
2C4
330
1F
100
AcDbEntity
  8
営業図
  6
CONTINUOUS
 62
    54
100
AcDbLine
 10
345.9696969693525
 20
17.20782063677903
 30
0.0
 11
347.0303030299563
 21
18.26842669738286
 31
0.0
  0
LINE
  5
2C5
330
1F
100
AcDbEntity
  8
営業図
  6
CONTINUOUS
 62
    54
100
AcDbLine
 10
347.5606060602589
 20
18.79872972768545
 30
0.0
 11
348.621212120864
 21
19.85933578829063
 31
0.0
  0
LINE
  5
2C6
330
1F
100
AcDbEntity
  8
営業図
  6
CONTINUOUS
 62
    54
100
AcDbLine
 10
344.3787878784442
 20
15.3169268508222
 30
0.0
 11
345.4393939390493
 21
16.37753291142738
 31
0.0
  0
LINE
  5
2C7
330
1F
100
AcDbEntity
  8
営業図
  6
CONTINUOUS
 62
    54
100
AcDbLine
 10
345.9696969693519
 20
16.90783594172997
 30
0.0
 11
347.0303030299557
 21
17.96844200233379
 31
0.0
  0
LINE
  5
2C8
330
1F
100
AcDbEntity
  8
営業図
  6
CONTINUOUS
 62
    54
100
AcDbLine
 10
347.5606060602597
 20
18.49874503263774
 30
0.0
 11
348.6212121208636
 21
19.55935109324156
 31
0.0
  0
LINE
  5
2C9
330
1F
100
AcDbEntity
  8
営業図
  6
CONTINUOUS
 62
    54
100
AcDbLine
 10
344.3787878784422
 20
15.01694215577174
 30
0.0
 11
345.4393939390501
 21
16.07754821637967
 31
0.0
  0
LINE
  5
2CA
330
1F
100
AcDbEntity
  8
営業図
  6
CONTINUOUS
 62
    54
100
AcDbLine
 10
345.9696969693514
 20
16.6078512466809
 30
0.0
 11
347.0303030299565
 21
17.66845730728605
 31
0.0
  0
LINE
  5
2CB
330
1F
100
AcDbEntity
  8
営業図
  6
CONTINUOUS
 62
    54
100
AcDbLine
 10
347.5606060602578
 20
18.19876033758729
 30
0.0
 11
348.6212121208642
 21
19.25936639819383
 31
0.0
  0
LINE
  5
2CC
330
1F
100
AcDbEntity
  8
営業図
  6
CONTINUOUS
 62
    54
100
AcDbLine
 10
344.3787878784431
 20
14.71695746072407
 30
0.0
 11
345.4393939390496
 21
15.7775635213306
 31
0.0
  0
LINE
  5
2CD
330
1F
100
AcDbEntity
  8
営業図
  6
CONTINUOUS
 62
    54
100
AcDbLine
 10
345.9696969693508
 20
16.30786655163184
 30
0.0
 11
347.0303030299546
 21
17.36847261223563
 31
0.0
  0
LINE
  5
2CE
330
1F
100
AcDbEntity
  8
営業図
  6
CONTINUOUS
 62
    54
100
AcDbLine
 10
347.5606060602586
 20
17.89877564253961
 30
0.0
 11
348.6212121208624
 21
18.9593817031434
 31
0.0
  0
LINE
  5
2CF
330
1F
100
AcDbEntity
  8
営業図
  6
CONTINUOUS
 62
    54
100
AcDbLine
 10
344.3787878784425
 20
14.41697276567497
 30
0.0
 11
345.439393939049
 21
15.47757882628151
 31
0.0
  0
LINE
  5
2D0
330
1F
100
AcDbEntity
  8
営業図
  6
CONTINUOUS
 62
    54
100
AcDbLine
 10
345.9696969693516
 20
16.0078818565841
 30
0.0
 11
347.0303030299555
 21
17.06848791718792
 31
0.0
  0
LINE
  5
2D1
330
1F
100
AcDbEntity
  8
営業図
  6
CONTINUOUS
 62
    54
100
AcDbLine
 10
347.5606060602581
 20
17.59879094749051
 30
0.0
 11
348.6212121208632
 21
18.6593970080957
 31
0.0
  0
LINE
  5
2D2
330
1F
100
AcDbEntity
  8
営業図
  6
CONTINUOUS
 62
    54
100
AcDbLine
 10
344.3787878784433
 20
14.11698807062726
 30
0.0
 11
345.4393939390498
 21
15.1775941312338
 31
0.0
  0
LINE
  5
2D3
330
1F
100
AcDbEntity
  8
営業図
  6
CONTINUOUS
 62
    54
100
AcDbLine
 10
345.9696969693524
 20
15.70789716153639
 30
0.0
 11
347.0303030299548
 21
16.76850322213886
 31
0.0
  0
LINE
  5
2D4
330
1F
100
AcDbEntity
  8
営業図
  6
CONTINUOUS
 62
    54
100
AcDbLine
 10
347.5606060602588
 20
17.2988062524428
 30
0.0
 11
348.6212121208627
 21
18.35941231304663
 31
0.0
  0
LINE
  5
2D5
330
1F
100
AcDbEntity
  8
営業図
  6
CONTINUOUS
 62
    54
100
AcDbLine
 10
344.3787878784414
 20
13.81700337557681
 30
0.0
 11
345.4393939390493
 21
14.87760943618473
 31
0.0
  0
LINE
  5
2D6
330
1F
100
AcDbEntity
  8
営業図
  6
CONTINUOUS
 62
    54
100
AcDbLine
 10
345.9696969693532
 20
15.40791246648868
 30
0.0
 11
347.0303030299571
 21
16.46851852709251
 31
0.0
  0
LINE
  5
2D7
330
1F
100
AcDbEntity
  8
営業図
  6
CONTINUOUS
 62
    54
100
AcDbLine
 10
347.5606060602596
 20
16.9988215573951
 30
0.0
 11
348.6212121208634
 21
18.05942761799889
 31
0.0
  0
LINE
  5
2D8
330
1F
100
AcDbEntity
  8
営業図
  6
CONTINUOUS
 62
    54
100
AcDbLine
 10
344.3787878784422
 20
13.51701868052913
 30
0.0
 11
345.4393939390501
 21
14.57762474113703
 31
0.0
  0
LINE
  5
2D9
330
1F
100
AcDbEntity
  8
営業図
  6
CONTINUOUS
 62
    54
100
AcDbLine
 10
345.9696969693526
 20
15.10792777143962
 30
0.0
 11
347.0303030299565
 21
16.16853383204344
 31
0.0
  0
LINE
  5
2DA
330
1F
100
AcDbEntity
  8
営業図
  6
CONTINUOUS
 62
    54
100
AcDbLine
 10
347.5606060602577
 20
16.69883686234464
 30
0.0
 11
348.6212121208642
 21
17.75944292295121
 31
0.0
  0
LINE
  5
2DB
330
1F
100
AcDbEntity
  8
営業図
  6
CONTINUOUS
 62
    54
100
AcDbLine
 10
344.378787878443
 20
13.21703398548139
 30
0.0
 11
345.4393939390495
 21
14.27764004608793
 31
0.0
  0
LINE
  5
2DC
330
1F
100
AcDbEntity
  8
営業図
  6
CONTINUOUS
 62
    54
100
AcDbLine
 10
345.9696969693521
 20
14.80794307639052
 30
0.0
 11
347.0303030299573
 21
15.8685491369957
 31
0.0
  0
LINE
  5
2DD
330
1F
100
AcDbEntity
  8
営業図
  6
CONTINUOUS
 62
    54
100
AcDbLine
 10
347.5606060602586
 20
16.39885216729693
 30
0.0
 11
348.6212121208624
 21
17.45945822790073
 31
0.0
  0
LINE
  5
2DE
330
1F
100
AcDbEntity
  8
営業図
  6
CONTINUOUS
 62
    54
100
AcDbLine
 10
344.3787878784425
 20
12.91704929043233
 30
0.0
 11
345.4393939390503
 21
13.97765535104025
 31
0.0
  0
LINE
  5
2DF
330
1F
100
AcDbEntity
  8
営業図
  6
CONTINUOUS
 62
    54
100
AcDbLine
 10
345.9696969693515
 20
14.50795838134145
 30
0.0
 11
347.0303030299554
 21
15.56856444194528
 31
0.0
  0
LINE
  5
2E0
330
1F
100
AcDbEntity
  8
営業図
  6
CONTINUOUS
 62
    54
100
AcDbLine
 10
347.5606060602579
 20
16.09886747224787
 30
0.0
 11
348.6212121208632
 21
17.15947353285305
 31
0.0
  0
LINE
  5
2E1
330
1F
100
AcDbEntity
  8
営業図
  6
CONTINUOUS
 62
    54
100
AcDbLine
 10
344.3787878784432
 20
12.61706459538462
 30
0.0
 11
345.4393939390484
 21
13.67767065598977
 31
0.0
  0
LINE
  5
2E2
330
1F
100
AcDbEntity
  8
営業図
  6
CONTINUOUS
 62
    54
100
AcDbLine
 10
345.9696969693524
 20
14.20797368629375
 30
0.0
 11
347.0303030299561
 21
15.26857974689754
 31
0.0
  0
LINE
  5
2E3
330
1F
100
AcDbEntity
  8
営業図
  6
CONTINUOUS
 62
    54
100
AcDbLine
 10
347.5606060602588
 20
15.79888277720013
 30
0.0
 11
348.6212121208625
 21
16.85948883780395
 31
0.0
  0
LINE
  5
2E4
330
1F
100
AcDbEntity
  8
営業図
  6
CONTINUOUS
 62
    54
100
AcDbLine
 10
344.3875762916279
 20
12.32586831352069
 30
0.0
 11
345.4393939390493
 21
13.37768596094209
 31
0.0
  0
LINE
  5
2E5
330
1F
100
AcDbEntity
  8
営業図
  6
CONTINUOUS
 62
    54
100
AcDbLine
 10
345.9696969693518
 20
13.90798899124468
 30
0.0
 11
347.0303030299556
 21
14.96859505184847
 31
0.0
  0
LINE
  5
2E6
330
1F
100
AcDbEntity
  8
営業図
  6
CONTINUOUS
 62
    54
100
AcDbLine
 10
347.5606060602596
 20
15.49889808215245
 30
0.0
 11
348.6212121208634
 21
16.55950414275625
 31
0.0
  0
LINE
  5
2E7
330
1F
100
AcDbEntity
  8
営業図
  6
CONTINUOUS
 62
    54
100
AcDbLine
 10
344.4477121756639
 20
12.08601950250818
 30
0.0
 11
345.4393939390487
 21
13.077701265893
 31
0.0
  0
LINE
  5
2E8
330
1F
100
AcDbEntity
  8
営業図
  6
CONTINUOUS
 62
    54
100
AcDbLine
 10
345.9696969693526
 20
13.60800429619694
 30
0.0
 11
347.0303030299565
 21
14.66861035680077
 31
0.0
  0
LINE
  5
2E9
330
1F
100
AcDbEntity
  8
営業図
  6
CONTINUOUS
 62
    54
100
AcDbLine
 10
347.5606060602577
 20
15.198913387102
 30
0.0
 11
348.6212121208615
 21
16.2595194477058
 31
0.0
  0
LINE
  5
2EA
330
1F
100
AcDbEntity
  8
営業図
  6
CONTINUOUS
 62
    54
100
AcDbLine
 10
344.5484233603704
 20
11.88674599216625
 30
0.0
 11
345.4393939390495
 21
12.77771657084529
 31
0.0
  0
LINE
  5
2EB
330
1F
100
AcDbEntity
  8
営業図
  6
CONTINUOUS
 62
    54
100
AcDbLine
 10
345.9696969693507
 20
13.30801960114652
 30
0.0
 11
347.0303030299546
 21
14.36862566175034
 31
0.0
  0
LINE
  5
2EC
330
1F
100
AcDbEntity
  8
営業図
  6
CONTINUOUS
 62
    54
100
AcDbLine
 10
347.5606060602585
 20
14.89892869205429
 30
0.0
 11
348.6212121208624
 21
15.95953475265812
 31
0.0
  0
LINE
  5
2ED
330
1F
100
AcDbEntity
  8
営業図
  6
CONTINUOUS
 62
    54
100
AcDbLine
 10
344.6816674882257
 20
11.72000542497297
 30
0.0
 11
345.509412228575
 21
12.54775016532228
 31
0.0
  0
LINE
  5
2EE
330
1F
100
AcDbEntity
  8
営業図
  6
CONTINUOUS
 62
    54
100
AcDbLine
 10
345.9696969693515
 20
13.00803490609881
 30
0.0
 11
347.0303030299553
 21
14.06864096670264
 31
0.0
  0
LINE
  5
2EF
330
1F
100
AcDbEntity
  8
営業図
  6
CONTINUOUS
 62
    54
100
AcDbLine
 10
347.5606060602593
 20
14.59894399700658
 30
0.0
 11
348.6212121208631
 21
15.65955005761041
 31
0.0
  0
LINE
  5
2F0
330
1F
100
AcDbEntity
  8
営業図
  6
CONTINUOUS
 62
    54
100
AcDbLine
 10
344.8452213547589
 20
11.58357459645765
 30
0.0
 11
345.7245215228872
 21
12.46287476458595
 31
0.0
  0
LINE
  5
2F1
330
1F
100
AcDbEntity
  8
営業図
  6
CONTINUOUS
 62
    54
100
AcDbLine
 10
345.9689434168753
 20
12.70729665857407
 30
0.0
 11
347.0303030299561
 21
13.76865627165493
 31
0.0
  0
LINE
  5
2F2
330
1F
100
AcDbEntity
  8
営業図
  6
CONTINUOUS
 62
    54
100
AcDbLine
 10
347.5606060602588
 20
14.29895930195752
 30
0.0
 11
348.6212121208625
 21
15.35956536256131
 31
0.0
  0
LINE
  5
2F3
330
1F
100
AcDbEntity
  8
営業図
  6
CONTINUOUS
 62
    54
100
AcDbLine
 10
345.0408679905506
 20
11.47923653720083
 30
0.0
 11
347.0303030299556
 21
13.46867157660586
 31
0.0
  0
LINE
  5
2F4
330
1F
100
AcDbEntity
  8
営業図
  6
CONTINUOUS
 62
    54
100
AcDbLine
 10
347.5606060602596
 20
13.99897460690981
 30
0.0
 11
348.6212121208634
 21
15.05958066751363
 31
0.0
  0
LINE
  5
2F5
330
1F
100
AcDbEntity
  8
営業図
  6
CONTINUOUS
 62
    54
100
AcDbLine
 10
345.2758208304613
 20
11.41420468206306
 30
0.0
 11
347.0303030299564
 21
13.16868688155812
 31
0.0
  0
LINE
  5
2F6
330
1F
100
AcDbEntity
  8
営業図
  6
CONTINUOUS
 62
    54
100
AcDbLine
 10
347.5606060602576
 20
13.69898991185936
 30
0.0
 11
348.6212121208628
 21
14.75959597246454
 31
0.0
  0
LINE
  5
2F7
330
1F
100
AcDbEntity
  8
営業図
  6
CONTINUOUS
 62
    54
100
AcDbLine
 10
345.5631159949509
 20
11.40151515150404
 30
0.0
 11
347.0303030299545
 21
12.8687021865077
 31
0.0
  0
LINE
  5
2F8
330
1F
100
AcDbEntity
  8
営業図
  6
CONTINUOUS
 62
    54
100
AcDbLine
 10
347.5606060602585
 20
13.39900521681165
 30
0.0
 11
348.6212121208623
 21
14.45961127741547
 31
0.0
  0
LINE
  5
2F9
330
1F
100
AcDbEntity
  8
営業図
  6
CONTINUOUS
 62
    54
100
AcDbLine
 10
345.8772576539735
 20
11.41567211547821
 30
0.0
 11
347.0624010959107
 21
12.60081555741541
 31
0.0
  0
LINE
  5
2FA
330
1F
100
AcDbEntity
  8
営業図
  6
CONTINUOUS
 62
    54
100
AcDbLine
 10
347.5606060602579
 20
13.09902052176255
 30
0.0
 11
348.6212121208631
 21
14.15962658236773
 31
0.0
  0
LINE
  5
2FB
330
1F
100
AcDbEntity
  8
営業図
  6
CONTINUOUS
 62
    54
100
AcDbLine
 10
346.5104701170765
 20
11.74889988353263
 30
0.0
 11
347.2315159631451
 21
12.4699457296013
 31
0.0
  0
LINE
  5
2FC
330
1F
100
AcDbEntity
  8
営業図
  6
CONTINUOUS
 62
    54
100
AcDbLine
 10
347.5606060602587
 20
12.79903582671487
 30
0.0
 11
348.6212121208639
 21
13.85964188732005
 31
0.0
  0
LINE
  5
2FD
330
1F
100
AcDbEntity
  8
営業図
  6
CONTINUOUS
 62
    54
100
AcDbLine
 10
346.6683357335922
 20
11.60678080499989
 30
0.0
 11
348.6212121208633
 21
13.55965719227096
 31
0.0
  0
LINE
  5
2FE
330
1F
100
AcDbEntity
  8
営業図
  6
CONTINUOUS
 62
    54
100
AcDbLine
 10
346.8576373697892
 20
11.49609774614824
 30
0.0
 11
348.6212121208641
 21
13.25967249722325
 31
0.0
  0
LINE
  5
2FF
330
1F
100
AcDbEntity
  8
営業図
  6
CONTINUOUS
 62
    54
100
AcDbLine
 10
347.0842760734366
 20
11.42275175474722
 30
0.0
 11
348.6212121208636
 21
12.95968780217415
 31
0.0
  0
LINE
  5
300
330
1F
100
AcDbEntity
  8
営業図
  6
CONTINUOUS
 62
    54
100
AcDbLine
 10
347.3630241652412
 20
11.40151515150326
 30
0.0
 11
348.621212120863
 21
12.65970310712509
 31
0.0
  0
LINE
  5
301
330
1F
100
AcDbEntity
  8
営業図
  6
CONTINUOUS
 62
    54
100
AcDbLine
 10
347.6685123429695
 20
11.40701863418304
 30
0.0
 11
348.6157086381819
 21
12.35421492939543
 31
0.0
  0
LINE
  5
302
330
1F
100
AcDbEntity
  8
営業図
  6
CONTINUOUS
 62
    54
100
AcDbLine
 10
348.1267091504898
 20
11.56523074665487
 30
0.0
 11
348.4574965257128
 21
11.89601812187782
 31
0.0
  0
LINE
  5
303
330
1F
100
AcDbEntity
  8
営業図
  6
CONTINUOUS
 62
    54
100
AcDbLine
 10
345.2827162057332
 20
11.41315157304581
 30
0.0
 11
344.3904242999845
 21
12.30544347879454
 31
0.0
  0
LINE
  5
304
330
1F
100
AcDbEntity
  8
営業図
  6
CONTINUOUS
 62
    54
100
AcDbLine
 10
345.5943373223228
 20
11.40151515150467
 30
0.0
 11
344.378787878442
 21
12.61706459538561
 31
0.0
  0
LINE
  5
305
330
1F
100
AcDbEntity
  8
営業図
  6
CONTINUOUS
 62
    54
100
AcDbLine
 10
345.8797505581734
 20
11.41608661070263
 30
0.0
 11
344.3787878784427
 21
12.91704929043329
 31
0.0
  0
LINE
  5
306
330
1F
100
AcDbEntity
  8
営業図
  6
CONTINUOUS
 62
    54
100
AcDbLine
 10
346.1126478620773
 20
11.48317400184734
 30
0.0
 11
344.3787878784422
 21
13.21703398548239
 31
0.0
  0
LINE
  5
307
330
1F
100
AcDbEntity
  8
営業図
  6
CONTINUOUS
 62
    54
100
AcDbLine
 10
346.3067476317023
 20
11.58905892727078
 30
0.0
 11
344.378787878443
 21
13.5170186805301
 31
0.0
  0
LINE
  5
308
330
1F
100
AcDbEntity
  8
営業図
  6
CONTINUOUS
 62
    54
100
AcDbLine
 10
346.468928091536
 20
11.72686316248558
 30
0.0
 11
345.7322216791152
 21
12.46356957490641
 31
0.0
  0
LINE
  5
309
330
1F
100
AcDbEntity
  8
営業図
  6
CONTINUOUS
 62
    54
100
AcDbLine
 10
345.4393939390476
 20
12.75639731497401
 30
0.0
 11
344.3787878784425
 21
13.81700337557919
 31
0.0
  0
LINE
  5
30A
330
1F
100
AcDbEntity
  8
営業図
  6
CONTINUOUS
 62
    54
100
AcDbLine
 10
347.0700271048794
 20
11.42574884419069
 30
0.0
 11
345.9212674406743
 21
12.57450850839579
 31
0.0
  0
LINE
  5
30B
330
1F
100
AcDbEntity
  8
営業図
  6
CONTINUOUS
 62
    54
100
AcDbLine
 10
345.4393939390484
 20
13.05638201002169
 30
0.0
 11
344.3787878784419
 21
14.11698807062823
 31
0.0
  0
LINE
  5
30C
330
1F
100
AcDbEntity
  8
営業図
  6
CONTINUOUS
 62
    54
100
AcDbLine
 10
347.3942454926146
 20
11.40151515150407
 30
0.0
 11
345.9696969693505
 21
12.82606367476819
 31
0.0
  0
LINE
  5
30D
330
1F
100
AcDbEntity
  8
営業図
  6
CONTINUOUS
 62
    54
100
AcDbLine
 10
345.4393939390479
 20
13.35636670507078
 30
0.0
 11
344.3787878784427
 21
14.41697276567597
 31
0.0
  0
LINE
  5
30E
330
1F
100
AcDbEntity
  8
営業図
  6
CONTINUOUS
 62
    54
100
AcDbLine
 10
347.6867070981627
 20
11.40903824100438
 30
0.0
 11
345.9696969693499
 21
13.12604836981726
 31
0.0
  0
LINE
  5
30F
330
1F
100
AcDbEntity
  8
営業図
  6
CONTINUOUS
 62
    54
100
AcDbLine
 10
345.4393939390474
 20
13.65635140011985
 30
0.0
 11
344.3787878784421
 21
14.71695746072503
 31
0.0
  0
LINE
  5
310
330
1F
100
AcDbEntity
  8
営業図
  6
CONTINUOUS
 62
    54
100
AcDbLine
 10
347.9284012278373
 20
11.46732880637842
 30
0.0
 11
345.9696969693508
 21
13.426033064865
 31
0.0
  0
LINE
  5
311
330
1F
100
AcDbEntity
  8
営業図
  6
CONTINUOUS
 62
    54
100
AcDbLine
 10
345.4393939390482
 20
13.95633609516759
 30
0.0
 11
344.3787878784416
 21
15.01694215577413
 31
0.0
  0
LINE
  5
312
330
1F
100
AcDbEntity
  8
営業図
  6
CONTINUOUS
 62
    54
100
AcDbLine
 10
348.1290207592068
 20
11.56669397005748
 30
0.0
 11
347.2236999065483
 21
12.47201482271588
 31
0.0
  0
LINE
  5
313
330
1F
100
AcDbEntity
  8
営業図
  6
CONTINUOUS
 62
    54
100
AcDbLine
 10
347.0401966405636
 20
12.65551808870056
 30
0.0
 11
345.9696969693502
 21
13.72601775991403
 31
0.0
  0
LINE
  5
314
330
1F
100
AcDbEntity
  8
営業図
  6
CONTINUOUS
 62
    54
100
AcDbLine
 10
345.4393939390476
 20
14.25632079021663
 30
0.0
 11
344.3787878784424
 21
15.3169268508218
 31
0.0
  0
LINE
  5
315
330
1F
100
AcDbEntity
  8
営業図
  6
CONTINUOUS
 62
    54
100
AcDbLine
 10
348.2969321069937
 20
11.69876731731908
 30
0.0
 11
347.4689433933881
 21
12.5267560309246
 31
0.0
  0
LINE
  5
316
330
1F
100
AcDbEntity
  8
営業図
  6
CONTINUOUS
 62
    54
100
AcDbLine
 10
347.0303030299561
 20
12.96539639435659
 30
0.0
 11
345.9696969693496
 21
14.02600245496313
 31
0.0
  0
LINE
  5
317
330
1F
100
AcDbEntity
  8
営業図
  6
CONTINUOUS
 62
    54
100
AcDbLine
 10
345.439393939047
 20
14.55630548526572
 30
0.0
 11
344.3787878784419
 21
15.6169115458709
 31
0.0
  0
LINE
  5
318
330
1F
100
AcDbEntity
  8
営業図
  6
CONTINUOUS
 62
    54
100
AcDbLine
 10
348.4345234627996
 20
11.86116065656161
 30
0.0
 11
347.5606060602569
 21
12.73507805910442
 31
0.0
  0
LINE
  5
319
330
1F
100
AcDbEntity
  8
営業図
  6
CONTINUOUS
 62
    54
100
AcDbLine
 10
347.0303030299556
 20
13.26538108940566
 30
0.0
 11
345.9696969693505
 21
14.32598715001084
 31
0.0
  0
LINE
  5
31A
330
1F
100
AcDbEntity
  8
営業図
  6
CONTINUOUS
 62
    54
100
AcDbLine
 10
345.4393939390465
 20
14.85629018031478
 30
0.0
 11
344.3787878784426
 21
15.91689624091861
 31
0.0
  0
LINE
  5
31B
330
1F
100
AcDbEntity
  8
営業図
  6
CONTINUOUS
 62
    54
100
AcDbLine
 10
348.5401692531424
 20
12.0554995612675
 30
0.0
 11
347.560606060259
 21
13.03506275415081
 31
0.0
  0
LINE
  5
31C
330
1F
100
AcDbEntity
  8
営業図
  6
CONTINUOUS
 62
    54
100
AcDbLine
 10
347.0303030299564
 20
13.5653657844534
 30
0.0
 11
345.9696969693513
 21
14.62597184505858
 31
0.0
  0
LINE
  5
31D
330
1F
100
AcDbEntity
  8
営業図
  6
CONTINUOUS
 62
    54
100
AcDbLine
 10
345.4393939390474
 20
15.15627487536252
 30
0.0
 11
344.3787878784421
 21
16.2168809359677
 31
0.0
  0
LINE
  5
31E
330
1F
100
AcDbEntity
  8
営業図
  6
CONTINUOUS
 62
    54
100
AcDbLine
 10
348.6069401110868
 20
12.28871339837152
 30
0.0
 11
347.5606060602585
 21
13.33504744919984
 31
0.0
  0
LINE
  5
31F
330
1F
100
AcDbEntity
  8
営業図
  6
CONTINUOUS
 62
    54
100
AcDbLine
 10
347.0303030299559
 20
13.86535047950243
 30
0.0
 11
345.9696969693507
 21
14.92595654010761
 31
0.0
  0
LINE
  5
320
330
1F
100
AcDbEntity
  8
営業図
  6
CONTINUOUS
 62
    54
100
AcDbLine
 10
345.439393939048
 20
15.4562595704102
 30
0.0
 11
344.3787878784416
 21
16.51686563101677
 31
0.0
  0
LINE
  5
321
330
1F
100
AcDbEntity
  8
営業図
  6
CONTINUOUS
 62
    54
100
AcDbLine
 10
348.6212121208631
 20
12.57442608364376
 30
0.0
 11
347.5606060602579
 21
13.63503214424894
 31
0.0
  0
LINE
  5
322
330
1F
100
AcDbEntity
  8
営業図
  6
CONTINUOUS
 62
    54
100
AcDbLine
 10
347.0303030299567
 20
14.16533517455017
 30
0.0
 11
345.9696969693501
 21
15.22594123515671
 31
0.0
  0
LINE
  5
323
330
1F
100
AcDbEntity
  8
営業図
  6
CONTINUOUS
 62
    54
100
AcDbLine
 10
345.4393939390476
 20
15.7562442654593
 30
0.0
 11
344.3787878784423
 21
16.81685032606448
 31
0.0
  0
LINE
  5
324
330
1F
100
AcDbEntity
  8
営業図
  6
CONTINUOUS
 62
    54
100
AcDbLine
 10
348.6212121208639
 20
12.87441077869146
 30
0.0
 11
347.5606060602573
 21
13.935016839298
 31
0.0
  0
LINE
  5
325
330
1F
100
AcDbEntity
  8
営業図
  6
CONTINUOUS
 62
    54
100
AcDbLine
 10
347.0303030299561
 20
14.46531986959923
 30
0.0
 11
345.9696969693496
 21
15.52592593020577
 31
0.0
  0
LINE
  5
326
330
1F
100
AcDbEntity
  8
営業図
  6
CONTINUOUS
 62
    54
100
AcDbLine
 10
345.439393939047
 20
16.05622896050836
 30
0.0
 11
344.3787878784432
 21
17.11683502111219
 31
0.0
  0
LINE
  5
327
330
1F
100
AcDbEntity
  8
営業図
  6
CONTINUOUS
 62
    54
100
AcDbLine
 10
348.6212121208633
 20
13.17439547374053
 30
0.0
 11
347.5606060602581
 21
14.23500153434571
 31
0.0
  0
LINE
  5
328
330
1F
100
AcDbEntity
  8
営業図
  6
CONTINUOUS
 62
    54
100
AcDbLine
 10
347.0303030299569
 20
14.76530456464691
 30
0.0
 11
345.9696969693504
 21
15.82591062525348
 31
0.0
  0
LINE
  5
329
330
1F
100
AcDbEntity
  8
営業図
  6
CONTINUOUS
 62
    54
100
AcDbLine
 10
345.4393939390478
 20
16.35621365555607
 30
0.0
 11
344.3787878784426
 21
17.41681971616125
 31
0.0
  0
LINE
  5
32A
330
1F
100
AcDbEntity
  8
営業図
  6
CONTINUOUS
 62
    54
100
AcDbLine
 10
348.6212121208628
 20
13.47438016878963
 30
0.0
 11
347.5606060602576
 21
14.53498622939481
 31
0.0
  0
LINE
  5
32B
330
1F
100
AcDbEntity
  8
営業図
  6
CONTINUOUS
 62
    54
100
AcDbLine
 10
347.0303030299564
 20
15.06528925969601
 30
0.0
 11
345.9696969693499
 21
16.12589532030258
 31
0.0
  0
LINE
  5
32C
330
1F
100
AcDbEntity
  8
営業図
  6
CONTINUOUS
 62
    54
100
AcDbLine
 10
345.4393939390472
 20
16.65619835060517
 30
0.0
 11
344.3787878784435
 21
17.71680441120896
 31
0.0
  0
LINE
  5
32D
330
1F
100
AcDbEntity
  8
営業図
  6
CONTINUOUS
 62
    54
100
AcDbLine
 10
348.6212121208636
 20
13.7743648638373
 30
0.0
 11
347.560606060257
 21
14.83497092444387
 31
0.0
  0
LINE
  5
32E
330
1F
100
AcDbEntity
  8
営業図
  6
CONTINUOUS
 62
    54
100
AcDbLine
 10
347.0303030299558
 20
15.36527395474507
 30
0.0
 11
345.9696969693492
 21
16.42588001535161
 31
0.0
  0
LINE
  5
32F
330
1F
100
AcDbEntity
  8
営業図
  6
CONTINUOUS
 62
    54
100
AcDbLine
 10
345.439393939048
 20
16.95618304565285
 30
0.0
 11
344.3787878784428
 21
18.01678910625802
 31
0.0
  0
LINE
  5
330
330
1F
100
AcDbEntity
  8
営業図
  6
CONTINUOUS
 62
    54
100
AcDbLine
 10
348.6212121208631
 20
14.0743495588864
 30
0.0
 11
347.5606060602578
 21
15.13495561949158
 31
0.0
  0
LINE
  5
331
330
1F
100
AcDbEntity
  8
営業図
  6
CONTINUOUS
 62
    54
100
AcDbLine
 10
347.0303030299567
 20
15.66525864979281
 30
0.0
 11
345.9696969693501
 21
16.72586471039935
 31
0.0
  0
LINE
  5
332
330
1F
100
AcDbEntity
  8
営業図
  6
CONTINUOUS
 62
    54
100
AcDbLine
 10
345.4393939390475
 20
17.25616774070194
 30
0.0
 11
344.3787878784423
 21
18.31677380130712
 31
0.0
  0
LINE
  5
333
330
1F
100
AcDbEntity
  8
営業図
  6
CONTINUOUS
 62
    54
100
AcDbLine
 10
348.6212121208625
 20
14.37433425393546
 30
0.0
 11
347.5606060602573
 21
15.43494031454065
 31
0.0
  0
LINE
  5
334
330
1F
100
AcDbEntity
  8
営業図
  6
CONTINUOUS
 62
    54
100
AcDbLine
 10
347.030303029956
 20
15.96524334484188
 30
0.0
 11
345.9696969693509
 21
17.02584940544706
 31
0.0
  0
LINE
  5
335
330
1F
100
AcDbEntity
  8
営業図
  6
CONTINUOUS
 62
    54
100
AcDbLine
 10
345.4393939390483
 20
17.55615243574965
 30
0.0
 11
344.3787878784431
 21
18.61675849635483
 31
0.0
  0
LINE
  5
336
330
1F
100
AcDbEntity
  8
営業図
  6
CONTINUOUS
 62
    54
100
AcDbLine
 10
348.6212121208633
 20
14.6743189489832
 30
0.0
 11
347.5606060602581
 21
15.73492500958838
 31
0.0
  0
LINE
  5
337
330
1F
100
AcDbEntity
  8
営業図
  6
CONTINUOUS
 62
    54
100
AcDbLine
 10
347.0303030299569
 20
16.26522803988959
 30
0.0
 11
345.9696969693503
 21
17.32583410049612
 31
0.0
  0
LINE
  5
338
330
1F
100
AcDbEntity
  8
営業図
  6
CONTINUOUS
 62
    54
100
AcDbLine
 10
345.4393939390478
 20
17.85613713079871
 30
0.0
 11
344.3787878784426
 21
18.9167431914039
 31
0.0
  0
LINE
  5
339
330
1F
100
AcDbEntity
  8
営業図
  6
CONTINUOUS
 62
    54
100
AcDbLine
 10
348.6212121208627
 20
14.97430364403224
 30
0.0
 11
347.5606060602576
 21
16.03490970463742
 31
0.0
  0
LINE
  5
33A
330
1F
100
AcDbEntity
  8
営業図
  6
CONTINUOUS
 62
    54
100
AcDbLine
 10
347.0303030299563
 20
16.56521273493865
 30
0.0
 11
345.9696969693512
 21
17.62581879554384
 31
0.0
  0
LINE
  5
33B
330
1F
100
AcDbEntity
  8
営業図
  6
CONTINUOUS
 62
    54
100
AcDbLine
 10
345.4393939390486
 20
18.15612182584642
 30
0.0
 11
344.3787878784433
 21
19.21672788645161
 31
0.0
  0
LINE
  5
33C
330
1F
100
AcDbEntity
  8
営業図
  6
CONTINUOUS
 62
    54
100
AcDbLine
 10
348.6212121208636
 20
15.27428833907998
 30
0.0
 11
347.560606060257
 21
16.33489439968652
 31
0.0
  0
LINE
  5
33D
330
1F
100
AcDbEntity
  8
営業図
  6
CONTINUOUS
 62
    54
100
AcDbLine
 10
347.0303030299558
 20
16.86519742998775
 30
0.0
 11
345.9696969693506
 21
17.92580349059293
 31
0.0
  0
LINE
  5
33E
330
1F
100
AcDbEntity
  8
営業図
  6
CONTINUOUS
 62
    54
100
AcDbLine
 10
345.439393939048
 20
18.45610652089552
 30
0.0
 11
344.3787878784428
 21
19.5167125815007
 31
0.0
  0
LINE
  5
33F
330
1F
100
AcDbEntity
  8
営業図
  6
CONTINUOUS
 62
    54
100
AcDbLine
 10
348.6212121208629
 20
15.57427303412904
 30
0.0
 11
347.5606060602578
 21
16.63487909473422
 31
0.0
  0
LINE
  5
340
330
1F
100
AcDbEntity
  8
営業図
  6
CONTINUOUS
 62
    54
100
AcDbLine
 10
347.0303030299566
 20
17.16518212503546
 30
0.0
 11
345.96969696935
 21
18.225788185642
 31
0.0
  0
LINE
  5
341
330
1F
100
AcDbEntity
  8
営業図
  6
CONTINUOUS
 62
    54
100
AcDbLine
 10
345.4393939390475
 20
18.75609121594459
 30
0.0
 11
344.3787878784423
 21
19.81669727654977
 31
0.0
  0
LINE
  5
342
330
1F
100
AcDbEntity
  8
営業図
  6
CONTINUOUS
 62
    54
100
AcDbLine
 10
348.6212121208625
 20
15.87425772917814
 30
0.0
 11
347.5606060602572
 21
16.93486378978332
 31
0.0
  0
LINE
  5
343
330
1F
100
AcDbEntity
  8
営業図
  6
CONTINUOUS
 62
    54
100
AcDbLine
 10
347.030303029956
 20
17.46516682008452
 30
0.0
 11
345.9696969693509
 21
18.5257728806897
 31
0.0
  0
LINE
  5
344
330
1F
100
AcDbEntity
  8
営業図
  6
CONTINUOUS
 62
    54
100
AcDbLine
 10
345.4393939390469
 20
19.05607591099368
 30
0.0
 11
344.3787878784431
 21
20.11668197159748
 31
0.0
  0
LINE
  5
345
330
1F
100
AcDbEntity
  8
営業図
  6
CONTINUOUS
 62
    54
100
AcDbLine
 10
348.6212121208632
 20
16.17424242422582
 30
0.0
 11
347.5606060602568
 21
17.23484848483238
 31
0.0
  0
LINE
  5
346
330
1F
100
AcDbEntity
  8
営業図
  6
CONTINUOUS
 62
    54
100
AcDbLine
 10
347.0303030299555
 20
17.76515151513359
 30
0.0
 11
345.9696969693503
 21
18.82575757573877
 31
0.0
  0
LINE
  5
347
330
1F
100
AcDbEntity
  8
営業図
  6
CONTINUOUS
 62
    54
100
AcDbLine
 10
345.4393939390477
 20
19.35606060604136
 30
0.0
 11
344.3787878784411
 21
20.4166666666479
 31
0.0
  0
LINE
  5
348
330
1F
100
AcDbEntity
  8
営業図
  6
CONTINUOUS
 62
    54
100
AcDbLine
 10
348.6212121208627
 20
16.47422711927491
 30
0.0
 11
347.5606060602576
 21
17.53483317988009
 31
0.0
  0
LINE
  5
349
330
1F
100
AcDbEntity
  8
営業図
  6
CONTINUOUS
 62
    54
100
AcDbLine
 10
347.0303030299563
 20
18.06513621018133
 30
0.0
 11
345.9696969693497
 21
19.12574227078786
 31
0.0
  0
LINE
  5
34A
330
1F
100
AcDbEntity
  8
営業図
  6
CONTINUOUS
 62
    54
100
AcDbLine
 10
345.4393939390471
 20
19.65604530109045
 30
0.0
 11
344.6787725734889
 21
20.41666666664874
 31
0.0
  0
LINE
  5
34B
330
1F
100
AcDbEntity
  8
営業図
  6
CONTINUOUS
 62
    54
100
AcDbLine
 10
348.6212121208635
 20
16.77421181432262
 30
0.0
 11
347.560606060257
 21
17.83481787492916
 31
0.0
  0
LINE
  5
34C
330
1F
100
AcDbEntity
  8
営業図
  6
CONTINUOUS
 62
    54
100
AcDbLine
 10
347.0303030299572
 20
18.36512090522903
 30
0.0
 11
345.9696969693492
 21
19.42572696583693
 31
0.0
  0
LINE
  5
34D
330
1F
100
AcDbEntity
  8
営業図
  6
CONTINUOUS
 62
    54
100
AcDbLine
 10
345.4393939390466
 20
19.95602999613952
 30
0.0
 11
344.9787572685379
 21
20.41666666664817
 31
0.0
  0
LINE
  5
34E
330
1F
100
AcDbEntity
  8
営業図
  6
CONTINUOUS
 62
    54
100
AcDbLine
 10
348.6212121208629
 20
17.07419650937172
 30
0.0
 11
347.5606060602578
 21
18.1348025699769
 31
0.0
  0
LINE
  5
34F
330
1F
100
AcDbEntity
  8
営業図
  6
CONTINUOUS
 62
    54
100
AcDbLine
 10
347.0303030299565
 20
18.6651056002781
 30
0.0
 11
345.96969696935
 21
19.72571166088467
 31
0.0
  0
LINE
  5
350
330
1F
100
AcDbEntity
  8
営業図
  6
CONTINUOUS
 62
    54
100
AcDbLine
 10
345.4393939390488
 20
20.25601469118588
 30
0.0
 11
345.278741963587
 21
20.41666666664763
 31
0.0
  0
LINE
  5
351
330
1F
100
AcDbEntity
  8
営業図
  6
CONTINUOUS
 62
    54
100
AcDbLine
 10
348.6212121208624
 20
17.37418120442078
 30
0.0
 11
347.5606060602586
 21
18.43478726502457
 31
0.0
  0
LINE
  5
352
330
1F
100
AcDbEntity
  8
営業図
  6
CONTINUOUS
 62
    54
100
AcDbLine
 10
347.0303030299574
 20
18.96509029532581
 30
0.0
 11
345.9696969693508
 21
20.02569635593235
 31
0.0
  0
LINE
  5
353
330
1F
100
AcDbEntity
  8
営業図
  6
CONTINUOUS
 62
    54
100
AcDbLine
 10
348.6212121208632
 20
17.67416589946849
 30
0.0
 11
347.5606060602581
 21
18.73477196007367
 31
0.0
  0
LINE
  5
354
330
1F
100
AcDbEntity
  8
営業図
  6
CONTINUOUS
 62
    54
100
AcDbLine
 10
347.0303030299568
 20
19.26507499037491
 30
0.0
 11
345.9696969693503
 21
20.32568105098144
 31
0.0
  0
LINE
  5
355
330
1F
100
AcDbEntity
  8
営業図
  6
CONTINUOUS
 62
    54
100
AcDbLine
 10
348.6212121208627
 20
17.97415059451755
 30
0.0
 11
347.5606060602574
 21
19.03475665512273
 31
0.0
  0
LINE
  5
356
330
1F
100
AcDbEntity
  8
営業図
  6
CONTINUOUS
 62
    54
100
AcDbLine
 10
347.0303030299563
 20
19.56505968542397
 30
0.0
 11
346.1786960487343
 21
20.41666666664597
 31
0.0
  0
LINE
  5
357
330
1F
100
AcDbEntity
  8
営業図
  6
CONTINUOUS
 62
    54
100
AcDbLine
 10
348.6212121208621
 20
18.27413528956665
 30
0.0
 11
347.5606060602569
 21
19.33474135017183
 31
0.0
  0
LINE
  5
358
330
1F
100
AcDbEntity
  8
営業図
  6
CONTINUOUS
 62
    54
100
AcDbLine
 10
347.0303030299557
 20
19.86504438047307
 30
0.0
 11
346.478680743782
 21
20.41666666664678
 31
0.0
  0
LINE
  5
359
330
1F
100
AcDbEntity
  8
営業図
  6
CONTINUOUS
 62
    54
100
AcDbLine
 10
348.6212121208642
 20
18.57411998461297
 30
0.0
 11
347.5606060602577
 21
19.63472604521954
 31
0.0
  0
LINE
  5
35A
330
1F
100
AcDbEntity
  8
営業図
  6
CONTINUOUS
 62
    54
100
AcDbLine
 10
347.0303030299565
 20
20.16502907552074
 30
0.0
 11
346.778665438831
 21
20.41666666664621
 31
0.0
  0
LINE
  5
35B
330
1F
100
AcDbEntity
  8
営業図
  6
CONTINUOUS
 62
    54
100
AcDbLine
 10
348.6212121208637
 20
18.87410467966207
 30
0.0
 11
347.5606060602572
 21
19.93471074026861
 31
0.0
  0
LINE
  5
35C
330
1F
100
AcDbEntity
  8
営業図
  6
CONTINUOUS
 62
    54
100
AcDbLine
 10
348.6212121208632
 20
19.17408937471114
 30
0.0
 11
347.5606060602566
 21
20.23469543531767
 31
0.0
  0
LINE
  5
35D
330
1F
100
AcDbEntity
  8
営業図
  6
CONTINUOUS
 62
    54
100
AcDbLine
 10
348.621212120864
 20
19.47407406975884
 30
0.0
 11
347.6786195239755
 21
20.41666666664726
 31
0.0
  0
LINE
  5
35E
330
1F
100
AcDbEntity
  8
営業図
  6
CONTINUOUS
 62
    54
100
AcDbLine
 10
348.6212121208634
 20
19.77405876480794
 30
0.0
 11
347.9786042190246
 21
20.41666666664672
 31
0.0
  0
LINE
  5
35F
330
1F
100
AcDbEntity
  8
営業図
  6
CONTINUOUS
 62
    54
100
AcDbLine
 10
348.6212121208628
 20
20.07404345985697
 30
0.0
 11
348.2785889140737
 21
20.41666666664615
 31
0.0
  0
LINE
  5
360
330
1F
100
AcDbEntity
  8
営業図
  6
CONTINUOUS
 62
    54
100
AcDbLine
 10
348.6212121208624
 20
20.37402815490607
 30
0.0
 11
348.5785736091215
 21
20.41666666664699
 31
0.0
  0
LINE
  5
361
330
1F
100
AcDbEntity
  8
営業図
  6
CONTINUOUS
 62
    54
100
AcDbLine
 10
349.1631515727092
 20
19.5127383393577
 30
0.0
 11
350.0554434784552
 21
20.40503024510369
 31
0.0
  0
LINE
  5
362
330
1F
100
AcDbEntity
  8
営業図
  6
CONTINUOUS
 62
    54
100
AcDbLine
 10
349.1515151511666
 20
19.20111722276663
 30
0.0
 11
350.3670645950463
 21
20.41666666664621
 31
0.0
  0
LINE
  5
363
330
1F
100
AcDbEntity
  8
営業図
  6
CONTINUOUS
 62
    54
100
AcDbLine
 10
349.1515151511661
 20
18.90113252771756
 30
0.0
 11
350.6670492900967
 21
20.41666666664814
 31
0.0
  0
LINE
  5
364
330
1F
100
AcDbEntity
  8
営業図
  6
CONTINUOUS
 62
    54
100
AcDbLine
 10
349.1515151511669
 20
18.60114783266985
 30
0.0
 11
350.9470978645536
 21
20.39673054605651
 31
0.0
  0
LINE
  5
365
330
1F
100
AcDbEntity
  8
営業図
  6
CONTINUOUS
 62
    54
100
AcDbLine
 10
349.1515151511678
 20
18.30116313762214
 30
0.0
 11
351.1748579307405
 21
20.32450591719482
 31
0.0
  0
LINE
  5
366
330
1F
100
AcDbEntity
  8
営業図
  6
CONTINUOUS
 62
    54
100
AcDbLine
 10
349.1515151511658
 20
18.00117844257169
 30
0.0
 11
350.2121212117709
 21
19.06178450317672
 31
0.0
  0
LINE
  5
367
330
1F
100
AcDbEntity
  8
営業図
  6
CONTINUOUS
 62
    54
100
AcDbLine
 10
349.1515151511666
 20
17.70119374752401
 30
0.0
 11
350.2121212117709
 21
18.76179980812822
 31
0.0
  0
LINE
  5
368
330
1F
100
AcDbEntity
  8
営業図
  6
CONTINUOUS
 62
    54
100
AcDbLine
 10
349.1515151511661
 20
17.40120905247492
 30
0.0
 11
350.2121212117709
 21
18.4618151130797
 31
0.0
  0
LINE
  5
369
330
1F
100
AcDbEntity
  8
営業図
  6
CONTINUOUS
 62
    54
100
AcDbLine
 10
349.1515151511669
 20
17.10122435742721
 30
0.0
 11
350.2121212117709
 21
18.16183041803117
 31
0.0
  0
LINE
  5
36A
330
1F
100
AcDbEntity
  8
営業図
  6
CONTINUOUS
 62
    54
100
AcDbLine
 10
349.1515151511663
 20
16.80123966237811
 30
0.0
 11
350.2121212117709
 21
17.86184572298263
 31
0.0
  0
LINE
  5
36B
330
1F
100
AcDbEntity
  8
営業図
  6
CONTINUOUS
 62
    54
100
AcDbLine
 10
349.1515151511671
 20
16.50125496733043
 30
0.0
 11
350.2121212117709
 21
17.56186102793415
 31
0.0
  0
LINE
  5
36C
330
1F
100
AcDbEntity
  8
営業図
  6
CONTINUOUS
 62
    54
100
AcDbLine
 10
349.1515151511666
 20
16.20127027228137
 30
0.0
 11
350.2121212117709
 21
17.2618763328856
 31
0.0
  0
LINE
  5
36D
330
1F
100
AcDbEntity
  8
営業図
  6
CONTINUOUS
 62
    54
100
AcDbLine
 10
349.1515151511661
 20
15.90128557723227
 30
0.0
 11
350.2121212117709
 21
16.96189163783711
 31
0.0
  0
LINE
  5
36E
330
1F
100
AcDbEntity
  8
営業図
  6
CONTINUOUS
 62
    54
100
AcDbLine
 10
349.1515151511669
 20
15.60130088218456
 30
0.0
 11
350.2121212117709
 21
16.66190694278856
 31
0.0
  0
LINE
  5
36F
330
1F
100
AcDbEntity
  8
営業図
  6
CONTINUOUS
 62
    54
100
AcDbLine
 10
349.1515151511663
 20
15.30131618713547
 30
0.0
 11
350.2121212117709
 21
16.36192224774005
 31
0.0
  0
LINE
  5
370
330
1F
100
AcDbEntity
  8
営業図
  6
CONTINUOUS
 62
    54
100
AcDbLine
 10
349.1515151511671
 20
15.00133149208779
 30
0.0
 11
350.2121212117709
 21
16.06193755269154
 31
0.0
  0
LINE
  5
371
330
1F
100
AcDbEntity
  8
営業図
  6
CONTINUOUS
 62
    54
100
AcDbLine
 10
349.1515151511666
 20
14.70134679703869
 30
0.0
 11
350.2121212117709
 21
15.76195285764303
 31
0.0
  0
LINE
  5
372
330
1F
100
AcDbEntity
  8
営業図
  6
CONTINUOUS
 62
    54
100
AcDbLine
 10
349.1515151511661
 20
14.40136210198963
 30
0.0
 11
350.2121212117709
 21
15.46196816259447
 31
0.0
  0
LINE
  5
373
330
1F
100
AcDbEntity
  8
営業図
  6
CONTINUOUS
 62
    54
100
AcDbLine
 10
349.1515151511668
 20
14.10137740694189
 30
0.0
 11
350.2121212117709
 21
15.16198346754596
 31
0.0
  0
LINE
  5
374
330
1F
100
AcDbEntity
  8
営業図
  6
CONTINUOUS
 62
    54
100
AcDbLine
 10
349.1515151511663
 20
13.80139271189285
 30
0.0
 11
350.2121212117709
 21
14.86199877249745
 31
0.0
  0
LINE
  5
375
330
1F
100
AcDbEntity
  8
営業図
  6
CONTINUOUS
 62
    54
100
AcDbLine
 10
349.1515151511671
 20
13.50140801684512
 30
0.0
 11
350.2121212117709
 21
14.56201407744891
 31
0.0
  0
LINE
  5
376
330
1F
100
AcDbEntity
  8
営業図
  6
CONTINUOUS
 62
    54
100
AcDbLine
 10
349.1515151511652
 20
13.20142332179469
 30
0.0
 11
350.2121212117709
 21
14.26202938240037
 31
0.0
  0
LINE
  5
377
330
1F
100
AcDbEntity
  8
営業図
  6
CONTINUOUS
 62
    54
100
AcDbLine
 10
349.1515151511659
 20
12.90143862674695
 30
0.0
 11
350.3031068274364
 21
14.05303030301746
 31
0.0
  0
LINE
  5
378
330
1F
100
AcDbEntity
  8
営業図
  6
CONTINUOUS
 62
    54
100
AcDbLine
 10
349.1515151511668
 20
12.60145393169928
 30
0.0
 11
350.603091522485
 21
14.05303030301746
 31
0.0
  0
LINE
  5
379
330
1F
100
AcDbEntity
  8
営業図
  6
CONTINUOUS
 62
    54
100
AcDbLine
 10
349.1515151511676
 20
12.30146923665154
 30
0.0
 11
351.8030303026778
 21
14.95298438816175
 31
0.0
  0
LINE
  5
37A
330
1F
100
AcDbEntity
  8
営業図
  6
CONTINUOUS
 62
    54
100
AcDbLine
 10
349.151515151167
 20
12.00148454160247
 30
0.0
 11
351.8030303026786
 21
14.65299969311407
 31
0.0
  0
LINE
  5
37B
330
1F
100
AcDbEntity
  8
営業図
  6
CONTINUOUS
 62
    54
100
AcDbLine
 10
349.1515151511679
 20
11.70149984655476
 30
0.0
 11
350.2121212117717
 21
12.76210590715856
 31
0.0
  0
LINE
  5
37C
330
1F
100
AcDbEntity
  8
営業図
  6
CONTINUOUS
 62
    54
100
AcDbLine
 10
350.4424395470247
 20
12.99242424241154
 30
0.0
 11
351.8030303026781
 21
14.35301499806497
 31
0.0
  0
LINE
  5
37D
330
1F
100
AcDbEntity
  8
営業図
  6
CONTINUOUS
 62
    54
100
AcDbLine
 10
349.1515151511659
 20
11.40151515150431
 30
0.0
 11
350.2121212117725
 21
12.46212121211088
 31
0.0
  0
LINE
  5
37E
330
1F
100
AcDbEntity
  8
営業図
  6
CONTINUOUS
 62
    54
100
AcDbLine
 10
350.7424242420724
 20
12.99242424241073
 30
0.0
 11
351.8030303026775
 21
14.05303030301591
 31
0.0
  0
LINE
  5
37F
330
1F
100
AcDbEntity
  8
営業図
  6
CONTINUOUS
 62
    54
100
AcDbLine
 10
349.4514998462136
 20
11.4015151515035
 30
0.0
 11
350.2121212117705
 21
12.16213651706043
 31
0.0
  0
LINE
  5
380
330
1F
100
AcDbEntity
  8
営業図
  6
CONTINUOUS
 62
    54
100
AcDbLine
 10
350.7424242420732
 20
12.69243954736302
 30
0.0
 11
351.803030302677
 21
13.75304560796681
 31
0.0
  0
LINE
  5
381
330
1F
100
AcDbEntity
  8
営業図
  6
CONTINUOUS
 62
    54
100
AcDbLine
 10
349.7514845412641
 20
11.40151515150543
 30
0.0
 11
350.2121212117714
 21
11.86215182201272
 31
0.0
  0
LINE
  5
382
330
1F
100
AcDbEntity
  8
営業図
  6
CONTINUOUS
 62
    54
100
AcDbLine
 10
350.7424242420726
 20
12.39245485231395
 30
0.0
 11
351.8030303026778
 21
13.45306091291913
 31
0.0
  0
LINE
  5
383
330
1F
100
AcDbEntity
  8
営業図
  6
CONTINUOUS
 62
    54
100
AcDbLine
 10
350.0514692363118
 20
11.40151515150461
 30
0.0
 11
350.2121212117721
 21
11.56216712696498
 31
0.0
  0
LINE
  5
384
330
1F
100
AcDbEntity
  8
営業図
  6
CONTINUOUS
 62
    54
100
AcDbLine
 10
350.742424242072
 20
12.09247015726486
 30
0.0
 11
351.8030303026785
 21
13.15307621787139
 31
0.0
  0
LINE
  5
385
330
1F
100
AcDbEntity
  8
営業図
  6
CONTINUOUS
 62
    54
100
AcDbLine
 10
350.7424242420728
 20
11.79248546221715
 30
0.0
 11
351.8030303026781
 21
12.85309152282233
 31
0.0
  0
LINE
  5
386
330
1F
100
AcDbEntity
  8
営業図
  6
CONTINUOUS
 62
    54
100
AcDbLine
 10
350.7424242420723
 20
11.49250076716805
 30
0.0
 11
351.8030303026775
 21
12.55310682777323
 31
0.0
  0
LINE
  5
387
330
1F
100
AcDbEntity
  8
営業図
  6
CONTINUOUS
 62
    54
100
AcDbLine
 10
350.951423321455
 20
11.4015151515022
 30
0.0
 11
351.8030303026769
 21
12.25312213272417
 31
0.0
  0
LINE
  5
388
330
1F
100
AcDbEntity
  8
営業図
  6
CONTINUOUS
 62
    54
100
AcDbLine
 10
351.251408016504
 20
11.40151515150274
 30
0.0
 11
351.8030303026777
 21
11.95313743767649
 31
0.0
  0
LINE
  5
389
330
1F
100
AcDbEntity
  8
営業図
  6
CONTINUOUS
 62
    54
100
AcDbLine
 10
351.551392711553
 20
11.40151515150329
 30
0.0
 11
351.8030303026771
 21
11.65315274262739
 31
0.0
  0
LINE
  5
38A
330
1F
100
AcDbEntity
  8
営業図
  6
CONTINUOUS
 62
    54
100
AcDbLine
 10
349.4514998462128
 20
11.40151515150531
 30
0.0
 11
349.1515151511659
 21
11.7014998465522
 31
0.0
  0
LINE
  5
38B
330
1F
100
AcDbEntity
  8
営業図
  6
CONTINUOUS
 62
    54
100
AcDbLine
 10
349.7514845412619
 20
11.40151515150476
 30
0.0
 11
349.1515151511667
 21
12.00148454159994
 31
0.0
  0
LINE
  5
38C
330
1F
100
AcDbEntity
  8
営業図
  6
CONTINUOUS
 62
    54
100
AcDbLine
 10
350.0514692363096
 20
11.40151515150558
 30
0.0
 11
349.1515151511662
 21
12.30146923664901
 31
0.0
  0
LINE
  5
38D
330
1F
100
AcDbEntity
  8
営業図
  6
CONTINUOUS
 62
    54
100
AcDbLine
 10
350.2121212117708
 20
11.54084787109292
 30
0.0
 11
349.151515151167
 21
12.60145393169675
 31
0.0
  0
LINE
  5
38E
330
1F
100
AcDbEntity
  8
営業図
  6
CONTINUOUS
 62
    54
100
AcDbLine
 10
350.2121212117715
 20
11.8408325661406
 30
0.0
 11
349.1515151511664
 21
12.90143862674578
 31
0.0
  0
LINE
  5
38F
330
1F
100
AcDbEntity
  8
営業図
  6
CONTINUOUS
 62
    54
100
AcDbLine
 10
350.9514233214568
 20
11.40151515150392
 30
0.0
 11
350.7424242420737
 21
11.6105142308871
 31
0.0
  0
LINE
  5
390
330
1F
100
AcDbEntity
  8
営業図
  6
CONTINUOUS
 62
    54
100
AcDbLine
 10
350.2121212117711
 20
12.14081726118969
 30
0.0
 11
349.1515151511659
 21
13.20142332179487
 31
0.0
  0
LINE
  5
391
330
1F
100
AcDbEntity
  8
営業図
  6
CONTINUOUS
 62
    54
100
AcDbLine
 10
351.2514080165046
 20
11.40151515150473
 30
0.0
 11
350.7424242420717
 21
11.91049892593752
 31
0.0
  0
LINE
  5
392
330
1F
100
AcDbEntity
  8
営業図
  6
CONTINUOUS
 62
    54
100
AcDbLine
 10
350.2121212117705
 20
12.44080195623876
 30
0.0
 11
349.1515151511666
 21
13.50140801684258
 31
0.0
  0
LINE
  5
393
330
1F
100
AcDbEntity
  8
営業図
  6
CONTINUOUS
 62
    54
100
AcDbLine
 10
351.5513927115536
 20
11.40151515150419
 30
0.0
 11
350.7424242420725
 21
12.21048362098526
 31
0.0
  0
LINE
  5
394
330
1F
100
AcDbEntity
  8
営業図
  6
CONTINUOUS
 62
    54
100
AcDbLine
 10
350.21212121177
 20
12.74078665128786
 30
0.0
 11
349.1515151511662
 21
13.80139271189168
 31
0.0
  0
LINE
  5
395
330
1F
100
AcDbEntity
  8
営業図
  6
CONTINUOUS
 62
    54
100
AcDbLine
 10
351.8030303026771
 20
11.44986225542915
 30
0.0
 11
350.7424242420733
 21
12.51046831603297
 31
0.0
  0
LINE
  5
396
330
1F
100
AcDbEntity
  8
営業図
  6
CONTINUOUS
 62
    54
100
AcDbLine
 10
350.2604683156963
 20
12.99242424241003
 30
0.0
 11
349.1515151511655
 21
14.10137740694074
 31
0.0
  0
LINE
  5
397
330
1F
100
AcDbEntity
  8
営業図
  6
CONTINUOUS
 62
    54
100
AcDbLine
 10
351.8030303026779
 20
11.74984695047689
 30
0.0
 11
350.7424242420728
 21
12.81045301108207
 31
0.0
  0
LINE
  5
398
330
1F
100
AcDbEntity
  8
営業図
  6
CONTINUOUS
 62
    54
100
AcDbLine
 10
350.560453010744
 20
12.99242424241085
 30
0.0
 11
349.1515151511678
 21
14.4013621019871
 31
0.0
  0
LINE
  5
399
330
1F
100
AcDbEntity
  8
営業図
  6
CONTINUOUS
 62
    54
100
AcDbLine
 10
351.8030303026774
 20
12.04983164552592
 30
0.0
 11
349.1515151511671
 21
14.70134679703616
 31
0.0
  0
LINE
  5
39A
330
1F
100
AcDbEntity
  8
営業図
  6
CONTINUOUS
 62
    54
100
AcDbLine
 10
351.8030303026782
 20
12.34981634057366
 30
0.0
 11
349.1515151511666
 21
15.00133149208526
 31
0.0
  0
LINE
  5
39B
330
1F
100
AcDbEntity
  8
営業図
  6
CONTINUOUS
 62
    54
100
AcDbLine
 10
351.8030303026777
 20
12.64980103562273
 30
0.0
 11
350.3998010352828
 21
14.05303030301746
 31
0.0
  0
LINE
  5
39C
330
1F
100
AcDbEntity
  8
営業図
  6
CONTINUOUS
 62
    54
100
AcDbLine
 10
351.8030303026771
 20
12.94978573067182
 30
0.0
 11
350.6997857303315
 21
14.05303030301746
 31
0.0
  0
LINE
  5
39D
330
1F
100
AcDbEntity
  8
営業図
  6
CONTINUOUS
 62
    54
100
AcDbLine
 10
351.8030303026779
 20
13.2497704257195
 30
0.0
 11
350.7424242420734
 21
14.31037648632403
 31
0.0
  0
LINE
  5
39E
330
1F
100
AcDbEntity
  8
営業図
  6
CONTINUOUS
 62
    54
100
AcDbLine
 10
351.8030303026787
 20
13.54975512076721
 30
0.0
 11
350.7424242420734
 21
14.61036118137253
 31
0.0
  0
LINE
  5
39F
330
1F
100
AcDbEntity
  8
営業図
  6
CONTINUOUS
 62
    54
100
AcDbLine
 10
351.8030303026782
 20
13.84973981581633
 30
0.0
 11
350.7424242420734
 21
14.91034587642116
 31
0.0
  0
LINE
  5
3A0
330
1F
100
AcDbEntity
  8
営業図
  6
CONTINUOUS
 62
    54
100
AcDbLine
 10
351.8030303026777
 20
14.1497245108654
 30
0.0
 11
350.7424242420734
 21
15.21033057146967
 31
0.0
  0
LINE
  5
3A1
330
1F
100
AcDbEntity
  8
営業図
  6
CONTINUOUS
 62
    54
100
AcDbLine
 10
351.8030303026771
 20
14.44970920591449
 30
0.0
 11
350.7424242420734
 21
15.51031526651823
 31
0.0
  0
LINE
  5
3A2
330
1F
100
AcDbEntity
  8
営業図
  6
CONTINUOUS
 62
    54
100
AcDbLine
 10
351.8030303026779
 20
14.74969390096217
 30
0.0
 11
350.7424242420734
 21
15.81029996156671
 31
0.0
  0
LINE
  5
3A3
330
1F
100
AcDbEntity
  8
営業図
  6
CONTINUOUS
 62
    54
100
AcDbLine
 10
351.8030303026774
 20
15.04967859601127
 30
0.0
 11
350.7424242420734
 21
16.11028465661525
 31
0.0
  0
LINE
  5
3A4
330
1F
100
AcDbEntity
  8
営業図
  6
CONTINUOUS
 62
    54
100
AcDbLine
 10
351.8030303026767
 20
15.34966329106034
 30
0.0
 11
350.7424242420734
 21
16.41026935166373
 31
0.0
  0
LINE
  5
3A5
330
1F
100
AcDbEntity
  8
営業図
  6
CONTINUOUS
 62
    54
100
AcDbLine
 10
351.803030302679
 20
15.64964798610669
 30
0.0
 11
350.7424242420734
 21
16.7102540467123
 31
0.0
  0
LINE
  5
3A6
330
1F
100
AcDbEntity
  8
営業図
  6
CONTINUOUS
 62
    54
100
AcDbLine
 10
351.8030303026784
 20
15.94963268115575
 30
0.0
 11
350.7424242420734
 21
17.01023874176081
 31
0.0
  0
LINE
  5
3A7
330
1F
100
AcDbEntity
  8
営業図
  6
CONTINUOUS
 62
    54
100
AcDbLine
 10
351.8030303026778
 20
16.24961737620482
 30
0.0
 11
350.7424242420734
 21
17.31022343680931
 31
0.0
  0
LINE
  5
3A8
330
1F
100
AcDbEntity
  8
営業図
  6
CONTINUOUS
 62
    54
100
AcDbLine
 10
351.8030303026787
 20
16.54960207125256
 30
0.0
 11
350.7424242420734
 21
17.61020813185784
 31
0.0
  0
LINE
  5
3A9
330
1F
100
AcDbEntity
  8
営業図
  6
CONTINUOUS
 62
    54
100
AcDbLine
 10
351.8030303026781
 20
16.84958676630159
 30
0.0
 11
350.7424242420734
 21
17.91019282690634
 31
0.0
  0
LINE
  5
3AA
330
1F
100
AcDbEntity
  8
営業図
  6
CONTINUOUS
 62
    54
100
AcDbLine
 10
351.8030303026776
 20
17.14957146135069
 30
0.0
 11
350.7424242420734
 21
18.2101775219549
 31
0.0
  0
LINE
  5
3AB
330
1F
100
AcDbEntity
  8
営業図
  6
CONTINUOUS
 62
    54
100
AcDbLine
 10
351.8030303026783
 20
17.4495561563984
 30
0.0
 11
350.7424242420734
 21
18.51016221700335
 31
0.0
  0
LINE
  5
3AC
330
1F
100
AcDbEntity
  8
営業図
  6
CONTINUOUS
 62
    54
100
AcDbLine
 10
351.8030303026778
 20
17.74954085144749
 30
0.0
 11
350.7424242420734
 21
18.81014691205193
 31
0.0
  0
LINE
  5
3AD
330
1F
100
AcDbEntity
  8
営業図
  6
CONTINUOUS
 62
    54
100
AcDbLine
 10
351.8030303026786
 20
18.04952554649517
 30
0.0
 11
350.7416706895975
 21
19.11088515957631
 31
0.0
  0
LINE
  5
3AE
330
1F
100
AcDbEntity
  8
営業図
  6
CONTINUOUS
 62
    54
100
AcDbLine
 10
351.8030303026781
 20
18.34951024154427
 30
0.0
 11
349.8135952632744
 21
20.33894528094794
 31
0.0
  0
LINE
  5
3AF
330
1F
100
AcDbEntity
  8
営業図
  6
CONTINUOUS
 62
    54
100
AcDbLine
 10
351.8030303026775
 20
18.64949493659333
 30
0.0
 11
350.0485481031865
 21
20.4039771360843
 31
0.0
  0
LINE
  5
3B0
330
1F
100
AcDbEntity
  8
営業図
  6
CONTINUOUS
 62
    54
100
AcDbLine
 10
351.8030303026783
 20
18.94947963164107
 30
0.0
 11
350.335843267672
 21
20.41666666664744
 31
0.0
  0
LINE
  5
3B1
330
1F
100
AcDbEntity
  8
営業図
  6
CONTINUOUS
 62
    54
100
AcDbLine
 10
351.8030303026778
 20
19.24946432669013
 30
0.0
 11
350.635827962721
 21
20.41666666664687
 31
0.0
  0
LINE
  5
3B2
330
1F
100
AcDbEntity
  8
営業図
  6
CONTINUOUS
 62
    54
100
AcDbLine
 10
351.7809030366124
 20
19.57157628780399
 30
0.0
 11
350.9579399238362
 21
20.39453940058021
 31
0.0
  0
LINE
  5
3B3
330
1F
100
AcDbEntity
  8
営業図
  6
CONTINUOUS
 62
    54
100
AcDbLine
 10
350.501446278884
 20
19.35110957028981
 30
0.0
 11
351.3650290540373
 21
20.21469234544315
 31
0.0
  0
LINE
  5
3B4
330
1F
100
AcDbEntity
  8
営業図
  6
CONTINUOUS
 62
    54
100
AcDbLine
 10
350.501446278884
 20
19.35110957028981
 30
0.0
 11
349.6179486274814
 21
20.23460722169244
 31
0.0
  0
LINE
  5
3B5
330
1F
100
AcDbEntity
  8
営業図
  6
CONTINUOUS
 62
    54
100
AcDbLine
 10
350.6939947133972
 20
19.24367330975455
 30
0.0
 11
351.5236827525104
 21
20.07336134886773
 31
0.0
  0
LINE
  5
3B6
330
1F
100
AcDbEntity
  8
営業図
  6
CONTINUOUS
 62
    54
100
AcDbLine
 10
350.7424242420734
 20
18.9921181433822
 30
0.0
 11
351.6519455258832
 21
19.90163942719204
 31
0.0
  0
LINE
  5
3B7
330
1F
100
AcDbEntity
  8
営業図
  6
CONTINUOUS
 62
    54
100
AcDbLine
 10
350.7424242420734
 20
18.69213344833368
 30
0.0
 11
351.7468778135747
 21
19.69658701983494
 31
0.0
  0
LINE
  5
3B8
330
1F
100
AcDbEntity
  8
営業図
  6
CONTINUOUS
 62
    54
100
AcDbLine
 10
350.2821395012979
 20
19.27043165282735
 30
0.0
 11
349.4543947609482
 21
20.09817639317716
 31
0.0
  0
LINE
  5
3B9
330
1F
100
AcDbEntity
  8
営業図
  6
CONTINUOUS
 62
    54
100
AcDbLine
 10
350.2121212117709
 20
19.04046524730586
 30
0.0
 11
349.3211506330929
 21
19.93143582598382
 31
0.0
  0
LINE
  5
3BA
330
1F
100
AcDbEntity
  8
営業図
  6
CONTINUOUS
 62
    54
100
AcDbLine
 10
350.2121212117709
 20
18.74048055225739
 30
0.0
 11
349.2204394483863
 21
19.73216231564192
 31
0.0
  0
LINE
  5
3BB
330
1F
100
AcDbEntity
  8
営業図
  6
CONTINUOUS
 62
    54
100
AcDbLine
 10
350.2121212117709
 20
18.44049585720883
 30
0.0
 11
349.1603035643531
 21
19.49231350462666
 31
0.0
  0
LINE
  5
3BC
330
1F
100
AcDbEntity
  8
営業図
  6
CONTINUOUS
 62
    54
100
AcDbLine
 10
350.2121212117709
 20
18.14051116216034
 30
0.0
 11
349.1515151511671
 21
19.20111722276412
 31
0.0
  0
LINE
  5
3BD
330
1F
100
AcDbEntity
  8
営業図
  6
CONTINUOUS
 62
    54
100
AcDbLine
 10
350.2121212117709
 20
17.84052646711181
 30
0.0
 11
349.1515151511663
 21
18.90113252771641
 31
0.0
  0
LINE
  5
3BE
330
1F
100
AcDbEntity
  8
営業図
  6
CONTINUOUS
 62
    54
100
AcDbLine
 10
350.2121212117709
 20
17.54054177206331
 30
0.0
 11
349.1515151511668
 21
18.60114783266735
 31
0.0
  0
LINE
  5
3BF
330
1F
100
AcDbEntity
  8
営業図
  6
CONTINUOUS
 62
    54
100
AcDbLine
 10
350.2121212117709
 20
17.24055707701479
 30
0.0
 11
349.1515151511674
 21
18.30116313761828
 31
0.0
  0
LINE
  5
3C0
330
1F
100
AcDbEntity
  8
営業図
  6
CONTINUOUS
 62
    54
100
AcDbLine
 10
350.2121212117709
 20
16.94057238196621
 30
0.0
 11
349.1515151511666
 21
18.00117844257055
 31
0.0
  0
LINE
  5
3C1
330
1F
100
AcDbEntity
  8
営業図
  6
CONTINUOUS
 62
    54
100
AcDbLine
 10
350.2121212117709
 20
16.64058768691778
 30
0.0
 11
349.1515151511658
 21
17.70119374752286
 31
0.0
  0
LINE
  5
3C2
330
1F
100
AcDbEntity
  8
営業図
  6
CONTINUOUS
 62
    54
100
AcDbLine
 10
350.2121212117709
 20
16.34060299186919
 30
0.0
 11
349.1515151511663
 21
17.40120905247377
 31
0.0
  0
LINE
  5
3C3
330
1F
100
AcDbEntity
  8
営業図
  6
CONTINUOUS
 62
    54
100
AcDbLine
 10
350.2121212117709
 20
16.04061829682073
 30
0.0
 11
349.1515151511669
 21
17.10122435742471
 31
0.0
  0
LINE
  5
3C4
330
1F
100
AcDbEntity
  8
営業図
  6
CONTINUOUS
 62
    54
100
AcDbLine
 10
350.2121212117709
 20
15.74063360177214
 30
0.0
 11
349.1515151511674
 21
16.80123966237561
 31
0.0
  0
LINE
  5
3C5
330
1F
100
AcDbEntity
  8
営業図
  6
CONTINUOUS
 62
    54
100
AcDbLine
 10
350.2121212117709
 20
15.44064890672367
 30
0.0
 11
349.1515151511666
 21
16.5012549673279
 31
0.0
  0
LINE
  5
3C6
330
1F
100
AcDbEntity
  8
営業図
  6
CONTINUOUS
 62
    54
100
AcDbLine
 10
350.2121212117709
 20
15.14066421167505
 30
0.0
 11
349.1515151511671
 21
16.2012702722788
 31
0.0
  0
LINE
  5
3C7
330
1F
100
AcDbEntity
  8
営業図
  6
CONTINUOUS
 62
    54
100
AcDbLine
 10
350.2121212117709
 20
14.84067951662654
 30
0.0
 11
349.1515151511663
 21
15.9012855772311
 31
0.0
  0
LINE
  5
3C8
330
1F
100
AcDbEntity
  8
営業図
  6
CONTINUOUS
 62
    54
100
AcDbLine
 10
350.2121212117709
 20
14.54069482157806
 30
0.0
 11
349.1515151511669
 21
15.60130088218203
 31
0.0
  0
LINE
  5
3C9
330
1F
100
AcDbEntity
  8
営業図
  6
CONTINUOUS
 62
    54
100
AcDbLine
 10
350.2121212117709
 20
14.2407101265295
 30
0.0
 11
349.1515151511675
 21
15.30131618713293
 31
0.0
  0
LINE
  5
3CA
330
1F
100
AcDbEntity
  8
営業図
  6
CONTINUOUS
 62
    54
100
AcDbLine
 10
350.7424242420734
 20
14.19236302260589
 30
0.0
 11
351.8030303026783
 21
15.25296908321084
 31
0.0
  0
LINE
  5
3CB
330
1F
100
AcDbEntity
  8
営業図
  6
CONTINUOUS
 62
    54
100
AcDbLine
 10
350.7424242420734
 20
14.49234771765436
 30
0.0
 11
351.8030303026776
 21
15.55295377825855
 31
0.0
  0
LINE
  5
3CC
330
1F
100
AcDbEntity
  8
営業図
  6
CONTINUOUS
 62
    54
100
AcDbLine
 10
350.7424242420734
 20
14.79233241270287
 30
0.0
 11
351.8030303026767
 21
15.85293847330626
 31
0.0
  0
LINE
  5
3CD
330
1F
100
AcDbEntity
  8
営業図
  6
CONTINUOUS
 62
    54
100
AcDbLine
 10
350.7424242420734
 20
15.09231710775142
 30
0.0
 11
351.8030303026787
 21
16.15292316835671
 31
0.0
  0
LINE
  5
3CE
330
1F
100
AcDbEntity
  8
営業図
  6
CONTINUOUS
 62
    54
100
AcDbLine
 10
350.7424242420734
 20
15.39230180279995
 30
0.0
 11
351.8030303026778
 21
16.45290786340442
 31
0.0
  0
LINE
  5
3CF
330
1F
100
AcDbEntity
  8
営業図
  6
CONTINUOUS
 62
    54
100
AcDbLine
 10
350.7424242420734
 20
15.69228649784846
 30
0.0
 11
351.8030303026784
 21
16.75289255845349
 31
0.0
  0
LINE
  5
3D0
330
1F
100
AcDbEntity
  8
営業図
  6
CONTINUOUS
 62
    54
100
AcDbLine
 10
350.7424242420734
 20
15.99227119289698
 30
0.0
 11
351.8030303026776
 21
17.05287725350122
 31
0.0
  0
LINE
  5
3D1
330
1F
100
AcDbEntity
  8
営業図
  6
CONTINUOUS
 62
    54
100
AcDbLine
 10
350.7424242420734
 20
16.29225588794553
 30
0.0
 11
351.8030303026767
 21
17.35286194854891
 31
0.0
  0
LINE
  5
3D2
330
1F
100
AcDbEntity
  8
営業図
  6
CONTINUOUS
 62
    54
100
AcDbLine
 10
350.7424242420734
 20
16.59224058299403
 30
0.0
 11
351.8030303026787
 21
17.65284664359935
 31
0.0
  0
LINE
  5
3D3
330
1F
100
AcDbEntity
  8
営業図
  6
CONTINUOUS
 62
    54
100
AcDbLine
 10
350.7424242420734
 20
16.89222527804255
 30
0.0
 11
351.8030303026779
 21
17.95283133864707
 31
0.0
  0
LINE
  5
3D4
330
1F
100
AcDbEntity
  8
営業図
  6
CONTINUOUS
 62
    54
100
AcDbLine
 10
350.7424242420734
 20
17.19220997309107
 30
0.0
 11
351.8030303026784
 21
18.25281603369616
 31
0.0
  0
LINE
  5
3D5
330
1F
100
AcDbEntity
  8
営業図
  6
CONTINUOUS
 62
    54
100
AcDbLine
 10
350.7424242420734
 20
17.4921946681396
 30
0.0
 11
351.8030303026776
 21
18.55280072874384
 31
0.0
  0
LINE
  5
3D6
330
1F
100
AcDbEntity
  8
営業図
  6
CONTINUOUS
 62
    54
100
AcDbLine
 10
350.7424242420734
 20
17.7921793631881
 30
0.0
 11
351.8030303026795
 21
18.85278542379432
 31
0.0
  0
LINE
  5
3D7
330
1F
100
AcDbEntity
  8
営業図
  6
CONTINUOUS
 62
    54
100
AcDbLine
 10
350.7424242420734
 20
18.09216405823664
 30
0.0
 11
351.8030303026787
 21
19.152770118842
 31
0.0
  0
LINE
  5
3D8
330
1F
100
AcDbEntity
  8
営業図
  6
CONTINUOUS
 62
    54
100
AcDbLine
 10
350.7424242420734
 20
18.39214875328513
 30
0.0
 11
351.7989766293905
 21
19.44870114060226
 31
0.0
  0
LINE
  5
3D9
330
1F
100
AcDbEntity
  8
営業図
  6
CONTINUOUS
 62
   134
100
AcDbLine
 10
12.72727272726
 20
21.2121212121
 30
0.0
 11
617.2727272721099
 21
21.2121212121
 31
0.0
  0
LINE
  5
3DA
330
1F
100
AcDbEntity
  8
営業図
  6
CONTINUOUS
 62
    94
100
AcDbLine
 10
12.72727272726
 20
10.60606060605
 30
0.0
 11
617.2727272721099
 21
10.60606060605
 31
0.0
  0
LINE
  5
3DB
330
1F
100
AcDbEntity
  8
営業図
  6
CONTINUOUS
 62
   134
100
AcDbLine
 10
12.72727272726
 20
434.84848484805
 30
0.0
 11
12.72727272726
 21
10.60606060605
 31
0.0
  0
LINE
  5
3DC
330
1F
100
AcDbEntity
  8
営業図
  6
CONTINUOUS
 62
   134
100
AcDbLine
 10
617.2727272721099
 20
10.60606060605
 30
0.0
 11
617.2727272721099
 21
434.84848484805
 31
0.0
  0
LINE
  5
3DD
330
1F
100
AcDbEntity
  8
営業図
  6
CONTINUOUS
 62
   134
100
AcDbLine
 10
617.2727272721099
 20
434.84848484805
 30
0.0
 11
12.72727272726
 21
434.84848484805
 31
0.0
  0
LINE
  5
3DE
330
1F
100
AcDbEntity
  8
営業図
  6
CONTINUOUS
 62
    54
100
AcDbLine
 10
594.999999999405
 20
21.2121212121
 30
0.0
 11
594.999999999405
 21
10.60606060605
 31
0.0
  0
LINE
  5
3DF
330
1F
100
AcDbEntity
  8
営業図
  6
CONTINUOUS
 62
    54
100
AcDbLine
 10
589.6969696963799
 20
21.2121212121
 30
0.0
 11
589.6969696963799
 21
10.60606060605
 31
0.0
  0
LINE
  5
3E0
330
1F
100
AcDbEntity
  8
営業図
  6
CONTINUOUS
 62
    54
100
AcDbLine
 10
568.48484848428
 20
21.2121212121
 30
0.0
 11
568.48484848428
 21
10.60606060605
 31
0.0
  0
LINE
  5
3E1
330
1F
100
AcDbEntity
  8
営業図
  6
CONTINUOUS
 62
    54
100
AcDbLine
 10
563.181818181255
 20
21.2121212121
 30
0.0
 11
563.181818181255
 21
10.60606060605
 31
0.0
  0
LINE
  5
3E2
330
1F
100
AcDbEntity
  8
営業図
  6
CONTINUOUS
 62
    54
100
AcDbLine
 10
478.3333333328549
 20
21.2121212121
 30
0.0
 11
478.3333333328549
 21
10.60606060605
 31
0.0
  0
LINE
  5
3E3
330
1F
100
AcDbEntity
  8
営業図
  6
CONTINUOUS
 62
    54
100
AcDbLine
 10
473.03030302983
 20
21.2121212121
 30
0.0
 11
473.03030302983
 21
10.60606060605
 31
0.0
  0
LINE
  5
3E4
330
1F
100
AcDbEntity
  8
営業図
  6
CONTINUOUS
 62
   134
100
AcDbLine
 10
425.303030302605
 20
21.2121212121
 30
0.0
 11
425.303030302605
 21
10.60606060605
 31
0.0
  0
LINE
  5
3E5
330
1F
100
AcDbEntity
  8
営業図
  6
CONTINUOUS
 62
   134
100
AcDbLine
 10
329.848484848155
 20
21.2121212121
 30
0.0
 11
329.848484848155
 21
10.60606060605
 31
0.0
  0
LINE
  5
3E6
330
1F
100
AcDbEntity
  8
営業図
  6
CONTINUOUS
 62
    54
100
AcDbLine
 10
336.424242423906
 20
20.41666666664625
 30
0.0
 11
338.0151515148132
 21
20.41666666664625
 31
0.0
  0
LINE
  5
3E7
330
1F
100
AcDbEntity
  8
営業図
  6
CONTINUOUS
 62
    54
100
AcDbLine
 10
336.424242423906
 20
11.40151515150375
 30
0.0
 11
338.0151515148132
 21
11.40151515150375
 31
0.0
  0
LINE
  5
3E8
330
1F
100
AcDbEntity
  8
営業図
  6
CONTINUOUS
 62
    54
100
AcDbLine
 10
336.424242423906
 20
11.40151515150375
 30
0.0
 11
336.424242423906
 21
20.41666666664625
 31
0.0
  0
LINE
  5
3E9
330
1F
100
AcDbEntity
  8
営業図
  6
CONTINUOUS
 62
    54
100
AcDbLine
 10
337.4848484845111
 20
19.35606060604125
 30
0.0
 11
337.4848484845111
 21
12.46212121210877
 31
0.0
  0
LINE
  5
3EA
330
1F
100
AcDbEntity
  8
営業図
  6
CONTINUOUS
 62
    54
100
AcDbLine
 10
339.0757575754184
 20
19.35606060604125
 30
0.0
 11
339.0757575754184
 21
12.46212121210877
 31
0.0
  0
LINE
  5
3EB
330
1F
100
AcDbEntity
  8
営業図
  6
CONTINUOUS
 62
    54
100
AcDbLine
 10
338.0151515148132
 20
18.82575757573874
 30
0.0
 11
338.0151515148132
 21
12.99242424241127
 31
0.0
  0
LINE
  5
3EC
330
1F
100
AcDbEntity
  8
営業図
  6
CONTINUOUS
 62
    54
100
AcDbLine
 10
339.6060606057209
 20
19.35606060604125
 30
0.0
 11
339.6060606057209
 21
11.40151515150375
 31
0.0
  0
LINE
  5
3ED
330
1F
100
AcDbEntity
  8
営業図
  6
CONTINUOUS
 62
    54
100
AcDbLine
 10
342.2575757572333
 20
19.35606060604125
 30
0.0
 11
342.2575757572333
 21
11.40151515150375
 31
0.0
  0
LINE
  5
3EE
330
1F
100
AcDbEntity
  8
営業図
  6
CONTINUOUS
 62
    54
100
AcDbLine
 10
340.6666666663257
 20
19.09090909088988
 30
0.0
 11
340.6666666663257
 21
14.05303030301746
 31
0.0
  0
LINE
  5
3EF
330
1F
100
AcDbEntity
  8
営業図
  6
CONTINUOUS
 62
    54
100
AcDbLine
 10
341.1969696966283
 20
19.09090909088988
 30
0.0
 11
341.1969696966283
 21
14.05303030301746
 31
0.0
  0
LINE
  5
3F0
330
1F
100
AcDbEntity
  8
営業図
  6
CONTINUOUS
 62
    54
100
AcDbLine
 10
342.7878787875359
 20
20.41666666664625
 30
0.0
 11
342.7878787875359
 21
11.40151515150375
 31
0.0
  0
LINE
  5
3F1
330
1F
100
AcDbEntity
  8
営業図
  6
CONTINUOUS
 62
    54
100
AcDbLine
 10
343.8484848481409
 20
20.41666666664625
 30
0.0
 11
343.8484848481409
 21
11.40151515150375
 31
0.0
  0
LINE
  5
3F2
330
1F
100
AcDbEntity
  8
営業図
  6
CONTINUOUS
 62
    54
100
AcDbLine
 10
344.3787878784433
 20
20.41666666664625
 30
0.0
 11
344.3787878784433
 21
12.46212121210877
 31
0.0
  0
LINE
  5
3F3
330
1F
100
AcDbEntity
  8
営業図
  6
CONTINUOUS
 62
    54
100
AcDbLine
 10
345.4393939390484
 20
20.41666666664625
 30
0.0
 11
345.4393939390484
 21
12.72727272726001
 31
0.0
  0
LINE
  5
3F4
330
1F
100
AcDbEntity
  8
営業図
  6
CONTINUOUS
 62
    54
100
AcDbLine
 10
345.9696969693509
 20
20.41666666664625
 30
0.0
 11
345.9696969693509
 21
12.72727272726001
 31
0.0
  0
LINE
  5
3F5
330
1F
100
AcDbEntity
  8
営業図
  6
CONTINUOUS
 62
    54
100
AcDbLine
 10
347.0303030299559
 20
20.41666666664625
 30
0.0
 11
347.0303030299559
 21
12.72727272726001
 31
0.0
  0
LINE
  5
3F6
330
1F
100
AcDbEntity
  8
営業図
  6
CONTINUOUS
 62
    54
100
AcDbLine
 10
347.5606060602584
 20
20.41666666664625
 30
0.0
 11
347.5606060602584
 21
12.72727272726001
 31
0.0
  0
LINE
  5
3F7
330
1F
100
AcDbEntity
  8
営業図
  6
CONTINUOUS
 62
    54
100
AcDbLine
 10
348.6212121208634
 20
20.41666666664625
 30
0.0
 11
348.6212121208634
 21
12.46212121210876
 31
0.0
  0
LINE
  5
3F8
330
1F
100
AcDbEntity
  8
営業図
  6
CONTINUOUS
 62
    54
100
AcDbLine
 10
349.1515151511659
 20
19.35606060604125
 30
0.0
 11
349.1515151511659
 21
11.40151515150375
 31
0.0
  0
LINE
  5
3F9
330
1F
100
AcDbEntity
  8
営業図
  6
CONTINUOUS
 62
    54
100
AcDbLine
 10
350.2121212117709
 20
19.09090909088988
 30
0.0
 11
350.2121212117709
 21
14.05303030301746
 31
0.0
  0
LINE
  5
3FA
330
1F
100
AcDbEntity
  8
営業図
  6
CONTINUOUS
 62
    54
100
AcDbLine
 10
350.7424242420734
 20
19.09090909088988
 30
0.0
 11
350.7424242420734
 21
14.05303030301746
 31
0.0
  0
LINE
  5
3FB
330
1F
100
AcDbEntity
  8
営業図
  6
CONTINUOUS
 62
    54
100
AcDbLine
 10
351.8030303026784
 20
19.35606060604125
 30
0.0
 11
351.8030303026784
 21
11.40151515150375
 31
0.0
  0
ARC
  5
3FC
330
1F
100
AcDbEntity
  8
営業図
  6
CONTINUOUS
 62
    54
100
AcDbCircle
 10
338.0151515148132
 20
19.35606060604125
 30
0.0
 40
1.060606060605182
100
AcDbArc
 50
0.0
 51
90.00000000000001
  0
ARC
  5
3FD
330
1F
100
AcDbEntity
  8
営業図
  6
CONTINUOUS
 62
    54
100
AcDbCircle
 10
337.4848484845107
 20
18.82575757573874
 30
0.0
 40
0.5303030303025
100
AcDbArc
 50
0.0
 51
90.00000000000001
  0
ARC
  5
3FE
330
1F
100
AcDbEntity
  8
営業図
  6
CONTINUOUS
 62
    54
100
AcDbCircle
 10
340.6666666663257
 20
19.35606060604125
 30
0.0
 40
1.060606060605008
100
AcDbArc
 50
90.00000000000001
 51
180.0
  0
ARC
  5
3FF
330
1F
100
AcDbEntity
  8
営業図
  6
CONTINUOUS
 62
    54
100
AcDbCircle
 10
341.1969696966283
 20
19.35606060604125
 30
0.0
 40
1.060606060605
100
AcDbArc
 50
0.0
 51
90.00000000000001
  0
ARC
  5
400
330
1F
100
AcDbEntity
  8
営業図
  6
CONTINUOUS
 62
    54
100
AcDbCircle
 10
340.9318181814771
 20
19.09090909088988
 30
0.0
 40
0.265151515151372
100
AcDbArc
 50
0.0
 51
180.0
  0
LINE
  5
401
330
1F
100
AcDbEntity
  8
営業図
  6
CONTINUOUS
 62
    54
100
AcDbLine
 10
340.6666666663257
 20
12.99242424241127
 30
0.0
 11
341.1969696966283
 21
12.99242424241127
 31
0.0
  0
LINE
  5
402
330
1F
100
AcDbEntity
  8
営業図
  6
CONTINUOUS
 62
    54
100
AcDbLine
 10
340.6666666663257
 20
14.05303030301746
 30
0.0
 11
341.1969696966283
 21
14.05303030301746
 31
0.0
  0
ARC
  5
403
330
1F
100
AcDbEntity
  8
営業図
  6
CONTINUOUS
 62
    54
100
AcDbCircle
 10
345.4393939390484
 20
12.46212121210877
 30
0.0
 40
1.060606060605
100
AcDbArc
 50
180.0
 51
270.0000000000002
  0
ARC
  5
404
330
1F
100
AcDbEntity
  8
営業図
  6
CONTINUOUS
 62
    54
100
AcDbCircle
 10
347.5606060602584
 20
12.46212121210877
 30
0.0
 40
1.060606060605015
100
AcDbArc
 50
270.0000000000002
 51
0.0
  0
ARC
  5
405
330
1F
100
AcDbEntity
  8
営業図
  6
CONTINUOUS
 62
    54
100
AcDbCircle
 10
347.2954545451071
 20
12.72727272726001
 30
0.0
 40
0.26515151515125
100
AcDbArc
 50
180.0
 51
0.0
  0
ARC
  5
406
330
1F
100
AcDbEntity
  8
営業図
  6
CONTINUOUS
 62
    54
100
AcDbCircle
 10
345.7045454541997
 20
12.72727272726001
 30
0.0
 40
0.26515151515125
100
AcDbArc
 50
180.0
 51
0.0
  0
ARC
  5
407
330
1F
100
AcDbEntity
  8
営業図
  6
CONTINUOUS
 62
    54
100
AcDbCircle
 10
347.2954545451071
 20
12.46212121210877
 30
0.0
 40
1.060606060605015
100
AcDbArc
 50
221.4096221092724
 51
270.0000000000002
  0
ARC
  5
408
330
1F
100
AcDbEntity
  8
営業図
  6
CONTINUOUS
 62
    54
100
AcDbCircle
 10
345.7045454541997
 20
12.46212121210877
 30
0.0
 40
1.060606060605015
100
AcDbArc
 50
270.0000000000002
 51
318.5903778907276
  0
ARC
  5
409
330
1F
100
AcDbEntity
  8
営業図
  6
CONTINUOUS
 62
    54
100
AcDbCircle
 10
337.4848484845107
 20
12.99242424241126
 30
0.0
 40
0.5303030303025
100
AcDbArc
 50
270.0000000000002
 51
0.0
  0
ARC
  5
40A
330
1F
100
AcDbEntity
  8
営業図
  6
CONTINUOUS
 62
    54
100
AcDbCircle
 10
338.0151515148132
 20
12.46212121210876
 30
0.0
 40
1.060606060605182
100
AcDbArc
 50
270.0000000000002
 51
0.0
  0
ARC
  5
40B
330
1F
100
AcDbEntity
  8
営業図
  6
CONTINUOUS
 62
    54
100
AcDbCircle
 10
350.2121212117707
 20
19.35606060604125
 30
0.0
 40
1.060606060605008
100
AcDbArc
 50
90.00000000000001
 51
180.0
  0
ARC
  5
40C
330
1F
100
AcDbEntity
  8
営業図
  6
CONTINUOUS
 62
    54
100
AcDbCircle
 10
350.7424242420734
 20
19.35606060604125
 30
0.0
 40
1.060606060605
100
AcDbArc
 50
0.0
 51
90.00000000000001
  0
ARC
  5
40D
330
1F
100
AcDbEntity
  8
営業図
  6
CONTINUOUS
 62
    54
100
AcDbCircle
 10
350.477272726922
 20
19.09090909088988
 30
0.0
 40
0.265151515151372
100
AcDbArc
 50
0.0
 51
180.0
  0
LINE
  5
40E
330
1F
100
AcDbEntity
  8
営業図
  6
CONTINUOUS
 62
    54
100
AcDbLine
 10
350.2121212117707
 20
12.99242424241127
 30
0.0
 11
350.7424242420734
 21
12.99242424241127
 31
0.0
  0
LINE
  5
40F
330
1F
100
AcDbEntity
  8
営業図
  6
CONTINUOUS
 62
    54
100
AcDbLine
 10
350.2121212117707
 20
14.05303030301746
 30
0.0
 11
350.7424242420734
 21
14.05303030301746
 31
0.0
  0
LINE
  5
410
330
1F
100
AcDbEntity
  8
営業図
  6
CONTINUOUS
 62
    54
100
AcDbLine
 10
340.6666666663257
 20
20.41666666664625
 30
0.0
 11
341.1969696966283
 21
20.41666666664625
 31
0.0
  0
LINE
  5
411
330
1F
100
AcDbEntity
  8
営業図
  6
CONTINUOUS
 62
    54
100
AcDbLine
 10
340.6666666663257
 20
12.99242424241127
 30
0.0
 11
340.6666666663257
 21
11.40151515150375
 31
0.0
  0
LINE
  5
412
330
1F
100
AcDbEntity
  8
営業図
  6
CONTINUOUS
 62
    54
100
AcDbLine
 10
341.1969696966283
 20
12.99242424241127
 30
0.0
 11
341.1969696966283
 21
11.40151515150375
 31
0.0
  0
LINE
  5
413
330
1F
100
AcDbEntity
  8
営業図
  6
CONTINUOUS
 62
    54
100
AcDbLine
 10
339.6060606057209
 20
11.40151515150375
 30
0.0
 11
340.6666666663257
 21
11.40151515150375
 31
0.0
  0
LINE
  5
414
330
1F
100
AcDbEntity
  8
営業図
  6
CONTINUOUS
 62
    54
100
AcDbLine
 10
341.1969696966283
 20
11.40151515150375
 30
0.0
 11
342.2575757572333
 21
11.40151515150375
 31
0.0
  0
LINE
  5
415
330
1F
100
AcDbEntity
  8
営業図
  6
CONTINUOUS
 62
    54
100
AcDbLine
 10
342.7878787875359
 20
11.40151515150375
 30
0.0
 11
343.8484848481409
 21
11.40151515150375
 31
0.0
  0
LINE
  5
416
330
1F
100
AcDbEntity
  8
営業図
  6
CONTINUOUS
 62
    54
100
AcDbLine
 10
342.7878787875359
 20
20.41666666664625
 30
0.0
 11
343.8484848481409
 21
20.41666666664625
 31
0.0
  0
LINE
  5
417
330
1F
100
AcDbEntity
  8
営業図
  6
CONTINUOUS
 62
    54
100
AcDbLine
 10
344.3787878784433
 20
20.41666666664625
 30
0.0
 11
345.4393939390484
 21
20.41666666664625
 31
0.0
  0
LINE
  5
418
330
1F
100
AcDbEntity
  8
営業図
  6
CONTINUOUS
 62
    54
100
AcDbLine
 10
345.9696969693509
 20
20.41666666664625
 30
0.0
 11
347.0303030299559
 21
20.41666666664625
 31
0.0
  0
LINE
  5
419
330
1F
100
AcDbEntity
  8
営業図
  6
CONTINUOUS
 62
    54
100
AcDbLine
 10
347.5606060602584
 20
20.41666666664625
 30
0.0
 11
348.6212121208634
 21
20.41666666664625
 31
0.0
  0
LINE
  5
41A
330
1F
100
AcDbEntity
  8
営業図
  6
CONTINUOUS
 62
    54
100
AcDbLine
 10
350.2121212117707
 20
20.41666666664625
 30
0.0
 11
350.7424242420734
 21
20.41666666664625
 31
0.0
  0
LINE
  5
41B
330
1F
100
AcDbEntity
  8
営業図
  6
CONTINUOUS
 62
    54
100
AcDbLine
 10
345.4393939390484
 20
11.40151515150375
 30
0.0
 11
345.7045454541997
 21
11.40151515150375
 31
0.0
  0
LINE
  5
41C
330
1F
100
AcDbEntity
  8
営業図
  6
CONTINUOUS
 62
    54
100
AcDbLine
 10
347.2954545451071
 20
11.40151515150375
 30
0.0
 11
347.5606060602584
 21
11.40151515150375
 31
0.0
  0
LINE
  5
41D
330
1F
100
AcDbEntity
  8
営業図
  6
CONTINUOUS
 62
    54
100
AcDbLine
 10
349.1515151511659
 20
11.40151515150375
 30
0.0
 11
350.2121212117709
 21
11.40151515150375
 31
0.0
  0
LINE
  5
41E
330
1F
100
AcDbEntity
  8
営業図
  6
CONTINUOUS
 62
    54
100
AcDbLine
 10
350.7424242420734
 20
11.40151515150375
 30
0.0
 11
351.8030303026784
 21
11.40151515150375
 31
0.0
  0
LINE
  5
41F
330
1F
100
AcDbEntity
  8
営業図
  6
CONTINUOUS
 62
    54
100
AcDbLine
 10
350.2121212117709
 20
12.99242424241127
 30
0.0
 11
350.2121212117709
 21
11.40151515150375
 31
0.0
  0
LINE
  5
420
330
1F
100
AcDbEntity
  8
営業図
  6
CONTINUOUS
 62
    54
100
AcDbLine
 10
350.7424242420734
 20
12.99242424241127
 30
0.0
 11
350.7424242420734
 21
11.40151515150375
 31
0.0
  0
TEXT
  5
421
330
1F
100
AcDbEntity
  8
営業図
  6
CONTINUOUS
 62
    54
100
AcDbText
 10
358.4185606056721
 20
13.986846984075
 30
0.0
 40
4.0925199
  1
大 和 建 工 株 式 会 社
 41
0.6977778186480044
  7
EXCADSTD
 72
     5
 11
417.9535606056721
 21
13.986846984075
 31
0.0
100
AcDbText
  0
TEXT
  5
422
330
1F
100
AcDbEntity
  8
営業図
  6
CONTINUOUS
 62
    54
100
AcDbText
 10
456.0606060601501
 20
18.534090909075
 30
0.0
 40
3.559322033898305
  1
月
  7
EXCADVERT
 72
     3
 11
456.0606060601501
 21
13.284090909075
 31
0.0
100
AcDbText
  0
TEXT
  5
423
330
1F
100
AcDbEntity
  8
営業図
  6
CONTINUOUS
 62
    54
100
AcDbText
 10
441.3181818177406
 20
18.534090909075
 30
0.0
 40
3.43586387434555
  1
年
  7
EXCADVERT
 72
     3
 11
441.3181818177406
 21
13.284090909075
 31
0.0
100
AcDbText
  0
TEXT
  5
424
330
1F
100
AcDbEntity
  8
営業図
  6
CONTINUOUS
 62
    54
100
AcDbText
 10
470.90909090862
 20
18.534090909075
 30
0.0
 40
4.038461538461538
  1
日
  7
EXCADVERT
 72
     3
 11
470.90909090862
 21
13.284090909075
 31
0.0
100
AcDbText
  0
TEXT
  5
425
330
1F
100
AcDbEntity
  8
営業図
  6
CONTINUOUS
 62
    54
100
AcDbText
 10
592.8522727266825
 20
21.159090909075
 30
0.0
 40
7.251381215469613
  1
図面
  7
EXCADVERT
 72
     3
 11
592.8522727266825
 21
10.659090909075
 31
0.0
100
AcDbText
  0
TEXT
  5
426
330
1F
100
AcDbEntity
  8
営業図
  6
CONTINUOUS
 62
    54
100
AcDbText
 10
566.4431818176181
 20
21.159090909075
 30
0.0
 40
6.748071979434447
  1
尺度
  7
EXCADVERT
 72
     3
 11
566.4431818176181
 21
10.659090909075
 31
0.0
100
AcDbText
  0
TEXT
  5
427
330
1F
100
AcDbEntity
  8
営業図
  6
CONTINUOUS
 62
    54
100
AcDbText
 10
475.5757575752819
 20
21.159090909075
 30
0.0
 40
6.778566817301484
  1
名称
  7
EXCADVERT
 72
     3
 11
475.5757575752819
 21
10.659090909075
 31
0.0
100
AcDbText
  0
ENDSEC
  0
SECTION
  2
OBJECTS
  0
DICTIONARY
  5
C
330
0
100
AcDbDictionary
  3
ACAD_GROUP
350
D
  3
ACAD_LAYOUT
350
1A
  3
ACAD_MATERIAL
350
43
  3
ACAD_MLEADERSTYLE
350
6B
  3
ACAD_MLINESTYLE
350
17
  3
ACAD_PLOTSETTINGS
350
19
  3
ACAD_SCALELIST
350
47
  3
ACAD_VISUALSTYLE
350
2A
  3
ACDBHEADERROUNDTRIPXREC
350
428
  3
ACDBVARIABLEDICTIONARY
350
449
  0
DICTIONARY
  5
452
330
8
100
AcDbDictionary
280
     1
  3
ACAD_XREC_ROUNDTRIP
360
453
  0
DICTIONARY
  5
D
102
{ACAD_REACTORS
330
C
102
}
330
C
100
AcDbDictionary
  0
DICTIONARY
  5
1A
102
{ACAD_REACTORS
330
C
102
}
330
C
100
AcDbDictionary
  0
DICTIONARY
  5
43
102
{ACAD_REACTORS
330
C
102
}
330
C
100
AcDbDictionary
  3
BYBLOCK
350
45
  3
BYLAYER
350
44
  3
GLOBAL
350
46
  0
DICTIONARY
  5
6B
102
{ACAD_REACTORS
330
C
102
}
330
C
100
AcDbDictionary
  3
STANDARD
350
6C
  0
DICTIONARY
  5
17
102
{ACAD_REACTORS
330
C
102
}
330
C
100
AcDbDictionary
  3
STANDARD
350
18
  0
DICTIONARY
  5
19
102
{ACAD_REACTORS
330
C
102
}
330
C
100
AcDbDictionary
  0
DICTIONARY
  5
47
102
{ACAD_REACTORS
330
C
102
}
330
C
100
AcDbDictionary
  3
A0
350
48
  3
A1
350
49
  3
A2
350
4A
  3
A3
350
4B
  3
A4
350
4C
  3
A5
350
4D
  3
A6
350
4E
  3
A7
350
4F
  3
A8
350
50
  3
A9
350
51
  3
B0
350
52
  3
B1
350
53
  3
B2
350
54
  3
B3
350
55
  3
B4
350
56
  3
B5
350
57
  3
B6
350
58
  3
B7
350
59
  3
B8
350
5A
  3
B9
350
5B
  3
C0
350
5C
  3
C1
350
5D
  3
C2
350
5E
  3
C3
350
5F
  3
C4
350
60
  3
C5
350
61
  3
C6
350
62
  3
C7
350
63
  3
C8
350
64
  3
C9
350
65
  3
D0
350
66
  3
D1
350
67
  3
D2
350
68
  0
DICTIONARY
  5
2A
102
{ACAD_REACTORS
330
C
102
}
330
C
100
AcDbDictionary
  3
2DWIREFRAME
350
2F
  3
BASIC
350
32
  3
BRIGHTEN
350
36
  3
COLORCHANGE
350
3A
  3
CONCEPTUAL
350
34
  3
DIM
350
35
  3
EDGECOLOROFF
350
3D
  3
FACEPATTERN
350
39
  3
FLAT
350
2B
  3
FLATWITHEDGES
350
2C
  3
GOURAUD
350
2D
  3
GOURAUDWITHEDGES
350
2E
  3
HIDDEN
350
31
  3
JITTEROFF
350
3B
  3
LINEPATTERN
350
38
  3
OVERHANGOFF
350
3C
  3
REALISTIC
350
33
  3
SHADED
350
42
  3
SHADED_WITH_EDGES
350
41
  3
SHADES_OF_GRAY
350
3E
  3
SKETCHY
350
3F
  3
THICKEN
350
37
  3
WIREFRAME
350
30
  3
X-RAY
350
40
  0
DICTIONARY
  5
428
102
{ACAD_REACTORS
330
C
102
}
330
C
100
AcDbDictionary
  3
CEPSNID
350
432
  3
CEPSNTYPE
350
431
  3
DIMSTYLEDATA
350
448
  3
FINGERPRINTGUID
350
433
  3
HYPERLINKBASE
350
42B
  3
INSUNITS
350
430
  3
LAYOUTDICT
350
42D
  3
LWETCUNION
350
42F
  3
PLOTSETDICT
350
42E
  3
PSVPSCALE
350
435
  3
PUCSBASE
350
438
  3
PUCSORGBACK
350
43E
  3
PUCSORGBOTTOM
350
43A
  3
PUCSORGFRONT
350
43D
  3
PUCSORGLEFT
350
43B
  3
PUCSORGRIGHT
350
43C
  3
PUCSORGTOP
350
439
  3
PUCSORTHOREF
350
436
  3
PUCSORTHOVIEW
350
437
  3
STYLESHEET
350
42C
  3
TSTACKALIGN
350
429
  3
TSTACKSIZE
350
42A
  3
UCSBASE
350
441
  3
UCSORGBACK
350
447
  3
UCSORGBOTTOM
350
443
  3
UCSORGFRONT
350
446
  3
UCSORGLEFT
350
444
  3
UCSORGRIGHT
350
445
  3
UCSORGTOP
350
442
  3
UCSORTHOREF
350
43F
  3
UCSORTHOVIEW
350
440
  3
VERSIONGUID
350
434
  0
DICTIONARY
  5
449
102
{ACAD_REACTORS
330
C
102
}
330
C
100
AcDbDictionary
  3
CANNOSCALE
350
454
  3
CMLEADERSTYLE
350
44B
  3
CTABLESTYLE
350
44A
  3
DIMASSOC
350
450
  3
HIDETEXT
350
451
  3
MSLTSCALE
350
455
  3
PSOLHEIGHT
350
44D
  3
PSOLWIDTH
350
44C
  0
XRECORD
  5
453
102
{ACAD_REACTORS
330
452
102
}
330
452
100
AcDbXrecord
102
VTR_0.000_0.000_1.000_1.000_VISUALSTYLE
340
2F
102
VTR_0.000_0.000_1.000_1.000_GRIDDISPLAY
 70
     3
102
VTR_0.000_0.000_1.000_1.000_GRIDMAJOR
 70
     5
102
VTR_0.000_0.000_1.000_1.000_DEFAULTLIGHTING
280
     1
102
VTR_0.000_0.000_1.000_1.000_DEFAULTLIGHTINGTYPE
 70
     1
102
VTR_0.000_0.000_1.000_1.000_BRIGHTNESS
141
0.0
102
VTR_0.000_0.000_1.000_1.000_CONTRAST
142
0.0
  0
MATERIAL
  5
45
102
{ACAD_REACTORS
330
43
102
}
102
{ACAD_XDICTIONARY
360
458
102
}
330
43
100
AcDbMaterial
  1
BYBLOCK
  0
MATERIAL
  5
44
102
{ACAD_REACTORS
330
43
102
}
102
{ACAD_XDICTIONARY
360
456
102
}
330
43
100
AcDbMaterial
  1
BYLAYER
  0
MATERIAL
  5
46
102
{ACAD_REACTORS
330
43
102
}
102
{ACAD_XDICTIONARY
360
45A
102
}
330
43
100
AcDbMaterial
  1
GLOBAL
  0
ACAD_PROXY_OBJECT
  5
6C
102
{ACAD_REACTORS
330
6B
102
}
330
6B
100
AcDbProxyObject
 90
      499
 91
      505
 93
      610
310
40901902A4063FBFFFFFE0000000000000020400000000000020404214DD185B99185C990000000000000104090141901A00000000000004100000000000000041025764000000000000039000
340
14
340
0
340
11
340
0
 94
        0
1001
ACAD_MLEADERVER
1070
     2
  0
MLINESTYLE
  5
18
102
{ACAD_REACTORS
330
17
102
}
330
17
100
AcDbMlineStyle
  2
Standard
 70
     0
  3

 62
   256
 51
90.0
 52
90.0
 71
     2
 49
0.5
 62
   256
  6
BYLAYER
 49
-0.5
 62
   256
  6
BYLAYER
  0
ACAD_PROXY_OBJECT
  5
48
102
{ACAD_REACTORS
330
47
102
}
330
47
100
AcDbProxyObject
 90
      499
 91
      503
 93
       41
310
903313A31580
  0
ACAD_PROXY_OBJECT
  5
49
102
{ACAD_REACTORS
330
47
102
}
330
47
100
AcDbProxyObject
 90
      499
 91
      503
 93
      105
310
903313A324000000000000004000
  0
ACAD_PROXY_OBJECT
  5
4A
102
{ACAD_REACTORS
330
47
102
}
330
47
100
AcDbProxyObject
 90
      499
 91
      503
 93
      105
310
903313A344000000000000104000
  0
ACAD_PROXY_OBJECT
  5
4B
102
{ACAD_REACTORS
330
47
102
}
330
47
100
AcDbProxyObject
 90
      499
 91
      503
 93
      105
310
903313A354000000000000144000
  0
ACAD_PROXY_OBJECT
  5
4C
102
{ACAD_REACTORS
330
47
102
}
330
47
100
AcDbProxyObject
 90
      499
 91
      503
 93
      105
310
903313A384000000000000204000
  0
ACAD_PROXY_OBJECT
  5
4D
102
{ACAD_REACTORS
330
47
102
}
330
47
100
AcDbProxyObject
 90
      499
 91
      503
 93
      113
310
904313A31304000000000000244000
  0
ACAD_PROXY_OBJECT
  5
4E
102
{ACAD_REACTORS
330
47
102
}
330
47
100
AcDbProxyObject
 90
      499
 91
      503
 93
      113
310
904313A31364000000000000304000
  0
ACAD_PROXY_OBJECT
  5
4F
102
{ACAD_REACTORS
330
47
102
}
330
47
100
AcDbProxyObject
 90
      499
 91
      503
 93
      113
310
904313A32304000000000000344000
  0
ACAD_PROXY_OBJECT
  5
50
102
{ACAD_REACTORS
330
47
102
}
330
47
100
AcDbProxyObject
 90
      499
 91
      503
 93
      113
310
904313A333040000000000003E4000
  0
ACAD_PROXY_OBJECT
  5
51
102
{ACAD_REACTORS
330
47
102
}
330
47
100
AcDbProxyObject
 90
      499
 91
      503
 93
      113
310
904313A34304000000000000444000
  0
ACAD_PROXY_OBJECT
  5
52
102
{ACAD_REACTORS
330
47
102
}
330
47
100
AcDbProxyObject
 90
      499
 91
      503
 93
      113
310
904313A35304000000000000494000
  0
ACAD_PROXY_OBJECT
  5
53
102
{ACAD_REACTORS
330
47
102
}
330
47
100
AcDbProxyObject
 90
      499
 91
      503
 93
      121
310
905313A3130304000000000000594000
  0
ACAD_PROXY_OBJECT
  5
54
102
{ACAD_REACTORS
330
47
102
}
330
47
100
AcDbProxyObject
 90
      499
 91
      503
 93
      105
310
903323A310000000000000010100
  0
ACAD_PROXY_OBJECT
  5
55
102
{ACAD_REACTORS
330
47
102
}
330
47
100
AcDbProxyObject
 90
      499
 91
      503
 93
      105
310
903343A310000000000000410100
  0
ACAD_PROXY_OBJECT
  5
56
102
{ACAD_REACTORS
330
47
102
}
330
47
100
AcDbProxyObject
 90
      499
 91
      503
 93
      105
310
903383A310000000000000810100
  0
ACAD_PROXY_OBJECT
  5
57
102
{ACAD_REACTORS
330
47
102
}
330
47
100
AcDbProxyObject
 90
      499
 91
      503
 93
      113
310
90431303A310000000000000910100
  0
ACAD_PROXY_OBJECT
  5
58
102
{ACAD_REACTORS
330
47
102
}
330
47
100
AcDbProxyObject
 90
      499
 91
      503
 93
      121
310
9053130303A310000000000001650100
  0
ACAD_PROXY_OBJECT
  5
59
102
{ACAD_REACTORS
330
47
102
}
330
47
100
AcDbProxyObject
 90
      499
 91
      503
 93
      257
310
90E312F31323822203D2031272D3022000000000000200FC000000000000284000
  0
ACAD_PROXY_OBJECT
  5
5A
102
{ACAD_REACTORS
330
47
102
}
330
47
100
AcDbProxyObject
 90
      499
 91
      503
 93
      249
310
90D312F363422203D2031272D3022000000000000240FC000000000000284000
  0
ACAD_PROXY_OBJECT
  5
5B
102
{ACAD_REACTORS
330
47
102
}
330
47
100
AcDbProxyObject
 90
      499
 91
      503
 93
      249
310
90D312F333222203D2031272D3022000000000000280FC000000000000284000
  0
ACAD_PROXY_OBJECT
  5
5C
102
{ACAD_REACTORS
330
47
102
}
330
47
100
AcDbProxyObject
 90
      499
 91
      503
 93
      249
310
90D312F313622203D2031272D30220000000000002C0FC000000000000284000
  0
ACAD_PROXY_OBJECT
  5
5D
102
{ACAD_REACTORS
330
47
102
}
330
47
100
AcDbProxyObject
 90
      499
 91
      503
 93
      249
310
90D332F333222203D2031272D30220000000000002E0FC000000000000284000
  0
ACAD_PROXY_OBJECT
  5
5E
102
{ACAD_REACTORS
330
47
102
}
330
47
100
AcDbProxyObject
 90
      499
 91
      503
 93
      241
310
90C312F3822203D2031272D3022000000000000300FC000000000000284000
  0
ACAD_PROXY_OBJECT
  5
5F
102
{ACAD_REACTORS
330
47
102
}
330
47
100
AcDbProxyObject
 90
      499
 91
      503
 93
      249
310
90D332F313622203D2031272D3022000000000000320FC000000000000284000
  0
ACAD_PROXY_OBJECT
  5
60
102
{ACAD_REACTORS
330
47
102
}
330
47
100
AcDbProxyObject
 90
      499
 91
      503
 93
      241
310
90C312F3422203D2031272D3022000000000000340FC000000000000284000
  0
ACAD_PROXY_OBJECT
  5
61
102
{ACAD_REACTORS
330
47
102
}
330
47
100
AcDbProxyObject
 90
      499
 91
      503
 93
      241
310
90C332F3822203D2031272D3022000000000000360FC000000000000284000
  0
ACAD_PROXY_OBJECT
  5
62
102
{ACAD_REACTORS
330
47
102
}
330
47
100
AcDbProxyObject
 90
      499
 91
      503
 93
      241
310
90C312F3222203D2031272D3022000000000000380FC000000000000284000
  0
ACAD_PROXY_OBJECT
  5
63
102
{ACAD_REACTORS
330
47
102
}
330
47
100
AcDbProxyObject
 90
      499
 91
      503
 93
      241
310
90C332F3422203D2031272D30220000000000003A0FC000000000000284000
  0
ACAD_PROXY_OBJECT
  5
64
102
{ACAD_REACTORS
330
47
102
}
330
47
100
AcDbProxyObject
 90
      499
 91
      503
 93
      161
310
90A3122203D2031272D30224000000000000284000
  0
ACAD_PROXY_OBJECT
  5
65
102
{ACAD_REACTORS
330
47
102
}
330
47
100
AcDbProxyObject
 90
      499
 91
      503
 93
      257
310
90E312D312F3222203D2031272D30220000000000003E0FC000000000000284000
  0
ACAD_PROXY_OBJECT
  5
66
102
{ACAD_REACTORS
330
47
102
}
330
47
100
AcDbProxyObject
 90
      499
 91
      503
 93
      225
310
90A3322203D2031272D302200000000000002100000000000000284000
  0
ACAD_PROXY_OBJECT
  5
67
102
{ACAD_REACTORS
330
47
102
}
330
47
100
AcDbProxyObject
 90
      499
 91
      503
 93
      225
310
90A3622203D2031272D302200000000000006100000000000000284000
  0
ACAD_PROXY_OBJECT
  5
68
102
{ACAD_REACTORS
330
47
102
}
330
47
100
AcDbProxyObject
 90
      499
 91
      503
 93
      249
310
90D31272D3022203D2031272D30220000000000000A100000000000000284000
  0
ACAD_PROXY_OBJECT
  5
2F
102
{ACAD_REACTORS
330
2A
102
}
330
2A
100
AcDbProxyObject
 90
      499
 91
      501
 93
      436
310
42CC9915DA5C99599C985B595049028333333333333E33F0000000000000F90107901411070040501600405405064090741402480A0340
1001
ACAD
1000
AcDbSavedByObjectVersion
1070
     0
  0
ACAD_PROXY_OBJECT
  5
32
102
{ACAD_REACTORS
330
2A
102
}
330
2A
100
AcDbProxyObject
 90
      499
 91
      501
 93
      388
310
4150985CDA58D07406404333333333333E33F0000000000000F90107A41107004050150841D405064090741402480A0350
1001
ACAD
1000
AcDbSavedByObjectVersion
1070
     0
  0
ACAD_PROXY_OBJECT
  5
36
102
{ACAD_REACTORS
330
2A
102
}
330
2A
100
AcDbProxyObject
 90
      499
 91
      501
 93
      428
310
42109C9A59DA1D195B90C409028333333333333E33F0000000000000F9010790141107004050150841D405064090741402480A029950
1001
ACAD
1000
AcDbSavedByObjectVersion
1070
     0
  0
ACAD_PROXY_OBJECT
  5
3A
102
{ACAD_REACTORS
330
2A
102
}
330
2A
100
AcDbProxyObject
 90
      499
 91
      501
 93
      452
310
42D0DBDB1BDC90DA185B99D95104090240C333333333333E33F0000000000000F90108901411070040501508421405064090741402480A0350
1001
ACAD
1000
AcDbSavedByObjectVersion
1070
     0
  0
ACAD_PROXY_OBJECT
  5
34
102
{ACAD_REACTORS
330
2A
102
}
330
2A
100
AcDbProxyObject
 90
      499
 91
      501
 93
      500
310
4290DBDB98D95C1D1D585B10940D028333333333333E33F0000000000000F90107902409070040501000000000018199010841D405064090740C02480A0340
1001
ACAD
1000
AcDbSavedByObjectVersion
1070
     0
  0
ACAD_PROXY_OBJECT
  5
35
102
{ACAD_REACTORS
330
2A
102
}
330
2A
100
AcDbProxyObject
 90
      499
 91
      501
 93
      412
310
40D11A5B50B409028333333333333E33F0000000000000F9010790141107004050150841D405064090741402480A02677FFFFFD0
1001
ACAD
1000
AcDbSavedByObjectVersion
1070
     0
  0
ACAD_PROXY_OBJECT
  5
3D
102
{ACAD_REACTORS
330
2A
102
}
330
2A
100
AcDbProxyObject
 90
      499
 91
      501
 93
      452
310
43115919D950DBDB1BDC93D999916409028333333333333E33F0000000000000F9010790141107004050150841D405064090741402480A0350
1001
ACAD
1000
AcDbSavedByObjectVersion
1070
     0
  0
ACAD_PROXY_OBJECT
  5
39
102
{ACAD_REACTORS
330
2A
102
}
330
2A
100
AcDbProxyObject
 90
      499
 91
      501
 93
      444
310
42D19858D95C185D1D195C9B90F409028333333333333E33F0000000000000F9010790141107004050150841D405064090741402480A0350
1001
ACAD
1000
AcDbSavedByObjectVersion
1070
     0
  0
ACAD_PROXY_OBJECT
  5
2B
102
{ACAD_REACTORS
330
2A
102
}
330
2A
100
AcDbProxyObject
 90
      499
 91
      501
 93
      380
310
41119B185D240901404333333333333E33F0000000000000F9010740A907004050150841D405064090741402480A1B50
1001
ACAD
1000
AcDbSavedByObjectVersion
1070
     0
  0
ACAD_PROXY_OBJECT
  5
2C
102
{ACAD_REACTORS
330
2A
102
}
330
2A
100
AcDbProxyObject
 90
      499
 91
      501
 93
      468
310
43519B185D15DA5D1A115919D95CD0140901404333333333333E33F0000000000000F90107409019070040501600405405064090741402480A1B50
1001
ACAD
1000
AcDbSavedByObjectVersion
1070
     0
  0
ACAD_PROXY_OBJECT
  5
2D
102
{ACAD_REACTORS
330
2A
102
}
330
2A
100
AcDbProxyObject
 90
      499
 91
      501
 93
      404
310
41D1DBDD5C985D5910240902404333333333333E33F0000000000000F9010740A9070040501641D405064090741402480A1B50
1001
ACAD
1000
AcDbSavedByObjectVersion
1070
     0
  0
ACAD_PROXY_OBJECT
  5
2E
102
{ACAD_REACTORS
330
2A
102
}
330
2A
100
AcDbProxyObject
 90
      499
 91
      501
 93
      492
310
4411DBDD5C985D5915DA5D1A115919D95CD0340902404333333333333E33F0000000000000F90107409019070040501600405405064090741402480A1B50
1001
ACAD
1000
AcDbSavedByObjectVersion
1070
     0
  0
ACAD_PROXY_OBJECT
  5
31
102
{ACAD_REACTORS
330
2A
102
}
330
2A
100
AcDbProxyObject
 90
      499
 91
      501
 93
      476
310
41921A5919195B90640502408333333333333E33F0000000000000F901079024090700405020000000000001110200405405064090740C02480A0340
1001
ACAD
1000
AcDbSavedByObjectVersion
1070
     0
  0
ACAD_PROXY_OBJECT
  5
3B
102
{ACAD_REACTORS
330
2A
102
}
330
2A
100
AcDbProxyObject
 90
      499
 91
      501
 93
      428
310
42529A5D1D195C93D999914409028333333333333E33F0000000000000F9010790141107004050150A41D405064090741402480A0350
1001
ACAD
1000
AcDbSavedByObjectVersion
1070
     0
  0
ACAD_PROXY_OBJECT
  5
38
102
{ACAD_REACTORS
330
2A
102
}
330
2A
100
AcDbProxyObject
 90
      499
 91
      501
 93
      444
310
42D31A5B995C185D1D195C9B90E409028333333333333E33F0000000000000F9010790141107004050750841D405064090741402483A0350
1001
ACAD
1000
AcDbSavedByObjectVersion
1070
     0
  0
ACAD_PROXY_OBJECT
  5
3C
102
{ACAD_REACTORS
330
2A
102
}
330
2A
100
AcDbProxyObject
 90
      499
 91
      501
 93
      444
310
42D3DD995C9A185B99D3D999915409028333333333333E33F0000000000000F9010790141107004050150941D405064090741402480A0350
1001
ACAD
1000
AcDbSavedByObjectVersion
1070
     0
  0
ACAD_PROXY_OBJECT
  5
33
102
{ACAD_REACTORS
330
2A
102
}
330
2A
100
AcDbProxyObject
 90
      499
 91
      501
 93
      428
310
425499585B1A5CDD1A58D08409038333333333333E33F0000000000000F9010740A907004050150800405405064090740C02480A1B40
1001
ACAD
1000
AcDbSavedByObjectVersion
1070
     0
  0
ACAD_PROXY_OBJECT
  5
42
102
{ACAD_REACTORS
330
2A
102
}
330
2A
100
AcDbProxyObject
 90
      499
 91
      501
 93
      420
310
4194DA1859195911B40902404333333333333E33F0000000000000F9010740A41107004050150800405405064090840C02480A0B40
1001
ACAD
1000
AcDbSavedByObjectVersion
1070
     0
  0
ACAD_PROXY_OBJECT
  5
41
102
{ACAD_REACTORS
330
2A
102
}
330
2A
100
AcDbProxyObject
 90
      499
 91
      501
 93
      516
310
4454DA18591959081DDA5D1A08195919D95CD1A40902404333333333333E33F0000000000000F901074090142907004050250800405405064090740C02480A0B40
1001
ACAD
1000
AcDbSavedByObjectVersion
1070
     0
  0
ACAD_PROXY_OBJECT
  5
3E
102
{ACAD_REACTORS
330
2A
102
}
330
2A
100
AcDbProxyObject
 90
      499
 91
      501
 93
      532
310
4394DA1859195CC81BD98811DC985E5174090240C333333333333E33F0000000000000F901079024090741D01000000000000111010841D405064090740C02480A0340
1001
ACAD
1000
AcDbSavedByObjectVersion
1070
     0
  0
ACAD_PROXY_OBJECT
  5
3F
102
{ACAD_REACTORS
330
2A
102
}
330
2A
100
AcDbProxyObject
 90
      499
 91
      501
 93
      476
310
41D4DAD95D18DA1E51840502408333333333333E33F0000000000000F901079024090741D01000000000000111010B41D405064090741802480A0340
1001
ACAD
1000
AcDbSavedByObjectVersion
1070
     0
  0
ACAD_PROXY_OBJECT
  5
37
102
{ACAD_REACTORS
330
2A
102
}
330
2A
100
AcDbProxyObject
 90
      499
 91
      501
 93
      412
310
41D51A1A58DAD95B90D409028333333333333E33F0000000000000F9010790141107004050150C41D405064090741402480A0350
1001
ACAD
1000
AcDbSavedByObjectVersion
1070
     0
  0
ACAD_PROXY_OBJECT
  5
30
102
{ACAD_REACTORS
330
2A
102
}
330
2A
100
AcDbProxyObject
 90
      499
 91
      501
 93
      420
310
4255DA5C99599C985B595059028333333333333E33F0000000000000F90107901411070040501600405405064090740C02480A0340
1001
ACAD
1000
AcDbSavedByObjectVersion
1070
     0
  0
ACAD_PROXY_OBJECT
  5
40
102
{ACAD_REACTORS
330
2A
102
}
330
2A
100
AcDbProxyObject
 90
      499
 91
      501
 93
      404
310
41560B54985E51940902404000000000000E03F0000000000000F9010740501907004050150841D405064090740C02480A1B40
1001
ACAD
1000
AcDbSavedByObjectVersion
1070
     0
  0
XRECORD
  5
432
102
{ACAD_REACTORS
330
428
102
}
330
428
100
AcDbXrecord
340
0
  0
XRECORD
  5
431
102
{ACAD_REACTORS
330
428
102
}
330
428
100
AcDbXrecord
 90
        0
  0
XRECORD
  5
448
102
{ACAD_REACTORS
330
428
102
}
330
428
100
AcDbXrecord
1000
DSTYLE
1002
{
1070
   340
340
11
1002
}
  0
XRECORD
  5
433
102
{ACAD_REACTORS
330
428
102
}
330
428
100
AcDbXrecord
  1
{4BCBB73A-ADDD-477B-853D-99D7CDE4FB4E}
  0
XRECORD
  5
42B
102
{ACAD_REACTORS
330
428
102
}
330
428
100
AcDbXrecord
  1

  0
XRECORD
  5
430
102
{ACAD_REACTORS
330
428
102
}
330
428
100
AcDbXrecord
 90
        4
  0
XRECORD
  5
42D
102
{ACAD_REACTORS
330
428
102
}
330
428
100
AcDbXrecord
340
1A
  0
XRECORD
  5
42F
102
{ACAD_REACTORS
330
428
102
}
330
428
100
AcDbXrecord
 90
    10781
  0
XRECORD
  5
42E
102
{ACAD_REACTORS
330
428
102
}
330
428
100
AcDbXrecord
340
19
  0
XRECORD
  5
435
102
{ACAD_REACTORS
330
428
102
}
330
428
100
AcDbXrecord
 40
0.0
  0
XRECORD
  5
438
102
{ACAD_REACTORS
330
428
102
}
330
428
100
AcDbXrecord
340
0
  0
XRECORD
  5
43E
102
{ACAD_REACTORS
330
428
102
}
330
428
100
AcDbXrecord
 10
0.0
 20
0.0
 30
0.0
  0
XRECORD
  5
43A
102
{ACAD_REACTORS
330
428
102
}
330
428
100
AcDbXrecord
 10
0.0
 20
0.0
 30
0.0
  0
XRECORD
  5
43D
102
{ACAD_REACTORS
330
428
102
}
330
428
100
AcDbXrecord
 10
0.0
 20
0.0
 30
0.0
  0
XRECORD
  5
43B
102
{ACAD_REACTORS
330
428
102
}
330
428
100
AcDbXrecord
 10
0.0
 20
0.0
 30
0.0
  0
XRECORD
  5
43C
102
{ACAD_REACTORS
330
428
102
}
330
428
100
AcDbXrecord
 10
0.0
 20
0.0
 30
0.0
  0
XRECORD
  5
439
102
{ACAD_REACTORS
330
428
102
}
330
428
100
AcDbXrecord
 10
0.0
 20
0.0
 30
0.0
  0
XRECORD
  5
436
102
{ACAD_REACTORS
330
428
102
}
330
428
100
AcDbXrecord
340
0
  0
XRECORD
  5
437
102
{ACAD_REACTORS
330
428
102
}
330
428
100
AcDbXrecord
 70
     0
  0
XRECORD
  5
42C
102
{ACAD_REACTORS
330
428
102
}
330
428
100
AcDbXrecord
  1

  0
XRECORD
  5
429
102
{ACAD_REACTORS
330
428
102
}
330
428
100
AcDbXrecord
 90
        1
  0
XRECORD
  5
42A
102
{ACAD_REACTORS
330
428
102
}
330
428
100
AcDbXrecord
 90
       70
  0
XRECORD
  5
441
102
{ACAD_REACTORS
330
428
102
}
330
428
100
AcDbXrecord
340
0
  0
XRECORD
  5
447
102
{ACAD_REACTORS
330
428
102
}
330
428
100
AcDbXrecord
 10
0.0
 20
0.0
 30
0.0
  0
XRECORD
  5
443
102
{ACAD_REACTORS
330
428
102
}
330
428
100
AcDbXrecord
 10
0.0
 20
0.0
 30
0.0
  0
XRECORD
  5
446
102
{ACAD_REACTORS
330
428
102
}
330
428
100
AcDbXrecord
 10
0.0
 20
0.0
 30
0.0
  0
XRECORD
  5
444
102
{ACAD_REACTORS
330
428
102
}
330
428
100
AcDbXrecord
 10
0.0
 20
0.0
 30
0.0
  0
XRECORD
  5
445
102
{ACAD_REACTORS
330
428
102
}
330
428
100
AcDbXrecord
 10
0.0
 20
0.0
 30
0.0
  0
XRECORD
  5
442
102
{ACAD_REACTORS
330
428
102
}
330
428
100
AcDbXrecord
 10
0.0
 20
0.0
 30
0.0
  0
XRECORD
  5
43F
102
{ACAD_REACTORS
330
428
102
}
330
428
100
AcDbXrecord
340
0
  0
XRECORD
  5
440
102
{ACAD_REACTORS
330
428
102
}
330
428
100
AcDbXrecord
 70
     0
  0
XRECORD
  5
434
102
{ACAD_REACTORS
330
428
102
}
330
428
100
AcDbXrecord
  1
{FAEB1C32-E019-11D5-929B-00C0DF256EC4}
  0
DICTIONARYVAR
  5
454
102
{ACAD_REACTORS
330
449
102
}
330
449
100
DictionaryVariables
280
     0
  1
1:1
  0
DICTIONARYVAR
  5
44B
102
{ACAD_REACTORS
330
449
102
}
330
449
100
DictionaryVariables
280
     0
  1
Standard
  0
DICTIONARYVAR
  5
44A
102
{ACAD_REACTORS
330
449
102
}
330
449
100
DictionaryVariables
280
     0
  1
Standard
  0
DICTIONARYVAR
  5
450
102
{ACAD_REACTORS
330
449
102
}
330
449
100
DictionaryVariables
280
     0
  1
2
  0
DICTIONARYVAR
  5
451
102
{ACAD_REACTORS
330
449
102
}
330
449
100
DictionaryVariables
280
     0
  1
1
  0
DICTIONARYVAR
  5
455
102
{ACAD_REACTORS
330
449
102
}
330
449
100
DictionaryVariables
280
     0
  1
1
  0
DICTIONARYVAR
  5
44D
102
{ACAD_REACTORS
330
449
102
}
330
449
100
DictionaryVariables
280
     0
  1
80.000000
  0
DICTIONARYVAR
  5
44C
102
{ACAD_REACTORS
330
449
102
}
330
449
100
DictionaryVariables
280
     0
  1
5.000000
  0
DICTIONARY
  5
458
330
45
100
AcDbDictionary
280
     1
  3
ACAD_XREC_ROUNDTRIP
360
459
  0
DICTIONARY
  5
456
330
44
100
AcDbDictionary
280
     1
  3
ACAD_XREC_ROUNDTRIP
360
457
  0
DICTIONARY
  5
45A
330
46
100
AcDbDictionary
280
     1
  3
ACAD_XREC_ROUNDTRIP
360
45B
  0
XRECORD
  5
459
102
{ACAD_REACTORS
330
458
102
}
330
458
100
AcDbXrecord
102
MATERIAL
148
0.0
149
0.0
149
0.0
 93
        0
 94
      127
282
     0
 72
     1
 77
     1
171
     1
175
     1
179
     1
273
     0
  0
XRECORD
  5
457
102
{ACAD_REACTORS
330
456
102
}
330
456
100
AcDbXrecord
102
MATERIAL
148
0.0
149
0.0
149
0.0
 93
        0
 94
      127
282
     0
 72
     1
 77
     1
171
     1
175
     1
179
     1
273
     0
  0
XRECORD
  5
45B
102
{ACAD_REACTORS
330
45A
102
}
330
45A
100
AcDbXrecord
102
MATERIAL
148
0.0
149
0.0
149
0.0
 93
        0
 94
      127
282
     0
 72
     1
 77
     1
171
     1
175
     1
179
     1
273
     0
  0
ENDSEC
  0
EOF
