  0
SECTION
  2
HEADER
  9
$ACADVER
  1
AC1014
  9
$ACADMAINTVER
 70
     9
  9
$DWGCODEPAGE
  3
ANSI_932
  9
$INSBASE
 10
0.0
 20
0.0
 30
0.0
  9
$EXTMIN
 10
0.0
 20
0.0
 30
0.0
  9
$EXTMAX
 10
823.0303030294799
 20
579.7979797974
 30
0.0
  9
$LIMMIN
 10
0.0
 20
0.0
  9
$LIMMAX
 10
420.0
 20
297.0
  9
$ORTHOMODE
 70
     0
  9
$REGENMODE
 70
     1
  9
$FILLMODE
 70
     1
  9
$QTEXTMODE
 70
     0
  9
$MIRRTEXT
 70
     1
  9
$DRAGMODE
 70
     2
  9
$LTSCALE
 40
1.0
  9
$OSMODE
 70
    37
  9
$ATTMODE
 70
     1
  9
$TEXTSIZE
 40
2.5
  9
$TRACEWID
 40
1.0
  9
$TEXTSTYLE
  7
STANDARD
  9
$CLAYER
  8
営業図
  9
$CELTYPE
  6
BYLAYER
  9
$CECOLOR
 62
   256
  9
$CELTSCALE
 40
1.0
  9
$DELOBJ
 70
     1
  9
$DISPSILH
 70
     0
  9
$DIMSCALE
 40
1.0
  9
$DIMASZ
 40
2.5
  9
$DIMEXO
 40
0.625
  9
$DIMDLI
 40
3.75
  9
$DIMRND
 40
0.0
  9
$DIMDLE
 40
0.0
  9
$DIMEXE
 40
1.25
  9
$DIMTP
 40
0.0
  9
$DIMTM
 40
0.0
  9
$DIMTXT
 40
2.5
  9
$DIMCEN
 40
2.5
  9
$DIMTSZ
 40
0.0
  9
$DIMTOL
 70
     0
  9
$DIMLIM
 70
     0
  9
$DIMTIH
 70
     0
  9
$DIMTOH
 70
     0
  9
$DIMSE1
 70
     0
  9
$DIMSE2
 70
     0
  9
$DIMTAD
 70
     1
  9
$DIMZIN
 70
     8
  9
$DIMBLK
  1

  9
$DIMASO
 70
     1
  9
$DIMSHO
 70
     1
  9
$DIMPOST
  1

  9
$DIMAPOST
  1

  9
$DIMALT
 70
     0
  9
$DIMALTD
 70
     3
  9
$DIMALTF
 40
0.03937007874016
  9
$DIMLFAC
 40
1.0
  9
$DIMTOFL
 70
     1
  9
$DIMTVP
 40
0.0
  9
$DIMTIX
 70
     0
  9
$DIMSOXD
 70
     0
  9
$DIMSAH
 70
     0
  9
$DIMBLK1
  1

  9
$DIMBLK2
  1

  9
$DIMSTYLE
  2
ISO-25
  9
$DIMCLRD
 70
     0
  9
$DIMCLRE
 70
     0
  9
$DIMCLRT
 70
     0
  9
$DIMTFAC
 40
1.0
  9
$DIMGAP
 40
0.625
  9
$DIMJUST
 70
     0
  9
$DIMSD1
 70
     0
  9
$DIMSD2
 70
     0
  9
$DIMTOLJ
 70
     0
  9
$DIMTZIN
 70
     8
  9
$DIMALTZ
 70
     0
  9
$DIMALTTZ
 70
     0
  9
$DIMFIT
 70
     3
  9
$DIMUPT
 70
     0
  9
$DIMUNIT
 70
     2
  9
$DIMDEC
 70
     2
  9
$DIMTDEC
 70
     2
  9
$DIMALTU
 70
     2
  9
$DIMALTTD
 70
     3
  9
$DIMTXSTY
  7
STANDARD
  9
$DIMAUNIT
 70
     0
  9
$LUNITS
 70
     2
  9
$LUPREC
 70
     4
  9
$SKETCHINC
 40
1.0
  9
$FILLETRAD
 40
10.0
  9
$AUNITS
 70
     0
  9
$AUPREC
 70
     0
  9
$MENU
  1
.
  9
$ELEVATION
 40
0.0
  9
$PELEVATION
 40
0.0
  9
$THICKNESS
 40
0.0
  9
$LIMCHECK
 70
     0
  9
$CHAMFERA
 40
0.0
  9
$CHAMFERB
 40
0.0
  9
$CHAMFERC
 40
0.0
  9
$CHAMFERD
 40
0.0
  9
$SKPOLY
 70
     0
  9
$TDCREATE
 40
2457806.573240695
  9
$TDUPDATE
 40
2457806.573240776
  9
$TDINDWG
 40
0.0000000116
  9
$TDUSRTIMER
 40
0.0000000116
  9
$USRTIMER
 70
     1
  9
$ANGBASE
 50
0.0
  9
$ANGDIR
 70
     0
  9
$PDMODE
 70
     0
  9
$PDSIZE
 40
0.0
  9
$PLINEWID
 40
0.0
  9
$COORDS
 70
     1
  9
$SPLFRAME
 70
     0
  9
$SPLINETYPE
 70
     6
  9
$SPLINESEGS
 70
     8
  9
$ATTDIA
 70
     0
  9
$ATTREQ
 70
     1
  9
$HANDLING
 70
     1
  9
$HANDSEED
  5
452
  9
$SURFTAB1
 70
     6
  9
$SURFTAB2
 70
     6
  9
$SURFTYPE
 70
     6
  9
$SURFU
 70
     6
  9
$SURFV
 70
     6
  9
$UCSNAME
  2

  9
$UCSORG
 10
0.0
 20
0.0
 30
0.0
  9
$UCSXDIR
 10
1.0
 20
0.0
 30
0.0
  9
$UCSYDIR
 10
0.0
 20
1.0
 30
0.0
  9
$PUCSNAME
  2

  9
$PUCSORG
 10
0.0
 20
0.0
 30
0.0
  9
$PUCSXDIR
 10
1.0
 20
0.0
 30
0.0
  9
$PUCSYDIR
 10
0.0
 20
1.0
 30
0.0
  9
$USERI1
 70
     0
  9
$USERI2
 70
     0
  9
$USERI3
 70
     0
  9
$USERI4
 70
     0
  9
$USERI5
 70
     0
  9
$USERR1
 40
0.0
  9
$USERR2
 40
0.0
  9
$USERR3
 40
0.0
  9
$USERR4
 40
0.0
  9
$USERR5
 40
0.0
  9
$WORLDVIEW
 70
     1
  9
$SHADEDGE
 70
     3
  9
$SHADEDIF
 70
    70
  9
$TILEMODE
 70
     1
  9
$MAXACTVP
 70
    64
  9
$PINSBASE
 10
0.0
 20
0.0
 30
0.0
  9
$PLIMCHECK
 70
     0
  9
$PEXTMIN
 10
1.000000000000000E+20
 20
1.000000000000000E+20
 30
1.000000000000000E+20
  9
$PEXTMAX
 10
-1.000000000000000E+20
 20
-1.000000000000000E+20
 30
-1.000000000000000E+20
  9
$PLIMMIN
 10
0.0
 20
0.0
  9
$PLIMMAX
 10
420.0
 20
297.0
  9
$UNITMODE
 70
     0
  9
$VISRETAIN
 70
     1
  9
$PLINEGEN
 70
     0
  9
$PSLTSCALE
 70
     1
  9
$TREEDEPTH
 70
  3020
  9
$PICKSTYLE
 70
     1
  9
$CMLSTYLE
  2
STANDARD
  9
$CMLJUST
 70
     0
  9
$CMLSCALE
 40
20.0
  9
$PROXYGRAPHICS
 70
     1
  9
$MEASUREMENT
 70
     1
  0
ENDSEC
  0
SECTION
  2
CLASSES
  0
CLASS
  1
ACDBDICTIONARYWDFLT
  2
AcDbDictionaryWithDefault
  3
ObjectDBX Classes
 90
        0
280
     0
281
     0
  0
CLASS
  1
VISUALSTYLE
  2
AcDbVisualStyle
  3
ObjectDBX Classes
 90
     4095
280
     0
281
     0
  0
CLASS
  1
MATERIAL
  2
AcDbMaterial
  3
ObjectDBX Classes
 90
     1153
280
     0
281
     0
  0
CLASS
  1
SCALE
  2
AcDbScale
  3
ObjectDBX Classes
 90
     1153
280
     0
281
     0
  0
CLASS
  1
TABLESTYLE
  2
AcDbTableStyle
  3
ObjectDBX Classes
 90
     4095
280
     0
281
     0
  0
CLASS
  1
MLEADERSTYLE
  2
AcDbMLeaderStyle
  3
ACDB_MLEADERSTYLE_CLASS
 90
     4095
280
     0
281
     0
  0
CLASS
  1
SUN
  2
AcDbSun
  3
SCENEOE
 90
     1153
280
     0
281
     0
  0
CLASS
  1
DICTIONARYVAR
  2
AcDbDictionaryVar
  3
ObjectDBX Classes
 90
        0
280
     0
281
     0
  0
CLASS
  1
XRECORD
  2
AcDbXrecord
  3
ObjectDBX Classes
 90
        0
280
     0
281
     0
  0
CLASS
  1
LWPOLYLINE
  2
AcDbPolyline
  3
ObjectDBX Classes
 90
        0
280
     0
281
     1
  0
CLASS
  1
HATCH
  2
AcDbHatch
  3
ObjectDBX Classes
 90
        0
280
     0
281
     1
  0
CLASS
  1
ACDBPLACEHOLDER
  2
AcDbPlaceHolder
  3
ObjectDBX Classes
 90
        0
280
     0
281
     0
  0
CLASS
  1
LAYOUT
  2
AcDbLayout
  3
ObjectDBX Classes
 90
        0
280
     0
281
     0
  0
ENDSEC
  0
SECTION
  2
TABLES
  0
TABLE
  2
VPORT
  5
8
102
{ACAD_XDICTIONARY
360
447
102
}
330
0
100
AcDbSymbolTable
 70
     1
  0
VPORT
  5
29
330
8
100
AcDbSymbolTableRecord
100
AcDbViewportTableRecord
  2
*ACTIVE
 70
     0
 10
0.0
 20
0.0
 11
1.0
 21
1.0
 12
411.51515151474
 22
289.8989898987
 13
0.0
 23
0.0
 14
10.0
 24
10.0
 15
10.0
 25
10.0
 16
0.0
 26
0.0
 36
1.0
 17
0.0
 27
0.0
 37
0.0
 40
579.7979797974
 41
1.419512195121951
 42
50.0
 43
0.0
 44
0.0
 50
0.0
 51
0.0
 71
     0
 72
  1000
 73
     1
 74
     3
 75
     0
 76
     0
 77
     0
 78
     0
  0
ENDTAB
  0
TABLE
  2
LTYPE
  5
5
330
0
100
AcDbSymbolTable
 70
     7
  0
LTYPE
  5
14
330
5
100
AcDbSymbolTableRecord
100
AcDbLinetypeTableRecord
  2
BYBLOCK
 70
     0
  3

 72
    65
 73
     0
 40
0.0
  0
LTYPE
  5
15
330
5
100
AcDbSymbolTableRecord
100
AcDbLinetypeTableRecord
  2
BYLAYER
 70
     0
  3

 72
    65
 73
     0
 40
0.0
  0
LTYPE
  5
16
330
5
100
AcDbSymbolTableRecord
100
AcDbLinetypeTableRecord
  2
CONTINUOUS
 70
     0
  3
Solid line
 72
    65
 73
     0
 40
0.0
  0
LTYPE
  5
6E
330
5
100
AcDbSymbolTableRecord
100
AcDbLinetypeTableRecord
  2
EXLTYPE0
 70
     0
  3
破線
 72
    65
 73
     2
 40
4.0
 49
3.0
 74
     0
 49
-1.0
 74
     0
  0
LTYPE
  5
6F
330
5
100
AcDbSymbolTableRecord
100
AcDbLinetypeTableRecord
  2
EXLTYPE1
 70
     0
  3
点線
 72
    65
 73
     2
 40
2.0
 49
1.0
 74
     0
 49
-1.0
 74
     0
  0
LTYPE
  5
70
330
5
100
AcDbSymbolTableRecord
100
AcDbLinetypeTableRecord
  2
EXLTYPE2
 70
     0
  3
一点鎖線
 72
    65
 73
     4
 40
33.0
 49
30.0
 74
     0
 49
-1.0
 74
     0
 49
1.0
 74
     0
 49
-1.0
 74
     0
  0
LTYPE
  5
71
330
5
100
AcDbSymbolTableRecord
100
AcDbLinetypeTableRecord
  2
EXLTYPE3
 70
     0
  3
二点鎖線
 72
    65
 73
     6
 40
35.0
 49
30.0
 74
     0
 49
-1.0
 74
     0
 49
1.0
 74
     0
 49
-1.0
 74
     0
 49
1.0
 74
     0
 49
-1.0
 74
     0
  0
LTYPE
  5
72
330
5
100
AcDbSymbolTableRecord
100
AcDbLinetypeTableRecord
  2
EXLTYPE4
 70
     0
  3
三点鎖線
 72
    65
 73
     8
 40
37.0
 49
30.0
 74
     0
 49
-1.0
 74
     0
 49
1.0
 74
     0
 49
-1.0
 74
     0
 49
1.0
 74
     0
 49
-1.0
 74
     0
 49
1.0
 74
     0
 49
-1.0
 74
     0
  0
LTYPE
  5
73
330
5
100
AcDbSymbolTableRecord
100
AcDbLinetypeTableRecord
  2
EXLTYPE5
 70
     0
  3
四点鎖線
 72
    65
 73
    10
 40
39.0
 49
30.0
 74
     0
 49
-1.0
 74
     0
 49
1.0
 74
     0
 49
-1.0
 74
     0
 49
1.0
 74
     0
 49
-1.0
 74
     0
 49
1.0
 74
     0
 49
-1.0
 74
     0
 49
1.0
 74
     0
 49
-1.0
 74
     0
  0
ENDTAB
  0
TABLE
  2
LAYER
  5
2
330
0
100
AcDbSymbolTable
 70
     3
  0
LAYER
  5
10
330
2
100
AcDbSymbolTableRecord
100
AcDbLayerTableRecord
  2
0
 70
     0
 62
     7
  6
CONTINUOUS
  0
LAYER
  5
76
330
2
100
AcDbSymbolTableRecord
100
AcDbLayerTableRecord
  2
営業図
 70
     0
 62
     7
  6
CONTINUOUS
  0
LAYER
  5
13C
330
2
100
AcDbSymbolTableRecord
100
AcDbLayerTableRecord
  2
DEFPOINTS
 70
     0
 62
     7
  6
CONTINUOUS
  0
ENDTAB
  0
TABLE
  2
STYLE
  5
3
330
0
100
AcDbSymbolTable
 70
     4
  0
STYLE
  5
11
330
3
100
AcDbSymbolTableRecord
100
AcDbTextStyleTableRecord
  2
STANDARD
 70
     0
 40
0.0
 41
1.0
 50
0.0
 71
     0
 42
2.5
  3
monotxt
  4
extfont
  0
STYLE
  5
74
330
3
100
AcDbSymbolTableRecord
100
AcDbTextStyleTableRecord
  2
EXCADSTD
 70
     0
 40
0.0
 41
1.0
 50
0.0
 71
     0
 42
2.5
  3
monotxt
  4
extfont
  0
STYLE
  5
75
330
3
100
AcDbSymbolTableRecord
100
AcDbTextStyleTableRecord
  2
EXCADVERT
 70
     4
 40
0.0
 41
1.0
 50
0.0
 71
     0
 42
2.5
  3
monotxt
  4
extfont
  0
STYLE
  5
13A
330
3
100
AcDbSymbolTableRecord
100
AcDbTextStyleTableRecord
  2
EXCADDIM1
 70
     0
 40
0.0
 41
0.84
 50
0.0
 71
     0
 42
2.5
  3
monotxt
  4
extfont
  0
ENDTAB
  0
TABLE
  2
VIEW
  5
6
330
0
100
AcDbSymbolTable
 70
     0
  0
ENDTAB
  0
TABLE
  2
UCS
  5
7
330
0
100
AcDbSymbolTable
 70
     0
  0
ENDTAB
  0
TABLE
  2
APPID
  5
9
330
0
100
AcDbSymbolTable
 70
     2
  0
APPID
  5
12
330
9
100
AcDbSymbolTableRecord
100
AcDbRegAppTableRecord
  2
ACAD
 70
     0
  0
APPID
  5
451
330
9
100
AcDbSymbolTableRecord
100
AcDbRegAppTableRecord
  2
ACAD_MLEADERVER
 70
     0
  0
ENDTAB
  0
TABLE
  2
DIMSTYLE
  5
A
330
0
100
AcDbSymbolTable
 70
     1
  0
DIMSTYLE
105
27
102
{ACAD_REACTORS
330
13B
330
149
330
156
102
}
330
A
100
AcDbSymbolTableRecord
100
AcDbDimStyleTableRecord
  2
ISO-25
 70
     0
  3

  4

  5

  6

  7

 40
1.0
 41
2.5
 42
0.625
 43
3.75
 44
1.25
 45
0.0
 46
0.0
 47
0.0
 48
0.0
140
2.5
141
2.5
142
0.0
143
0.03937007874016
144
1.0
145
0.0
146
1.0
147
0.625
 71
     0
 72
     0
 73
     0
 74
     0
 75
     0
 76
     0
 77
     1
 78
     8
170
     0
171
     3
172
     1
173
     0
174
     0
175
     0
176
     0
177
     0
178
     0
270
     2
271
     2
272
     2
273
     2
274
     3
340
11
275
     0
280
     0
281
     0
282
     0
283
     0
284
     8
285
     0
286
     0
287
     5
288
     0
  0
ENDTAB
  0
TABLE
  2
BLOCK_RECORD
  5
1
330
0
100
AcDbSymbolTable
 70
    18
  0
BLOCK_RECORD
  5
1F
330
1
100
AcDbSymbolTableRecord
100
AcDbBlockTableRecord
  2
*MODEL_SPACE
  0
BLOCK_RECORD
  5
1B
330
1
100
AcDbSymbolTableRecord
100
AcDbBlockTableRecord
  2
*PAPER_SPACE
  0
BLOCK_RECORD
  5
77
330
1
100
AcDbSymbolTableRecord
100
AcDbBlockTableRecord
  2
EX_NORM
  0
BLOCK_RECORD
  5
7A
330
1
100
AcDbSymbolTableRecord
100
AcDbBlockTableRecord
  2
EX_BNORM
  0
BLOCK_RECORD
  5
7D
330
1
100
AcDbSymbolTableRecord
100
AcDbBlockTableRecord
  2
EX_BCIR
  0
BLOCK_RECORD
  5
80
330
1
100
AcDbSymbolTableRecord
100
AcDbBlockTableRecord
  2
EX_RCIVIL
  0
BLOCK_RECORD
  5
83
330
1
100
AcDbSymbolTableRecord
100
AcDbBlockTableRecord
  2
EX_SLANT
  0
BLOCK_RECORD
  5
86
330
1
100
AcDbSymbolTableRecord
100
AcDbBlockTableRecord
  2
EX_NONE
  0
BLOCK_RECORD
  5
89
330
1
100
AcDbSymbolTableRecord
100
AcDbBlockTableRecord
  2
EX_CIVIL
  0
BLOCK_RECORD
  5
8C
330
1
100
AcDbSymbolTableRecord
100
AcDbBlockTableRecord
  2
EX_WCIR
  0
BLOCK_RECORD
  5
8F
330
1
100
AcDbSymbolTableRecord
100
AcDbBlockTableRecord
  2
EX_WCIR2
  0
BLOCK_RECORD
  5
92
330
1
100
AcDbSymbolTableRecord
100
AcDbBlockTableRecord
  2
EX_WNORM
  0
BLOCK_RECORD
  5
95
330
1
100
AcDbSymbolTableRecord
100
AcDbBlockTableRecord
  2
EX_NNORM
  0
BLOCK_RECORD
  5
98
330
1
100
AcDbSymbolTableRecord
100
AcDbBlockTableRecord
  2
EX_BBOX
  0
BLOCK_RECORD
  5
9B
330
1
100
AcDbSymbolTableRecord
100
AcDbBlockTableRecord
  2
EX_WBOX
  0
BLOCK_RECORD
  5
9E
330
1
100
AcDbSymbolTableRecord
100
AcDbBlockTableRecord
  2
EX_INTEGRAL
  0
BLOCK_RECORD
  5
13D
330
1
100
AcDbSymbolTableRecord
100
AcDbBlockTableRecord
  2
*D15
  0
BLOCK_RECORD
  5
14A
330
1
100
AcDbSymbolTableRecord
100
AcDbBlockTableRecord
  2
*D16
  0
BLOCK_RECORD
  5
157
330
1
100
AcDbSymbolTableRecord
100
AcDbBlockTableRecord
  2
*D17
  0
ENDTAB
  0
ENDSEC
  0
SECTION
  2
BLOCKS
  0
BLOCK
  5
20
330
1F
100
AcDbEntity
  8
0
100
AcDbBlockBegin
  2
*MODEL_SPACE
 70
     0
 10
0.0
 20
0.0
 30
0.0
  3
*MODEL_SPACE
  1

  0
ENDBLK
  5
21
330
1F
100
AcDbEntity
  8
0
100
AcDbBlockEnd
  0
BLOCK
  5
1C
330
1B
100
AcDbEntity
 67
     1
  8
0
100
AcDbBlockBegin
  2
*PAPER_SPACE
 70
     0
 10
0.0
 20
0.0
 30
0.0
  3
*PAPER_SPACE
  1

  0
ENDBLK
  5
1D
330
1B
100
AcDbEntity
 67
     1
  8
0
100
AcDbBlockEnd
  0
BLOCK
  5
78
330
77
100
AcDbEntity
  8
0
100
AcDbBlockBegin
  2
EX_NORM
 70
     0
 10
0.0
 20
0.0
 30
0.0
  3
EX_NORM
  1

  0
LINE
  5
A1
330
77
100
AcDbEntity
  8
0
  6
CONTINUOUS
 62
     0
100
AcDbLine
 10
0.0
 20
0.0
 30
0.0
 11
-1.0
 21
0.0
 31
0.0
  0
LINE
  5
A2
330
77
100
AcDbEntity
  8
0
  6
CONTINUOUS
 62
     0
100
AcDbLine
 10
0.0
 20
0.0
 30
0.0
 11
-1.0
 21
0.166666667
 31
0.0
  0
LINE
  5
A3
330
77
100
AcDbEntity
  8
0
  6
CONTINUOUS
 62
     0
100
AcDbLine
 10
0.0
 20
0.0
 30
0.0
 11
-1.0
 21
-0.166666667
 31
0.0
  0
ENDBLK
  5
79
330
77
100
AcDbEntity
  8
0
100
AcDbBlockEnd
  0
BLOCK
  5
7B
330
7A
100
AcDbEntity
  8
0
100
AcDbBlockBegin
  2
EX_BNORM
 70
     0
 10
0.0
 20
0.0
 30
0.0
  3
EX_BNORM
  1

  0
LINE
  5
A4
330
7A
100
AcDbEntity
  8
0
  6
CONTINUOUS
 62
     0
100
AcDbLine
 10
0.0
 20
0.0
 30
0.0
 11
-1.0
 21
0.0
 31
0.0
  0
LINE
  5
A5
330
7A
100
AcDbEntity
  8
0
  6
CONTINUOUS
 62
     0
100
AcDbLine
 10
0.0
 20
0.0
 30
0.0
 11
-1.0
 21
0.166666667
 31
0.0
  0
LINE
  5
A6
330
7A
100
AcDbEntity
  8
0
  6
CONTINUOUS
 62
     0
100
AcDbLine
 10
0.0
 20
0.0
 30
0.0
 11
-1.0
 21
-0.166666667
 31
0.0
  0
LINE
  5
A7
330
7A
100
AcDbEntity
  8
0
  6
CONTINUOUS
 62
     0
100
AcDbLine
 10
0.0
 20
0.0
 30
0.0
 11
-1.0
 21
0.083333333
 31
0.0
  0
LINE
  5
A8
330
7A
100
AcDbEntity
  8
0
  6
CONTINUOUS
 62
     0
100
AcDbLine
 10
0.0
 20
0.0
 30
0.0
 11
-1.0
 21
-0.083333333
 31
0.0
  0
LINE
  5
A9
330
7A
100
AcDbEntity
  8
0
  6
CONTINUOUS
 62
     0
100
AcDbLine
 10
-1.0
 20
0.166666667
 30
0.0
 11
-1.0
 21
-0.166666667
 31
0.0
  0
ENDBLK
  5
7C
330
7A
100
AcDbEntity
  8
0
100
AcDbBlockEnd
  0
BLOCK
  5
7E
330
7D
100
AcDbEntity
  8
0
100
AcDbBlockBegin
  2
EX_BCIR
 70
     0
 10
0.0
 20
0.0
 30
0.0
  3
EX_BCIR
  1

  0
LINE
  5
AA
330
7D
100
AcDbEntity
  8
0
  6
CONTINUOUS
 62
     0
100
AcDbLine
 10
0.0
 20
0.0
 30
0.0
 11
-1.0
 21
0.0
 31
0.0
  0
CIRCLE
  5
AB
330
7D
100
AcDbEntity
  8
0
  6
CONTINUOUS
 62
     0
100
AcDbCircle
 10
0.0
 20
0.0
 30
0.0
 40
0.5
  0
CIRCLE
  5
AC
330
7D
100
AcDbEntity
  8
0
  6
CONTINUOUS
 62
     0
100
AcDbCircle
 10
0.0
 20
0.0
 30
0.0
 40
0.25
  0
ENDBLK
  5
7F
330
7D
100
AcDbEntity
  8
0
100
AcDbBlockEnd
  0
BLOCK
  5
81
330
80
100
AcDbEntity
  8
0
100
AcDbBlockBegin
  2
EX_RCIVIL
 70
     0
 10
0.0
 20
0.0
 30
0.0
  3
EX_RCIVIL
  1

  0
LINE
  5
AD
330
80
100
AcDbEntity
  8
0
  6
CONTINUOUS
 62
     0
100
AcDbLine
 10
0.0
 20
0.0
 30
0.0
 11
-1.0
 21
0.0
 31
0.0
  0
LINE
  5
AE
330
80
100
AcDbEntity
  8
0
  6
CONTINUOUS
 62
     0
100
AcDbLine
 10
-1.0
 20
-0.25
 30
0.0
 11
0.0
 21
-0.25
 31
0.0
  0
LINE
  5
AF
330
80
100
AcDbEntity
  8
0
  6
CONTINUOUS
 62
     0
100
AcDbLine
 10
-1.0
 20
-0.125
 30
0.0
 11
0.0
 21
-0.125
 31
0.0
  0
ENDBLK
  5
82
330
80
100
AcDbEntity
  8
0
100
AcDbBlockEnd
  0
BLOCK
  5
84
330
83
100
AcDbEntity
  8
0
100
AcDbBlockBegin
  2
EX_SLANT
 70
     0
 10
0.0
 20
0.0
 30
0.0
  3
EX_SLANT
  1

  0
LINE
  5
B0
330
83
100
AcDbEntity
  8
0
  6
CONTINUOUS
 62
     0
100
AcDbLine
 10
0.0
 20
0.0
 30
0.0
 11
-1.0
 21
0.0
 31
0.0
  0
LINE
  5
B1
330
83
100
AcDbEntity
  8
0
  6
CONTINUOUS
 62
     0
100
AcDbLine
 10
0.707106781
 20
0.707106781
 30
0.0
 11
-0.707106781
 21
-0.707106781
 31
0.0
  0
ENDBLK
  5
85
330
83
100
AcDbEntity
  8
0
100
AcDbBlockEnd
  0
BLOCK
  5
87
330
86
100
AcDbEntity
  8
0
100
AcDbBlockBegin
  2
EX_NONE
 70
     0
 10
0.0
 20
0.0
 30
0.0
  3
EX_NONE
  1

  0
LINE
  5
B2
330
86
100
AcDbEntity
  8
0
  6
CONTINUOUS
 62
     0
100
AcDbLine
 10
0.0
 20
0.0
 30
0.0
 11
-1.0
 21
0.0
 31
0.0
  0
ENDBLK
  5
88
330
86
100
AcDbEntity
  8
0
100
AcDbBlockEnd
  0
BLOCK
  5
8A
330
89
100
AcDbEntity
  8
0
100
AcDbBlockBegin
  2
EX_CIVIL
 70
     0
 10
0.0
 20
0.0
 30
0.0
  3
EX_CIVIL
  1

  0
LINE
  5
B3
330
89
100
AcDbEntity
  8
0
  6
CONTINUOUS
 62
     0
100
AcDbLine
 10
0.0
 20
0.0
 30
0.0
 11
-1.0
 21
0.0
 31
0.0
  0
LINE
  5
B4
330
89
100
AcDbEntity
  8
0
  6
CONTINUOUS
 62
     0
100
AcDbLine
 10
-1.0
 20
0.25
 30
0.0
 11
0.0
 21
0.25
 31
0.0
  0
LINE
  5
B5
330
89
100
AcDbEntity
  8
0
  6
CONTINUOUS
 62
     0
100
AcDbLine
 10
-1.0
 20
0.125
 30
0.0
 11
0.0
 21
0.125
 31
0.0
  0
ENDBLK
  5
8B
330
89
100
AcDbEntity
  8
0
100
AcDbBlockEnd
  0
BLOCK
  5
8D
330
8C
100
AcDbEntity
  8
0
100
AcDbBlockBegin
  2
EX_WCIR
 70
     0
 10
0.0
 20
0.0
 30
0.0
  3
EX_WCIR
  1

  0
LINE
  5
B6
330
8C
100
AcDbEntity
  8
0
  6
CONTINUOUS
 62
     0
100
AcDbLine
 10
0.0
 20
0.0
 30
0.0
 11
-1.0
 21
0.0
 31
0.0
  0
CIRCLE
  5
B7
330
8C
100
AcDbEntity
  8
0
  6
CONTINUOUS
 62
     0
100
AcDbCircle
 10
0.0
 20
0.0
 30
0.0
 40
0.5
  0
ENDBLK
  5
8E
330
8C
100
AcDbEntity
  8
0
100
AcDbBlockEnd
  0
BLOCK
  5
90
330
8F
100
AcDbEntity
  8
0
100
AcDbBlockBegin
  2
EX_WCIR2
 70
     0
 10
0.0
 20
0.0
 30
0.0
  3
EX_WCIR2
  1

  0
LINE
  5
B8
330
8F
100
AcDbEntity
  8
0
  6
CONTINUOUS
 62
     0
100
AcDbLine
 10
-0.5
 20
0.0
 30
0.0
 11
-1.0
 21
0.0
 31
0.0
  0
CIRCLE
  5
B9
330
8F
100
AcDbEntity
  8
0
  6
CONTINUOUS
 62
     0
100
AcDbCircle
 10
0.0
 20
0.0
 30
0.0
 40
0.5
  0
ENDBLK
  5
91
330
8F
100
AcDbEntity
  8
0
100
AcDbBlockEnd
  0
BLOCK
  5
93
330
92
100
AcDbEntity
  8
0
100
AcDbBlockBegin
  2
EX_WNORM
 70
     0
 10
0.0
 20
0.0
 30
0.0
  3
EX_WNORM
  1

  0
LINE
  5
BA
330
92
100
AcDbEntity
  8
0
  6
CONTINUOUS
 62
     0
100
AcDbLine
 10
-1.0
 20
0.0
 30
0.0
 11
-1.0
 21
0.0
 31
0.0
  0
LINE
  5
BB
330
92
100
AcDbEntity
  8
0
  6
CONTINUOUS
 62
     0
100
AcDbLine
 10
0.0
 20
0.0
 30
0.0
 11
-1.0
 21
0.166666667
 31
0.0
  0
LINE
  5
BC
330
92
100
AcDbEntity
  8
0
  6
CONTINUOUS
 62
     0
100
AcDbLine
 10
0.0
 20
0.0
 30
0.0
 11
-1.0
 21
-0.166666667
 31
0.0
  0
LINE
  5
BD
330
92
100
AcDbEntity
  8
0
  6
CONTINUOUS
 62
     0
100
AcDbLine
 10
-1.0
 20
0.166666667
 30
0.0
 11
-1.0
 21
-0.166666667
 31
0.0
  0
ENDBLK
  5
94
330
92
100
AcDbEntity
  8
0
100
AcDbBlockEnd
  0
BLOCK
  5
96
330
95
100
AcDbEntity
  8
0
100
AcDbBlockBegin
  2
EX_NNORM
 70
     0
 10
0.0
 20
0.0
 30
0.0
  3
EX_NNORM
  1

  0
LINE
  5
BE
330
95
100
AcDbEntity
  8
0
  6
CONTINUOUS
 62
     0
100
AcDbLine
 10
0.0
 20
0.0
 30
0.0
 11
-1.0
 21
0.0
 31
0.0
  0
LINE
  5
BF
330
95
100
AcDbEntity
  8
0
  6
CONTINUOUS
 62
     0
100
AcDbLine
 10
0.0
 20
0.0
 30
0.0
 11
-1.0
 21
0.166666667
 31
0.0
  0
LINE
  5
C0
330
95
100
AcDbEntity
  8
0
  6
CONTINUOUS
 62
     0
100
AcDbLine
 10
0.0
 20
0.0
 30
0.0
 11
-1.0
 21
-0.166666667
 31
0.0
  0
LINE
  5
C1
330
95
100
AcDbEntity
  8
0
  6
CONTINUOUS
 62
     0
100
AcDbLine
 10
-1.0
 20
0.166666667
 30
0.0
 11
-1.0
 21
-0.166666667
 31
0.0
  0
ENDBLK
  5
97
330
95
100
AcDbEntity
  8
0
100
AcDbBlockEnd
  0
BLOCK
  5
99
330
98
100
AcDbEntity
  8
0
100
AcDbBlockBegin
  2
EX_BBOX
 70
     0
 10
0.0
 20
0.0
 30
0.0
  3
EX_BBOX
  1

  0
LINE
  5
C2
330
98
100
AcDbEntity
  8
0
  6
CONTINUOUS
 62
     0
100
AcDbLine
 10
0.0
 20
0.0
 30
0.0
 11
-1.0
 21
0.0
 31
0.0
  0
LINE
  5
C3
330
98
100
AcDbEntity
  8
0
  6
CONTINUOUS
 62
     0
100
AcDbLine
 10
-0.5
 20
0.5
 30
0.0
 11
0.5
 21
0.5
 31
0.0
  0
LINE
  5
C4
330
98
100
AcDbEntity
  8
0
  6
CONTINUOUS
 62
     0
100
AcDbLine
 10
0.5
 20
0.5
 30
0.0
 11
0.5
 21
-0.5
 31
0.0
  0
LINE
  5
C5
330
98
100
AcDbEntity
  8
0
  6
CONTINUOUS
 62
     0
100
AcDbLine
 10
0.5
 20
-0.5
 30
0.0
 11
-0.5
 21
-0.5
 31
0.0
  0
LINE
  5
C6
330
98
100
AcDbEntity
  8
0
  6
CONTINUOUS
 62
     0
100
AcDbLine
 10
-0.5
 20
-0.5
 30
0.0
 11
-0.5
 21
0.5
 31
0.0
  0
LINE
  5
C7
330
98
100
AcDbEntity
  8
0
  6
CONTINUOUS
 62
     0
100
AcDbLine
 10
-0.25
 20
0.25
 30
0.0
 11
0.25
 21
0.25
 31
0.0
  0
LINE
  5
C8
330
98
100
AcDbEntity
  8
0
  6
CONTINUOUS
 62
     0
100
AcDbLine
 10
0.25
 20
0.25
 30
0.0
 11
0.25
 21
-0.25
 31
0.0
  0
LINE
  5
C9
330
98
100
AcDbEntity
  8
0
  6
CONTINUOUS
 62
     0
100
AcDbLine
 10
0.25
 20
-0.25
 30
0.0
 11
-0.25
 21
-0.25
 31
0.0
  0
LINE
  5
CA
330
98
100
AcDbEntity
  8
0
  6
CONTINUOUS
 62
     0
100
AcDbLine
 10
-0.25
 20
-0.25
 30
0.0
 11
-0.25
 21
0.25
 31
0.0
  0
ENDBLK
  5
9A
330
98
100
AcDbEntity
  8
0
100
AcDbBlockEnd
  0
BLOCK
  5
9C
330
9B
100
AcDbEntity
  8
0
100
AcDbBlockBegin
  2
EX_WBOX
 70
     0
 10
0.0
 20
0.0
 30
0.0
  3
EX_WBOX
  1

  0
LINE
  5
CB
330
9B
100
AcDbEntity
  8
0
  6
CONTINUOUS
 62
     0
100
AcDbLine
 10
-0.5
 20
0.0
 30
0.0
 11
-1.0
 21
0.0
 31
0.0
  0
LINE
  5
CC
330
9B
100
AcDbEntity
  8
0
  6
CONTINUOUS
 62
     0
100
AcDbLine
 10
-0.5
 20
0.5
 30
0.0
 11
0.5
 21
0.5
 31
0.0
  0
LINE
  5
CD
330
9B
100
AcDbEntity
  8
0
  6
CONTINUOUS
 62
     0
100
AcDbLine
 10
0.5
 20
0.5
 30
0.0
 11
0.5
 21
-0.5
 31
0.0
  0
LINE
  5
CE
330
9B
100
AcDbEntity
  8
0
  6
CONTINUOUS
 62
     0
100
AcDbLine
 10
0.5
 20
-0.5
 30
0.0
 11
-0.5
 21
-0.5
 31
0.0
  0
LINE
  5
CF
330
9B
100
AcDbEntity
  8
0
  6
CONTINUOUS
 62
     0
100
AcDbLine
 10
-0.5
 20
-0.5
 30
0.0
 11
-0.5
 21
0.5
 31
0.0
  0
ENDBLK
  5
9D
330
9B
100
AcDbEntity
  8
0
100
AcDbBlockEnd
  0
BLOCK
  5
9F
330
9E
100
AcDbEntity
  8
0
100
AcDbBlockBegin
  2
EX_INTEGRAL
 70
     0
 10
0.0
 20
0.0
 30
0.0
  3
EX_INTEGRAL
  1

  0
LINE
  5
D0
330
9E
100
AcDbEntity
  8
0
  6
CONTINUOUS
 62
     0
100
AcDbLine
 10
0.0
 20
0.0
 30
0.0
 11
-1.0
 21
0.0
 31
0.0
  0
ARC
  5
D1
330
9E
100
AcDbEntity
  8
0
  6
CONTINUOUS
 62
     0
100
AcDbCircle
 10
0.542115
 20
0.164992
 30
0.0
 40
0.56667
100
AcDbArc
 50
73.07249033629006
 51
196.9275130221199
  0
ARC
  5
D2
330
9E
100
AcDbEntity
  8
0
  6
CONTINUOUS
 62
     0
100
AcDbCircle
 10
-0.542115
 20
-0.164992
 30
0.0
 40
0.56667
100
AcDbArc
 50
253.0724869220464
 51
16.9275130559125
  0
ENDBLK
  5
A0
330
9E
100
AcDbEntity
  8
0
100
AcDbBlockEnd
  0
BLOCK
  5
13E
330
13D
100
AcDbEntity
  8
0
100
AcDbBlockBegin
  2
*D15
 70
     1
 10
0.0
 20
0.0
 30
0.0
  3
*D15
  1

  0
LINE
  5
140
330
13D
100
AcDbEntity
  8
営業図
  6
CONTINUOUS
 62
     1
100
AcDbLine
 10
233.54069266549
 20
364.12242772373
 30
0.0
 11
188.8
 21
364.12242772373
 31
0.0
  0
LINE
  5
141
330
13D
100
AcDbEntity
  8
営業図
  6
CONTINUOUS
 62
     1
100
AcDbLine
 10
233.54069266549
 20
224.12245872373
 30
0.0
 11
188.8
 21
224.12245872373
 31
0.0
  0
LINE
  5
142
330
13D
100
AcDbEntity
  8
営業図
  6
CONTINUOUS
 62
     1
100
AcDbLine
 10
191.8
 20
358.12242772373
 30
0.0
 11
191.8
 21
230.12245872373
 31
0.0
  0
INSERT
  5
143
330
13D
100
AcDbEntity
  8
営業図
 62
     1
100
AcDbBlockReference
  2
EX_BNORM
 10
191.8
 20
364.12242772373
 30
0.0
 41
6.0
 42
6.0
 43
6.0
 50
90.0
  0
INSERT
  5
144
330
13D
100
AcDbEntity
  8
営業図
 62
     1
100
AcDbBlockReference
  2
EX_BNORM
 10
191.8
 20
224.12245872373
 30
0.0
 41
6.0
 42
6.0
 43
6.0
 50
270.0
  0
MTEXT
  5
145
330
13D
100
AcDbEntity
  8
営業図
 62
     1
100
AcDbMText
 10
187.8
 20
294.12244322373
 30
0.0
 40
4.6771656
 41
0.0
 71
     5
 72
     1
  1
%%c140
  7
EXCADDIM1
 11
0.0
 21
1.0
 31
0.0
  0
POINT
  5
146
330
13D
100
AcDbEntity
  8
DEFPOINTS
 62
     0
100
AcDbPoint
 10
236.54069266549
 20
364.12242772373
 30
0.0
  0
POINT
  5
147
330
13D
100
AcDbEntity
  8
DEFPOINTS
 62
     0
100
AcDbPoint
 10
236.54069266549
 20
224.12245872373
 30
0.0
  0
POINT
  5
148
330
13D
100
AcDbEntity
  8
DEFPOINTS
 62
     0
100
AcDbPoint
 10
191.8
 20
224.12245872373
 30
0.0
  0
ENDBLK
  5
13F
330
13D
100
AcDbEntity
  8
0
100
AcDbBlockEnd
  0
BLOCK
  5
14B
330
14A
100
AcDbEntity
  8
0
100
AcDbBlockBegin
  2
*D16
 70
     1
 10
0.0
 20
0.0
 30
0.0
  3
*D16
  1

  0
LINE
  5
14D
330
14A
100
AcDbEntity
  8
営業図
  6
CONTINUOUS
 62
     1
100
AcDbLine
 10
283.54069266549
 20
384.12245872373
 30
0.0
 11
169.6
 21
384.12245872373
 31
0.0
  0
LINE
  5
14E
330
14A
100
AcDbEntity
  8
営業図
  6
CONTINUOUS
 62
     1
100
AcDbLine
 10
283.54069266549
 20
204.12245872373
 30
0.0
 11
169.6
 21
204.12245872373
 31
0.0
  0
LINE
  5
14F
330
14A
100
AcDbEntity
  8
営業図
  6
CONTINUOUS
 62
     1
100
AcDbLine
 10
172.6
 20
378.12245872373
 30
0.0
 11
172.6
 21
210.12245872373
 31
0.0
  0
INSERT
  5
150
330
14A
100
AcDbEntity
  8
営業図
 62
     1
100
AcDbBlockReference
  2
EX_BNORM
 10
172.6
 20
384.12245872373
 30
0.0
 41
6.0
 42
6.0
 43
6.0
 50
90.0
  0
INSERT
  5
151
330
14A
100
AcDbEntity
  8
営業図
 62
     1
100
AcDbBlockReference
  2
EX_BNORM
 10
172.6
 20
204.12245872373
 30
0.0
 41
6.0
 42
6.0
 43
6.0
 50
270.0
  0
MTEXT
  5
152
330
14A
100
AcDbEntity
  8
営業図
 62
     1
100
AcDbMText
 10
168.6
 20
294.12245872373
 30
0.0
 40
4.6771656
 41
0.0
 71
     5
 72
     1
  1
%%c180
  7
EXCADDIM1
 11
0.0
 21
1.0
 31
0.0
  0
POINT
  5
153
330
14A
100
AcDbEntity
  8
DEFPOINTS
 62
     0
100
AcDbPoint
 10
286.54069266549
 20
384.12245872373
 30
0.0
  0
POINT
  5
154
330
14A
100
AcDbEntity
  8
DEFPOINTS
 62
     0
100
AcDbPoint
 10
286.54069266549
 20
204.12245872373
 30
0.0
  0
POINT
  5
155
330
14A
100
AcDbEntity
  8
DEFPOINTS
 62
     0
100
AcDbPoint
 10
172.6
 20
204.12245872373
 30
0.0
  0
ENDBLK
  5
14C
330
14A
100
AcDbEntity
  8
0
100
AcDbBlockEnd
  0
BLOCK
  5
158
330
157
100
AcDbEntity
  8
0
100
AcDbBlockBegin
  2
*D17
 70
     1
 10
0.0
 20
0.0
 30
0.0
  3
*D17
  1

  0
LINE
  5
15A
330
157
100
AcDbEntity
  8
営業図
  6
CONTINUOUS
 62
     1
100
AcDbLine
 10
234.54069266549
 20
223.12245872373
 30
0.0
 11
234.54069266549
 21
150.2
 31
0.0
  0
LINE
  5
15B
330
157
100
AcDbEntity
  8
営業図
  6
CONTINUOUS
 62
     1
100
AcDbLine
 10
689.54069266549
 20
203.12245872373
 30
0.0
 11
689.54069266549
 21
150.2
 31
0.0
  0
LINE
  5
15C
330
157
100
AcDbEntity
  8
営業図
  6
CONTINUOUS
 62
     1
100
AcDbLine
 10
240.54069266549
 20
153.2
 30
0.0
 11
683.54069266549
 21
153.2
 31
0.0
  0
INSERT
  5
15D
330
157
100
AcDbEntity
  8
営業図
 62
     1
100
AcDbBlockReference
  2
EX_BNORM
 10
234.54069266549
 20
153.2
 30
0.0
 41
6.0
 42
6.0
 43
6.0
 50
180.0
  0
INSERT
  5
15E
330
157
100
AcDbEntity
  8
営業図
 62
     1
100
AcDbBlockReference
  2
EX_BNORM
 10
689.54069266549
 20
153.2
 30
0.0
 41
6.0
 42
6.0
 43
6.0
  0
MTEXT
  5
15F
330
157
100
AcDbEntity
  8
営業図
 62
     1
100
AcDbMText
 10
462.04069266549
 20
157.2
 30
0.0
 40
4.6771656
 41
0.0
 71
     5
 72
     1
  1
450～650
  7
EXCADDIM1
  0
POINT
  5
160
330
157
100
AcDbEntity
  8
DEFPOINTS
 62
     0
100
AcDbPoint
 10
234.54069266549
 20
226.12245872373
 30
0.0
  0
POINT
  5
161
330
157
100
AcDbEntity
  8
DEFPOINTS
 62
     0
100
AcDbPoint
 10
689.54069266549
 20
206.12245872373
 30
0.0
  0
POINT
  5
162
330
157
100
AcDbEntity
  8
DEFPOINTS
 62
     0
100
AcDbPoint
 10
689.54069266549
 20
153.2
 30
0.0
  0
ENDBLK
  5
159
330
157
100
AcDbEntity
  8
0
100
AcDbBlockEnd
  0
ENDSEC
  0
SECTION
  2
ENTITIES
  0
POINT
  5
D3
330
1F
100
AcDbEntity
  8
営業図
  6
CONTINUOUS
 62
     3
100
AcDbPoint
 10
0.0
 20
0.0
 30
0.0
  0
POINT
  5
D4
330
1F
100
AcDbEntity
  8
営業図
  6
CONTINUOUS
 62
     3
100
AcDbPoint
 10
0.0
 20
0.0
 30
0.0
  0
POINT
  5
D5
330
1F
100
AcDbEntity
  8
営業図
  6
CONTINUOUS
 62
     3
100
AcDbPoint
 10
0.0
 20
0.0
 30
0.0
  0
POINT
  5
D6
330
1F
100
AcDbEntity
  8
営業図
  6
CONTINUOUS
 62
     3
100
AcDbPoint
 10
0.0
 20
0.0
 30
0.0
  0
POINT
  5
D7
330
1F
100
AcDbEntity
  8
営業図
  6
CONTINUOUS
 62
     3
100
AcDbPoint
 10
0.0
 20
0.0
 30
0.0
  0
POINT
  5
D8
330
1F
100
AcDbEntity
  8
営業図
  6
CONTINUOUS
 62
     3
100
AcDbPoint
 10
0.0
 20
0.0
 30
0.0
  0
LINE
  5
D9
330
1F
100
AcDbEntity
  8
営業図
  6
CONTINUOUS
 62
     7
100
AcDbLine
 10
286.54069266549
 20
204.12245872373
 30
0.0
 11
687.54069266549
 21
204.12245872373
 31
0.0
  0
LINE
  5
DA
330
1F
100
AcDbEntity
  8
営業図
  6
CONTINUOUS
 62
     7
100
AcDbLine
 10
689.54069266549
 20
206.12245872373
 30
0.0
 11
689.54069266549
 21
382.12245872373
 31
0.0
  0
LINE
  5
DB
330
1F
100
AcDbEntity
  8
営業図
  6
CONTINUOUS
 62
     7
100
AcDbLine
 10
286.54069266549
 20
384.12245872373
 30
0.0
 11
687.54069266549
 21
384.12245872373
 31
0.0
  0
LINE
  5
DC
330
1F
100
AcDbEntity
  8
営業図
  6
CONTINUOUS
 62
     7
100
AcDbLine
 10
689.54069266549
 20
382.12245872373
 30
0.0
 11
687.54069266549
 21
384.12245872373
 31
0.0
  0
LINE
  5
DD
330
1F
100
AcDbEntity
  8
営業図
  6
CONTINUOUS
 62
     7
100
AcDbLine
 10
687.54069266549
 20
204.12245872373
 30
0.0
 11
689.54069266549
 21
206.12245872373
 31
0.0
  0
LINE
  5
DE
330
1F
100
AcDbEntity
  8
営業図
  6
CONTINUOUS
 62
     7
100
AcDbLine
 10
687.54069266549
 20
384.12245872373
 30
0.0
 11
687.54069266549
 21
204.12245872373
 31
0.0
  0
LINE
  5
DF
330
1F
100
AcDbEntity
  8
営業図
  6
CONTINUOUS
 62
     7
100
AcDbLine
 10
284.54069266549
 20
206.12245872373
 30
0.0
 11
284.54069266549
 21
382.12245872373
 31
0.0
  0
LINE
  5
E0
330
1F
100
AcDbEntity
  8
営業図
  6
CONTINUOUS
 62
     7
100
AcDbLine
 10
286.54069266549
 20
384.12245872373
 30
0.0
 11
284.54069266549
 21
382.12245872373
 31
0.0
  0
LINE
  5
E1
330
1F
100
AcDbEntity
  8
営業図
  6
CONTINUOUS
 62
     7
100
AcDbLine
 10
286.54069266549
 20
204.12245872373
 30
0.0
 11
284.54069266549
 21
206.12245872373
 31
0.0
  0
LINE
  5
E2
330
1F
100
AcDbEntity
  8
営業図
  6
CONTINUOUS
 62
     7
100
AcDbLine
 10
286.54069266549
 20
384.12245872373
 30
0.0
 11
286.54069266549
 21
204.12245872373
 31
0.0
  0
ARC
  5
E3
330
1F
100
AcDbEntity
  8
営業図
  6
CONTINUOUS
 62
     7
100
AcDbCircle
 10
354.54069266549
 20
398.78911472373
 30
0.0
 40
14.833333
100
AcDbArc
 50
64.01078757623995
 51
115.9892322716
  0
ARC
  5
E4
330
1F
100
AcDbEntity
  8
営業図
  6
CONTINUOUS
 62
     7
100
AcDbCircle
 10
354.54069266549
 20
379.78884072373
 30
0.0
 40
14.833605
100
AcDbArc
 50
64.01130323824995
 51
115.9887166096
  0
ARC
  5
E5
330
1F
100
AcDbEntity
  8
営業図
  6
CONTINUOUS
 62
     7
100
AcDbCircle
 10
354.54069266549
 20
401.45580172373
 30
0.0
 40
14.833333
100
AcDbArc
 50
244.0108074241001
 51
295.9892521194004
  0
LINE
  5
E6
330
1F
100
AcDbEntity
  8
営業図
  6
CONTINUOUS
 62
     7
100
AcDbLine
 10
348.04069266549
 20
388.12248972373
 30
0.0
 11
348.04069266549
 21
393.12251972373
 31
0.0
  0
LINE
  5
E7
330
1F
100
AcDbEntity
  8
営業図
  6
CONTINUOUS
 62
     7
100
AcDbLine
 10
361.04069266549
 20
388.12239772373
 30
0.0
 11
361.04069266549
 21
393.12255072373
 31
0.0
  0
LINE
  5
E8
330
1F
100
AcDbEntity
  8
営業図
  6
CONTINUOUS
 62
     7
100
AcDbLine
 10
348.04069266549
 20
405.12242772373
 30
0.0
 11
354.54069266549
 21
403.62245872373
 31
0.0
  0
LINE
  5
E9
330
1F
100
AcDbEntity
  8
営業図
  6
CONTINUOUS
 62
     7
100
AcDbLine
 10
354.54069266549
 20
403.62245872373
 30
0.0
 11
361.04069266549
 21
405.12245872373
 31
0.0
  0
LINE
  5
EA
330
1F
100
AcDbEntity
  8
営業図
  6
CONTINUOUS
 62
     7
100
AcDbLine
 10
348.04069266549
 20
412.12245872373
 30
0.0
 11
348.04069266549
 21
405.12242772373
 31
0.0
  0
LINE
  5
EB
330
1F
100
AcDbEntity
  8
営業図
  6
CONTINUOUS
 62
     7
100
AcDbLine
 10
361.04069266549
 20
405.12245872373
 30
0.0
 11
361.04069266549
 21
412.12245872373
 31
0.0
  0
ARC
  5
EC
330
1F
100
AcDbEntity
  8
営業図
  6
CONTINUOUS
 62
     7
100
AcDbCircle
 10
345.04069266549
 20
409.87245872373
 30
0.0
 40
3.750000000000001
100
AcDbArc
 50
36.86989141245
 51
143.1300711396001
  0
ARC
  5
ED
330
1F
100
AcDbEntity
  8
営業図
  6
CONTINUOUS
 62
     7
100
AcDbCircle
 10
364.04069266549
 20
409.87242772373
 30
0.0
 40
3.750000000000001
100
AcDbArc
 50
36.86989141245
 51
143.1300711396001
  0
ARC
  5
EE
330
1F
100
AcDbEntity
  8
営業図
  6
CONTINUOUS
 62
     7
100
AcDbCircle
 10
345.04069266549
 20
390.87236672373
 30
0.0
 40
3.750046
100
AcDbArc
 50
36.87080814491997
 51
143.1291544071
  0
ARC
  5
EF
330
1F
100
AcDbEntity
  8
営業図
  6
CONTINUOUS
 62
     7
100
AcDbCircle
 10
364.04069266549
 20
390.87239772373
 30
0.0
 40
3.750046
100
AcDbArc
 50
36.87080814491997
 51
143.1291544071
  0
ARC
  5
F0
330
1F
100
AcDbEntity
  8
営業図
  6
CONTINUOUS
 62
     7
100
AcDbCircle
 10
345.04069266549
 20
390.37248972373
 30
0.0
 40
3.750023
100
AcDbArc
 50
216.8700831476001
 51
323.1293461423001
  0
ARC
  5
F1
330
1F
100
AcDbEntity
  8
営業図
  6
CONTINUOUS
 62
     7
100
AcDbCircle
 10
364.04069266549
 20
390.37251972373
 30
0.0
 40
3.750046
100
AcDbArc
 50
216.8708279928
 51
323.1291742550001
  0
LINE
  5
F2
330
1F
100
AcDbEntity
  8
営業図
  6
CONTINUOUS
 62
     7
100
AcDbLine
 10
342.04069266549
 20
393.12251972373
 30
0.0
 11
342.04069266549
 21
388.12248972373
 31
0.0
  0
LINE
  5
F3
330
1F
100
AcDbEntity
  8
営業図
  6
CONTINUOUS
 62
     7
100
AcDbLine
 10
367.04069266549
 20
393.12251972373
 30
0.0
 11
367.04069266549
 21
388.12245872373
 31
0.0
  0
LINE
  5
F4
330
1F
100
AcDbEntity
  8
営業図
  6
CONTINUOUS
 62
     7
100
AcDbLine
 10
342.04069266549
 20
412.12245872373
 30
0.0
 11
342.04069266549
 21
405.12242772373
 31
0.0
  0
LINE
  5
F5
330
1F
100
AcDbEntity
  8
営業図
  6
CONTINUOUS
 62
     7
100
AcDbLine
 10
367.04069266549
 20
405.12245872373
 30
0.0
 11
367.04069266549
 21
412.12242772373
 31
0.0
  0
LINE
  5
F6
330
1F
100
AcDbEntity
  8
営業図
  6
CONTINUOUS
 62
     7
100
AcDbLine
 10
342.04069266549
 20
405.12242772373
 30
0.0
 11
345.04069266549
 21
403.62242772373
 31
0.0
  0
LINE
  5
F7
330
1F
100
AcDbEntity
  8
営業図
  6
CONTINUOUS
 62
     7
100
AcDbLine
 10
345.04069266549
 20
403.62242772373
 30
0.0
 11
348.04069266549
 21
405.12242772373
 31
0.0
  0
LINE
  5
F8
330
1F
100
AcDbEntity
  8
営業図
  6
CONTINUOUS
 62
     7
100
AcDbLine
 10
361.04069266549
 20
405.12245872373
 30
0.0
 11
364.04069266549
 21
403.62245872373
 31
0.0
  0
LINE
  5
F9
330
1F
100
AcDbEntity
  8
営業図
  6
CONTINUOUS
 62
     7
100
AcDbLine
 10
364.04069266549
 20
403.62245872373
 30
0.0
 11
367.04069266549
 21
405.12245872373
 31
0.0
  0
LINE
  5
FA
330
1F
100
AcDbEntity
  8
営業図
  6
CONTINUOUS
 62
     7
100
AcDbLine
 10
345.04069266549
 20
394.62245872373
 30
0.0
 11
364.04069266549
 21
394.62248972373
 31
0.0
  0
LINE
  5
FB
330
1F
100
AcDbEntity
  8
営業図
  6
CONTINUOUS
 62
     7
100
AcDbLine
 10
364.04069266549
 20
386.62245872373
 30
0.0
 11
345.04069266549
 21
386.62245872373
 31
0.0
  0
LINE
  5
FC
330
1F
100
AcDbEntity
  8
営業図
  6
CONTINUOUS
 62
     7
100
AcDbLine
 10
345.04069266549
 20
413.62248972373
 30
0.0
 11
364.04069266549
 21
413.62245872373
 31
0.0
  0
LINE
  5
FD
330
1F
100
AcDbEntity
  8
営業図
  6
CONTINUOUS
 62
     7
100
AcDbLine
 10
364.04069266549
 20
399.12251972373
 30
0.0
 11
345.04069266549
 21
399.12245872373
 31
0.0
  0
LINE
  5
FE
330
1F
100
AcDbEntity
  8
営業図
  6
CONTINUOUS
 62
     7
100
AcDbLine
 10
347.65287566549
 20
399.12245872373
 30
0.0
 11
347.65287566549
 21
394.62203172373
 31
0.0
  0
LINE
  5
FF
330
1F
100
AcDbEntity
  8
営業図
  6
CONTINUOUS
 62
     7
100
AcDbLine
 10
361.65287566549
 20
394.62206172373
 30
0.0
 11
361.65287566549
 21
399.12245872373
 31
0.0
  0
LINE
  5
100
330
1F
100
AcDbEntity
  8
営業図
  6
CONTINUOUS
 62
     7
100
AcDbLine
 10
345.04069266549
 20
394.62245872373
 30
0.0
 11
345.04069266549
 21
399.12245872373
 31
0.0
  0
LINE
  5
101
330
1F
100
AcDbEntity
  8
営業図
  6
CONTINUOUS
 62
     7
100
AcDbLine
 10
364.04069266549
 20
394.62248972373
 30
0.0
 11
364.04069266549
 21
399.12242772373
 31
0.0
  0
LINE
  5
102
330
1F
100
AcDbEntity
  8
営業図
  6
CONTINUOUS
 62
     7
100
AcDbLine
 10
343.54069266549
 20
404.37245872373
 30
0.0
 11
345.04069266549
 21
399.12245872373
 31
0.0
  0
LINE
  5
103
330
1F
100
AcDbEntity
  8
営業図
  6
CONTINUOUS
 62
     7
100
AcDbLine
 10
365.54069266549
 20
404.37242772373
 30
0.0
 11
364.04069266549
 21
399.12242772373
 31
0.0
  0
LINE
  5
104
330
1F
100
AcDbEntity
  8
営業図
  6
CONTINUOUS
 62
     7
100
AcDbLine
 10
354.54069266549
 20
399.12291672373
 30
0.0
 11
354.54069266549
 21
394.62248972373
 31
0.0
  0
LINE
  5
105
330
1F
100
AcDbEntity
  8
営業図
  6
CONTINUOUS
 62
     7
100
AcDbLine
 10
362.54069266549
 20
384.12248972373
 30
0.0
 11
362.54069266549
 21
386.62245872373
 31
0.0
  0
LINE
  5
106
330
1F
100
AcDbEntity
  8
営業図
  6
CONTINUOUS
 62
     7
100
AcDbLine
 10
346.54069266549
 20
384.12248972373
 30
0.0
 11
346.54069266549
 21
386.62245872373
 31
0.0
  0
LINE
  5
107
330
1F
100
AcDbEntity
  8
営業図
  6
CONTINUOUS
 62
     1
100
AcDbLine
 10
354.54069266549
 20
423.62245872373
 30
0.0
 11
354.54069266549
 21
374.12248972373
 31
0.0
  0
ARC
  5
108
330
1F
100
AcDbEntity
  8
営業図
  6
CONTINUOUS
 62
     7
100
AcDbCircle
 10
629.54066266549
 20
398.78911472373
 30
0.0
 40
14.833333
100
AcDbArc
 50
64.01078757623995
 51
115.9892322716
  0
ARC
  5
109
330
1F
100
AcDbEntity
  8
営業図
  6
CONTINUOUS
 62
     7
100
AcDbCircle
 10
629.54066266549
 20
379.78884072373
 30
0.0
 40
14.833605
100
AcDbArc
 50
64.01130323824995
 51
115.9887166096
  0
ARC
  5
10A
330
1F
100
AcDbEntity
  8
営業図
  6
CONTINUOUS
 62
     7
100
AcDbCircle
 10
629.54066266549
 20
401.45580172373
 30
0.0
 40
14.833333
100
AcDbArc
 50
244.0108074241001
 51
295.9892521194004
  0
LINE
  5
10B
330
1F
100
AcDbEntity
  8
営業図
  6
CONTINUOUS
 62
     7
100
AcDbLine
 10
623.04066266549
 20
388.12248972373
 30
0.0
 11
623.04066266549
 21
393.12251972373
 31
0.0
  0
LINE
  5
10C
330
1F
100
AcDbEntity
  8
営業図
  6
CONTINUOUS
 62
     7
100
AcDbLine
 10
636.04066266549
 20
388.12239772373
 30
0.0
 11
636.04066266549
 21
393.12255072373
 31
0.0
  0
LINE
  5
10D
330
1F
100
AcDbEntity
  8
営業図
  6
CONTINUOUS
 62
     7
100
AcDbLine
 10
623.04066266549
 20
405.12242772373
 30
0.0
 11
629.54066266549
 21
403.62245872373
 31
0.0
  0
LINE
  5
10E
330
1F
100
AcDbEntity
  8
営業図
  6
CONTINUOUS
 62
     7
100
AcDbLine
 10
629.54066266549
 20
403.62245872373
 30
0.0
 11
636.04066266549
 21
405.12245872373
 31
0.0
  0
LINE
  5
10F
330
1F
100
AcDbEntity
  8
営業図
  6
CONTINUOUS
 62
     7
100
AcDbLine
 10
623.04066266549
 20
412.12245872373
 30
0.0
 11
623.04066266549
 21
405.12242772373
 31
0.0
  0
LINE
  5
110
330
1F
100
AcDbEntity
  8
営業図
  6
CONTINUOUS
 62
     7
100
AcDbLine
 10
636.04066266549
 20
405.12245872373
 30
0.0
 11
636.04066266549
 21
412.12245872373
 31
0.0
  0
ARC
  5
111
330
1F
100
AcDbEntity
  8
営業図
  6
CONTINUOUS
 62
     7
100
AcDbCircle
 10
620.04066266549
 20
409.87245872373
 30
0.0
 40
3.750000000000001
100
AcDbArc
 50
36.86989141245
 51
143.1300711396001
  0
ARC
  5
112
330
1F
100
AcDbEntity
  8
営業図
  6
CONTINUOUS
 62
     7
100
AcDbCircle
 10
639.04066266549
 20
409.87242772373
 30
0.0
 40
3.750000000000001
100
AcDbArc
 50
36.86989141245
 51
143.1300711396001
  0
ARC
  5
113
330
1F
100
AcDbEntity
  8
営業図
  6
CONTINUOUS
 62
     7
100
AcDbCircle
 10
620.04066266549
 20
390.87236672373
 30
0.0
 40
3.750046
100
AcDbArc
 50
36.87080814491997
 51
143.1291544071
  0
ARC
  5
114
330
1F
100
AcDbEntity
  8
営業図
  6
CONTINUOUS
 62
     7
100
AcDbCircle
 10
639.04066266549
 20
390.87239772373
 30
0.0
 40
3.750046
100
AcDbArc
 50
36.87080814491997
 51
143.1291544071
  0
ARC
  5
115
330
1F
100
AcDbEntity
  8
営業図
  6
CONTINUOUS
 62
     7
100
AcDbCircle
 10
620.04066266549
 20
390.37248972373
 30
0.0
 40
3.750023
100
AcDbArc
 50
216.8700831476001
 51
323.1293461423001
  0
ARC
  5
116
330
1F
100
AcDbEntity
  8
営業図
  6
CONTINUOUS
 62
     7
100
AcDbCircle
 10
639.04066266549
 20
390.37251972373
 30
0.0
 40
3.750046
100
AcDbArc
 50
216.8708279928
 51
323.1291742550001
  0
LINE
  5
117
330
1F
100
AcDbEntity
  8
営業図
  6
CONTINUOUS
 62
     7
100
AcDbLine
 10
617.04066266549
 20
393.12251972373
 30
0.0
 11
617.04066266549
 21
388.12248972373
 31
0.0
  0
LINE
  5
118
330
1F
100
AcDbEntity
  8
営業図
  6
CONTINUOUS
 62
     7
100
AcDbLine
 10
642.04066266549
 20
393.12251972373
 30
0.0
 11
642.04066266549
 21
388.12245872373
 31
0.0
  0
LINE
  5
119
330
1F
100
AcDbEntity
  8
営業図
  6
CONTINUOUS
 62
     7
100
AcDbLine
 10
617.04066266549
 20
412.12245872373
 30
0.0
 11
617.04066266549
 21
405.12242772373
 31
0.0
  0
LINE
  5
11A
330
1F
100
AcDbEntity
  8
営業図
  6
CONTINUOUS
 62
     7
100
AcDbLine
 10
642.04066266549
 20
405.12245872373
 30
0.0
 11
642.04066266549
 21
412.12242772373
 31
0.0
  0
LINE
  5
11B
330
1F
100
AcDbEntity
  8
営業図
  6
CONTINUOUS
 62
     7
100
AcDbLine
 10
617.04066266549
 20
405.12242772373
 30
0.0
 11
620.04066266549
 21
403.62242772373
 31
0.0
  0
LINE
  5
11C
330
1F
100
AcDbEntity
  8
営業図
  6
CONTINUOUS
 62
     7
100
AcDbLine
 10
620.04066266549
 20
403.62242772373
 30
0.0
 11
623.04066266549
 21
405.12242772373
 31
0.0
  0
LINE
  5
11D
330
1F
100
AcDbEntity
  8
営業図
  6
CONTINUOUS
 62
     7
100
AcDbLine
 10
636.04066266549
 20
405.12245872373
 30
0.0
 11
639.04066266549
 21
403.62245872373
 31
0.0
  0
LINE
  5
11E
330
1F
100
AcDbEntity
  8
営業図
  6
CONTINUOUS
 62
     7
100
AcDbLine
 10
639.04066266549
 20
403.62245872373
 30
0.0
 11
642.04066266549
 21
405.12245872373
 31
0.0
  0
LINE
  5
11F
330
1F
100
AcDbEntity
  8
営業図
  6
CONTINUOUS
 62
     7
100
AcDbLine
 10
620.04066266549
 20
394.62245872373
 30
0.0
 11
639.04066266549
 21
394.62248972373
 31
0.0
  0
LINE
  5
120
330
1F
100
AcDbEntity
  8
営業図
  6
CONTINUOUS
 62
     7
100
AcDbLine
 10
639.04066266549
 20
386.62245872373
 30
0.0
 11
620.04066266549
 21
386.62245872373
 31
0.0
  0
LINE
  5
121
330
1F
100
AcDbEntity
  8
営業図
  6
CONTINUOUS
 62
     7
100
AcDbLine
 10
620.04066266549
 20
413.62248972373
 30
0.0
 11
639.04066266549
 21
413.62245872373
 31
0.0
  0
LINE
  5
122
330
1F
100
AcDbEntity
  8
営業図
  6
CONTINUOUS
 62
     7
100
AcDbLine
 10
639.04066266549
 20
399.12251972373
 30
0.0
 11
620.04066266549
 21
399.12245872373
 31
0.0
  0
LINE
  5
123
330
1F
100
AcDbEntity
  8
営業図
  6
CONTINUOUS
 62
     7
100
AcDbLine
 10
622.6528456654901
 20
399.12245872373
 30
0.0
 11
622.6528456654901
 21
394.62203172373
 31
0.0
  0
LINE
  5
124
330
1F
100
AcDbEntity
  8
営業図
  6
CONTINUOUS
 62
     7
100
AcDbLine
 10
636.6528456654901
 20
394.62206172373
 30
0.0
 11
636.6528456654901
 21
399.12245872373
 31
0.0
  0
LINE
  5
125
330
1F
100
AcDbEntity
  8
営業図
  6
CONTINUOUS
 62
     7
100
AcDbLine
 10
620.04066266549
 20
394.62245872373
 30
0.0
 11
620.04066266549
 21
399.12245872373
 31
0.0
  0
LINE
  5
126
330
1F
100
AcDbEntity
  8
営業図
  6
CONTINUOUS
 62
     7
100
AcDbLine
 10
639.04066266549
 20
394.62248972373
 30
0.0
 11
639.04066266549
 21
399.12242772373
 31
0.0
  0
LINE
  5
127
330
1F
100
AcDbEntity
  8
営業図
  6
CONTINUOUS
 62
     7
100
AcDbLine
 10
618.54066266549
 20
404.37245872373
 30
0.0
 11
620.04066266549
 21
399.12245872373
 31
0.0
  0
LINE
  5
128
330
1F
100
AcDbEntity
  8
営業図
  6
CONTINUOUS
 62
     7
100
AcDbLine
 10
640.54066266549
 20
404.37242772373
 30
0.0
 11
639.04066266549
 21
399.12242772373
 31
0.0
  0
LINE
  5
129
330
1F
100
AcDbEntity
  8
営業図
  6
CONTINUOUS
 62
     7
100
AcDbLine
 10
629.54066266549
 20
399.12291672373
 30
0.0
 11
629.54066266549
 21
394.62248972373
 31
0.0
  0
LINE
  5
12A
330
1F
100
AcDbEntity
  8
営業図
  6
CONTINUOUS
 62
     7
100
AcDbLine
 10
621.44605766549
 20
384.12245872373
 30
0.0
 11
621.44602766549
 21
386.62245872373
 31
0.0
  0
LINE
  5
12B
330
1F
100
AcDbEntity
  8
営業図
  6
CONTINUOUS
 62
     7
100
AcDbLine
 10
637.54066266549
 20
384.12245872373
 30
0.0
 11
637.54066266549
 21
386.62248972373
 31
0.0
  0
LINE
  5
12C
330
1F
100
AcDbEntity
  8
営業図
  6
CONTINUOUS
 62
     1
100
AcDbLine
 10
629.54066266549
 20
374.12245872373
 30
0.0
 11
629.54066266549
 21
423.62245872373
 31
0.0
  0
LINE
  5
12D
330
1F
100
AcDbEntity
  8
営業図
  6
CONTINUOUS
 62
     7
100
AcDbLine
 10
234.54069266549
 20
226.12245872373
 30
0.0
 11
234.54069266549
 21
362.12242772373
 31
0.0
  0
LINE
  5
12E
330
1F
100
AcDbEntity
  8
営業図
  6
CONTINUOUS
 62
     7
100
AcDbLine
 10
236.54069266549
 20
224.12245872373
 30
0.0
 11
272.54069266549
 21
224.12245872373
 31
0.0
  0
LINE
  5
12F
330
1F
100
AcDbEntity
  8
営業図
  6
CONTINUOUS
 62
     7
100
AcDbLine
 10
236.54069266549
 20
364.12242772373
 30
0.0
 11
272.54069266549
 21
364.12242772373
 31
0.0
  0
LINE
  5
130
330
1F
100
AcDbEntity
  8
営業図
  6
CONTINUOUS
 62
     7
100
AcDbLine
 10
274.54069266549
 20
362.12242772373
 30
0.0
 11
274.54069266549
 21
226.12245872373
 31
0.0
  0
LINE
  5
131
330
1F
100
AcDbEntity
  8
営業図
  6
CONTINUOUS
 62
     7
100
AcDbLine
 10
272.54069266549
 20
364.12242772373
 30
0.0
 11
274.54069266549
 21
362.12242772373
 31
0.0
  0
LINE
  5
132
330
1F
100
AcDbEntity
  8
営業図
  6
CONTINUOUS
 62
     7
100
AcDbLine
 10
272.54069266549
 20
224.12245872373
 30
0.0
 11
274.54069266549
 21
226.12245872373
 31
0.0
  0
LINE
  5
133
330
1F
100
AcDbEntity
  8
営業図
  6
CONTINUOUS
 62
     7
100
AcDbLine
 10
234.54069266549
 20
362.12242772373
 30
0.0
 11
236.54069266549
 21
364.12242772373
 31
0.0
  0
LINE
  5
134
330
1F
100
AcDbEntity
  8
営業図
  6
CONTINUOUS
 62
     7
100
AcDbLine
 10
236.54069266549
 20
224.12245872373
 30
0.0
 11
234.54069266549
 21
226.12245872373
 31
0.0
  0
LINE
  5
135
330
1F
100
AcDbEntity
  8
営業図
  6
CONTINUOUS
 62
     7
100
AcDbLine
 10
272.54069266549
 20
224.12245872373
 30
0.0
 11
272.54069266549
 21
364.12242772373
 31
0.0
  0
LINE
  5
136
330
1F
100
AcDbEntity
  8
営業図
  6
CONTINUOUS
 62
     7
100
AcDbLine
 10
236.54069266549
 20
364.12242772373
 30
0.0
 11
236.54069266549
 21
224.12245872373
 31
0.0
  0
LINE
  5
137
330
1F
100
AcDbEntity
  8
営業図
  6
CONTINUOUS
 62
     7
100
AcDbLine
 10
284.54068566549
 20
339.12245872373
 30
0.0
 11
274.54068566549
 21
339.12245872373
 31
0.0
  0
LINE
  5
138
330
1F
100
AcDbEntity
  8
営業図
  6
CONTINUOUS
 62
     7
100
AcDbLine
 10
284.54068566549
 20
249.12242772373
 30
0.0
 11
274.54068566549
 21
249.12242772373
 31
0.0
  0
LINE
  5
139
330
1F
100
AcDbEntity
  8
営業図
  6
EXLTYPE2
 62
     1
100
AcDbLine
 10
699.54069266549
 20
294.12244372373
 30
0.0
 11
224.54069666549
 21
294.12244372373
 31
0.0
  0
DIMENSION
  5
13B
330
1F
100
AcDbEntity
  8
営業図
  6
CONTINUOUS
 62
     1
100
AcDbDimension
  2
*D15
 10
191.8
 20
224.12245872373
 30
0.0
 11
187.8
 21
294.12244322373
 31
0.0
 70
   160
  1
%%c<>
  3
ISO-25
100
AcDbAlignedDimension
 13
236.54069266549
 23
364.12242772373
 33
0.0
 14
236.54069266549
 24
224.12245872373
 34
0.0
 50
90.0
100
AcDbRotatedDimension
1001
ACAD
1000
DSTYLE
1002
{
1070
   270
1070
     2
1070
     6
1000
EX_BNORM
1070
     7
1000
EX_BNORM
1070
    41
1040
6.0
1070
    42
1040
3.0
1070
    44
1040
3.0
1070
    73
1070
     0
1070
    74
1070
     0
1070
    75
1070
     0
1070
    76
1070
     0
1070
    77
1070
     1
1070
    78
1070
     0
1070
   140
1040
4.6771656
1070
   147
1040
0.0
1070
   173
1070
     1
1070
   176
1070
     1
1070
   177
1070
     1
1070
   178
1070
     1
1070
   271
1070
     0
1070
   277
1070
     2
1070
   279
1070
     2
1070
   280
1070
     0
1070
   287
1070
     5
1070
   340
1005
13A
1002
}
  0
DIMENSION
  5
149
330
1F
100
AcDbEntity
  8
営業図
  6
CONTINUOUS
 62
     1
100
AcDbDimension
  2
*D16
 10
172.6
 20
204.12245872373
 30
0.0
 11
168.6
 21
294.12245872373
 31
0.0
 70
   160
  1
%%c<>
  3
ISO-25
100
AcDbAlignedDimension
 13
286.54069266549
 23
384.12245872373
 33
0.0
 14
286.54069266549
 24
204.12245872373
 34
0.0
 50
90.0
100
AcDbRotatedDimension
1001
ACAD
1000
DSTYLE
1002
{
1070
   270
1070
     2
1070
     6
1000
EX_BNORM
1070
     7
1000
EX_BNORM
1070
    41
1040
6.0
1070
    42
1040
3.0
1070
    44
1040
3.0
1070
    73
1070
     0
1070
    74
1070
     0
1070
    75
1070
     0
1070
    76
1070
     0
1070
    77
1070
     1
1070
    78
1070
     0
1070
   140
1040
4.6771656
1070
   147
1040
0.0
1070
   173
1070
     1
1070
   176
1070
     1
1070
   177
1070
     1
1070
   178
1070
     1
1070
   271
1070
     0
1070
   277
1070
     2
1070
   279
1070
     2
1070
   280
1070
     0
1070
   287
1070
     5
1070
   340
1005
13A
1002
}
  0
DIMENSION
  5
156
330
1F
100
AcDbEntity
  8
営業図
  6
CONTINUOUS
 62
     1
100
AcDbDimension
  2
*D17
 10
689.54069266549
 20
153.2
 30
0.0
 11
462.04069266549
 21
157.2
 31
0.0
 70
   160
  1
450～650
  3
ISO-25
100
AcDbAlignedDimension
 13
234.54069266549
 23
226.12245872373
 33
0.0
 14
689.54069266549
 24
206.12245872373
 34
0.0
100
AcDbRotatedDimension
1001
ACAD
1000
DSTYLE
1002
{
1070
   270
1070
     2
1070
     6
1000
EX_BNORM
1070
     7
1000
EX_BNORM
1070
    41
1040
6.0
1070
    42
1040
3.0
1070
    44
1040
3.0
1070
    73
1070
     0
1070
    74
1070
     0
1070
    75
1070
     0
1070
    76
1070
     0
1070
    77
1070
     1
1070
    78
1070
     0
1070
   140
1040
4.6771656
1070
   147
1040
0.0
1070
   173
1070
     1
1070
   176
1070
     1
1070
   177
1070
     1
1070
   178
1070
     1
1070
   271
1070
     0
1070
   277
1070
     2
1070
   279
1070
     2
1070
   280
1070
     0
1070
   287
1070
     5
1070
   340
1005
13A
1002
}
  0
TEXT
  5
163
330
1F
100
AcDbEntity
  8
営業図
  6
CONTINUOUS
 62
     1
100
AcDbText
 10
394.2
 20
482.42195162383
 30
0.0
 40
4.6771656
  1
ＰＴ３／８（戻し用）
 41
0.9812678513683524
  7
EXCADSTD
 72
     5
 11
453.2400000000001
 21
482.42195162383
 31
0.0
100
AcDbText
  0
LEADER
  5
164
330
1F
100
AcDbEntity
  8
営業図
  6
CONTINUOUS
 62
     1
100
AcDbLeader
  3
ISO-25
 76
     3
 10
354.54067634973
 20
413.62247422376
 30
0.0
 10
393.22102412434
 20
480.61880182383
 30
0.0
 10
454.2
 20
480.61880182383
 30
0.0
1001
ACAD
1000
DSTYLE
1002
{
1070
     5
1000
EX_BNORM
1070
    41
1040
6.0
1070
   341
1005
7A
1002
}
  0
TEXT
  5
165
330
1F
100
AcDbEntity
  8
営業図
  6
CONTINUOUS
 62
     1
100
AcDbText
 10
668.8
 20
482.5487245619501
 30
0.0
 40
4.6771656
  1
ＰＴ３／８（加圧用）
 41
0.9513890292434786
  7
EXCADSTD
 72
     5
 11
727.8399999999999
 21
482.5487245619501
 31
0.0
100
AcDbText
  0
LEADER
  5
166
330
1F
100
AcDbEntity
  8
営業図
  6
CONTINUOUS
 62
     1
100
AcDbLeader
  3
ISO-25
 76
     3
 10
629.54072711288
 20
413.62247422362
 30
0.0
 10
668.29426727752
 20
480.74557476195
 30
0.0
 10
728.8
 20
480.74557476195
 30
0.0
1001
ACAD
1000
DSTYLE
1002
{
1070
     5
1000
EX_BNORM
1070
    41
1040
6.0
1070
   341
1005
7A
1002
}
  0
TEXT
  5
167
330
1F
100
AcDbEntity
  8
営業図
  6
CONTINUOUS
 62
     6
100
AcDbText
 10
646.5
 20
18.3370081
 30
0.0
 40
5.4566932
  1
オイルジャッキ　ＤＰ－５Ｊ
 41
0.9031425751916167
  7
EXCADSTD
 72
     5
 11
736.38
 21
18.3370081
 31
0.0
100
AcDbText
  0
LINE
  5
168
330
1F
100
AcDbEntity
  8
営業図
  6
CONTINUOUS
 62
    54
100
AcDbLine
 10
448.5656565652087
 20
27.20140800394726
 30
0.0
 11
448.5864707834574
 21
27.22222222219595
 31
0.0
  0
LINE
  5
169
330
1F
100
AcDbEntity
  8
営業図
  6
CONTINUOUS
 62
    54
100
AcDbLine
 10
448.5656565652079
 20
26.8014284105485
 30
0.0
 11
448.9864503768561
 21
27.22222222219667
 31
0.0
  0
LINE
  5
16A
330
1F
100
AcDbEntity
  8
営業図
  6
CONTINUOUS
 62
    54
100
AcDbLine
 10
448.565656565209
 20
26.40144881715152
 30
0.0
 11
449.3864299702531
 21
27.22222222219559
 31
0.0
  0
LINE
  5
16B
330
1F
100
AcDbEntity
  8
営業図
  6
CONTINUOUS
 62
    54
100
AcDbLine
 10
448.5656565652101
 20
26.00146922375462
 30
0.0
 11
449.7864095636501
 21
27.22222222219454
 31
0.0
  0
LINE
  5
16C
330
1F
100
AcDbEntity
  8
営業図
  6
CONTINUOUS
 62
    54
100
AcDbLine
 10
448.5656565652076
 20
25.60148963035401
 30
0.0
 11
450.1863891570506
 21
27.22222222219708
 31
0.0
  0
LINE
  5
16D
330
1F
100
AcDbEntity
  8
営業図
  6
CONTINUOUS
 62
    54
100
AcDbLine
 10
448.5656565652068
 20
25.20151003695526
 30
0.0
 11
450.5863687504475
 21
27.22222222219599
 31
0.0
  0
LINE
  5
16E
330
1F
100
AcDbEntity
  8
営業図
  6
CONTINUOUS
 62
    54
100
AcDbLine
 10
448.5656565652079
 20
24.80153044355831
 30
0.0
 11
450.9597668497271
 21
27.19564072807751
 31
0.0
  0
LINE
  5
16F
330
1F
100
AcDbEntity
  8
営業図
  6
CONTINUOUS
 62
    54
100
AcDbLine
 10
448.565656565209
 20
24.40155085016137
 30
0.0
 11
451.2634469379761
 21
27.09934122292856
 31
0.0
  0
LINE
  5
170
330
1F
100
AcDbEntity
  8
営業図
  6
CONTINUOUS
 62
    54
100
AcDbLine
 10
448.5656565652082
 20
24.00157125676261
 30
0.0
 11
449.9797979793481
 21
25.41571267090251
 31
0.0
  0
LINE
  5
171
330
1F
100
AcDbEntity
  8
営業図
  6
CONTINUOUS
 62
    54
100
AcDbLine
 10
448.5656565652075
 20
23.60159166336382
 30
0.0
 11
449.9797979793481
 21
25.01573307750441
 31
0.0
  0
LINE
  5
172
330
1F
100
AcDbEntity
  8
営業図
  6
CONTINUOUS
 62
    54
100
AcDbLine
 10
448.5656565652085
 20
23.20161206996687
 30
0.0
 11
449.9797979793481
 21
24.61575348410648
 31
0.0
  0
LINE
  5
173
330
1F
100
AcDbEntity
  8
営業図
  6
CONTINUOUS
 62
    54
100
AcDbLine
 10
448.5656565652078
 20
22.80163247656808
 30
0.0
 11
449.9797979793481
 21
24.21577389070838
 31
0.0
  0
LINE
  5
174
330
1F
100
AcDbEntity
  8
営業図
  6
CONTINUOUS
 62
    54
100
AcDbLine
 10
448.5656565652089
 20
22.40165288317118
 30
0.0
 11
449.9797979793481
 21
23.81579429731041
 31
0.0
  0
LINE
  5
175
330
1F
100
AcDbEntity
  8
営業図
  6
CONTINUOUS
 62
    54
100
AcDbLine
 10
448.5656565652082
 20
22.00167328977238
 30
0.0
 11
449.9797979793481
 21
23.41581470391234
 31
0.0
  0
LINE
  5
176
330
1F
100
AcDbEntity
  8
営業図
  6
CONTINUOUS
 62
    54
100
AcDbLine
 10
448.5656565652092
 20
21.60169369637544
 30
0.0
 11
449.9797979793481
 21
23.01583511051435
 31
0.0
  0
LINE
  5
177
330
1F
100
AcDbEntity
  8
営業図
  6
CONTINUOUS
 62
    54
100
AcDbLine
 10
448.5656565652085
 20
21.20171410297664
 30
0.0
 11
449.9797979793481
 21
22.61585551711625
 31
0.0
  0
LINE
  5
178
330
1F
100
AcDbEntity
  8
営業図
  6
CONTINUOUS
 62
    54
100
AcDbLine
 10
448.5656565652078
 20
20.80173450957793
 30
0.0
 11
449.9797979793481
 21
22.21587592371827
 31
0.0
  0
LINE
  5
179
330
1F
100
AcDbEntity
  8
営業図
  6
CONTINUOUS
 62
    54
100
AcDbLine
 10
448.5656565652088
 20
20.40175491618094
 30
0.0
 11
449.9797979793481
 21
21.81589633032022
 31
0.0
  0
LINE
  5
17A
330
1F
100
AcDbEntity
  8
営業図
  6
CONTINUOUS
 62
    54
100
AcDbLine
 10
448.5656565652099
 20
20.001775322784
 30
0.0
 11
449.9797979793481
 21
21.41591673692224
 31
0.0
  0
LINE
  5
17B
330
1F
100
AcDbEntity
  8
営業図
  6
CONTINUOUS
 62
    54
100
AcDbLine
 10
448.5656565652092
 20
19.60179572938524
 30
0.0
 11
449.9797979793481
 21
21.01593714352421
 31
0.0
  0
LINE
  5
17C
330
1F
100
AcDbEntity
  8
営業図
  6
CONTINUOUS
 62
    54
100
AcDbLine
 10
448.5656565652103
 20
19.2018161359883
 30
0.0
 11
449.9797979793481
 21
20.61595755012615
 31
0.0
  0
LINE
  5
17D
330
1F
100
AcDbEntity
  8
営業図
  6
CONTINUOUS
 62
    54
100
AcDbLine
 10
448.5656565652077
 20
18.8018365425877
 30
0.0
 11
449.9797979793481
 21
20.21597795672809
 31
0.0
  0
LINE
  5
17E
330
1F
100
AcDbEntity
  8
営業図
  6
CONTINUOUS
 62
    54
100
AcDbLine
 10
448.5656565652088
 20
18.40185694919075
 30
0.0
 11
449.9797979793481
 21
19.81599836333009
 31
0.0
  0
LINE
  5
17F
330
1F
100
AcDbEntity
  8
営業図
  6
CONTINUOUS
 62
    54
100
AcDbLine
 10
448.565656565208
 20
18.00187735579196
 30
0.0
 11
449.9797979793481
 21
19.41601876993206
 31
0.0
  0
LINE
  5
180
330
1F
100
AcDbEntity
  8
営業図
  6
CONTINUOUS
 62
    54
100
AcDbLine
 10
448.5656565652092
 20
17.60189776239505
 30
0.0
 11
449.9797979793481
 21
19.01603917653403
 31
0.0
  0
LINE
  5
181
330
1F
100
AcDbEntity
  8
営業図
  6
CONTINUOUS
 62
    54
100
AcDbLine
 10
448.5656565652102
 20
17.20191816899807
 30
0.0
 11
449.9797979793481
 21
18.61605958313603
 31
0.0
  0
LINE
  5
182
330
1F
100
AcDbEntity
  8
営業図
  6
CONTINUOUS
 62
    54
100
AcDbLine
 10
448.5656565652076
 20
16.80193857559751
 30
0.0
 11
449.9797979793481
 21
18.21607998973799
 31
0.0
  0
LINE
  5
183
330
1F
100
AcDbEntity
  8
営業図
  6
CONTINUOUS
 62
    54
100
AcDbLine
 10
448.5656565652087
 20
16.40195898220052
 30
0.0
 11
449.9797979793481
 21
17.81610039633991
 31
0.0
  0
LINE
  5
184
330
1F
100
AcDbEntity
  8
営業図
  6
CONTINUOUS
 62
    54
100
AcDbLine
 10
448.5656565652098
 20
16.00197938880362
 30
0.0
 11
449.9797979793481
 21
17.41612080294193
 31
0.0
  0
LINE
  5
185
330
1F
100
AcDbEntity
  8
営業図
  6
CONTINUOUS
 62
    54
100
AcDbLine
 10
448.5656565652091
 20
15.60199979540486
 30
0.0
 11
449.9797979793481
 21
17.01614120954393
 31
0.0
  0
LINE
  5
186
330
1F
100
AcDbEntity
  8
営業図
  6
CONTINUOUS
 62
    54
100
AcDbLine
 10
448.5656565652065
 20
15.20202020200426
 30
0.0
 11
449.9797979793481
 21
16.6161616161459
 31
0.0
  0
LINE
  5
187
330
1F
100
AcDbEntity
  8
営業図
  6
CONTINUOUS
 62
    54
100
AcDbLine
 10
448.9656361586053
 20
15.20202020200503
 30
0.0
 11
452.1010101005564
 21
18.33739414395611
 31
0.0
  0
LINE
  5
188
330
1F
100
AcDbEntity
  8
営業図
  6
CONTINUOUS
 62
    54
100
AcDbLine
 10
449.3656157520023
 20
15.2020202020039
 30
0.0
 11
452.1010101005574
 21
17.93741455055913
 31
0.0
  0
LINE
  5
189
330
1F
100
AcDbEntity
  8
営業図
  6
CONTINUOUS
 62
    54
100
AcDbLine
 10
449.765595345401
 20
15.20202020200466
 30
0.0
 11
452.1010101005585
 21
17.53743495716222
 31
0.0
  0
LINE
  5
18A
330
1F
100
AcDbEntity
  8
営業図
  6
CONTINUOUS
 62
    54
100
AcDbLine
 10
450.1655749387979
 20
15.20202020200358
 30
0.0
 11
452.1010101005578
 21
17.13745536376343
 31
0.0
  0
LINE
  5
18B
330
1F
100
AcDbEntity
  8
営業図
  6
CONTINUOUS
 62
    54
100
AcDbLine
 10
450.5655545321949
 20
15.20202020200249
 30
0.0
 11
452.1010101005588
 21
16.73747577036648
 31
0.0
  0
LINE
  5
18C
330
1F
100
AcDbEntity
  8
営業図
  6
CONTINUOUS
 62
    54
100
AcDbLine
 10
451.0008256754576
 20
15.23731175186716
 30
0.0
 11
452.065718550696
 21
16.30220462710559
 31
0.0
  0
LINE
  5
18D
330
1F
100
AcDbEntity
  8
営業図
  6
CONTINUOUS
 62
    54
100
AcDbLine
 10
448.9656361586061
 20
15.20202020200494
 30
0.0
 11
448.5656565652064
 21
15.60199979540446
 31
0.0
  0
LINE
  5
18E
330
1F
100
AcDbEntity
  8
営業図
  6
CONTINUOUS
 62
    54
100
AcDbLine
 10
449.3656157520048
 20
15.20202020200426
 30
0.0
 11
448.5656565652076
 21
16.00197938880145
 31
0.0
  0
LINE
  5
18F
330
1F
100
AcDbEntity
  8
営業図
  6
CONTINUOUS
 62
    54
100
AcDbLine
 10
449.7655953454017
 20
15.20202020200531
 30
0.0
 11
448.5656565652087
 21
16.40195898219835
 31
0.0
  0
LINE
  5
190
330
1F
100
AcDbEntity
  8
営業図
  6
CONTINUOUS
 62
    54
100
AcDbLine
 10
450.1655749388005
 20
15.20202020200458
 30
0.0
 11
448.5656565652079
 21
16.80193857559714
 31
0.0
  0
LINE
  5
191
330
1F
100
AcDbEntity
  8
営業図
  6
CONTINUOUS
 62
    54
100
AcDbLine
 10
450.5655545321993
 20
15.20202020200382
 30
0.0
 11
448.565656565209
 21
17.20191816899409
 31
0.0
  0
LINE
  5
192
330
1F
100
AcDbEntity
  8
営業図
  6
CONTINUOUS
 62
    54
100
AcDbLine
 10
450.9422780412544
 20
15.22527628634671
 30
0.0
 11
448.5656565652064
 21
17.60189776239469
 31
0.0
  0
LINE
  5
193
330
1F
100
AcDbEntity
  8
営業図
  6
CONTINUOUS
 62
    54
100
AcDbLine
 10
451.2489910445678
 20
15.31854287643126
 30
0.0
 11
448.5656565652076
 21
18.00187735579164
 31
0.0
  0
LINE
  5
194
330
1F
100
AcDbEntity
  8
営業図
  6
CONTINUOUS
 62
    54
100
AcDbLine
 10
451.5048866821979
 20
15.4626268321993
 30
0.0
 11
450.2830296208421
 21
16.6844838935551
 31
0.0
  0
LINE
  5
195
330
1F
100
AcDbEntity
  8
営業図
  6
CONTINUOUS
 62
    54
100
AcDbLine
 10
451.7185294793751
 20
15.64896362842001
 30
0.0
 11
450.510963875744
 21
16.85652923205122
 31
0.0
  0
LINE
  5
196
330
1F
100
AcDbEntity
  8
営業図
  6
CONTINUOUS
 62
    54
100
AcDbLine
 10
451.8917004368689
 20
15.87577226432428
 30
0.0
 11
450.6547920402825
 21
17.11268066091073
 31
0.0
  0
LINE
  5
197
330
1F
100
AcDbEntity
  8
営業図
  6
CONTINUOUS
 62
    54
100
AcDbLine
 10
452.0207956158166
 20
16.14665667877461
 30
0.0
 11
450.6868686864175
 21
17.48058360817373
 31
0.0
  0
LINE
  5
198
330
1F
100
AcDbEntity
  8
営業図
  6
CONTINUOUS
 62
    54
100
AcDbLine
 10
452.0938082268944
 20
16.47362366109484
 30
0.0
 11
450.6868686864175
 21
17.88056320157163
 31
0.0
  0
LINE
  5
199
330
1F
100
AcDbEntity
  8
営業図
  6
CONTINUOUS
 62
    54
100
AcDbLine
 10
452.1010101005573
 20
16.86640138082998
 30
0.0
 11
450.6868686864175
 21
18.28054279496972
 31
0.0
  0
LINE
  5
19A
330
1F
100
AcDbEntity
  8
営業図
  6
CONTINUOUS
 62
    54
100
AcDbLine
 10
452.1010101005584
 20
17.26638097422693
 30
0.0
 11
450.6868686864175
 21
18.68052238836773
 31
0.0
  0
LINE
  5
19B
330
1F
100
AcDbEntity
  8
営業図
  6
CONTINUOUS
 62
    54
100
AcDbLine
 10
452.1010101005595
 20
17.66636056762391
 30
0.0
 11
450.6868686864175
 21
19.08050198176582
 31
0.0
  0
LINE
  5
19C
330
1F
100
AcDbEntity
  8
営業図
  6
CONTINUOUS
 62
    54
100
AcDbLine
 10
452.1010101005587
 20
18.06634016102262
 30
0.0
 11
450.6868686864175
 21
19.48048157516373
 31
0.0
  0
LINE
  5
19D
330
1F
100
AcDbEntity
  8
営業図
  6
CONTINUOUS
 62
    54
100
AcDbLine
 10
452.101010100558
 20
18.46631975442142
 30
0.0
 11
450.6868686864175
 21
19.88046116856188
 31
0.0
  0
LINE
  5
19E
330
1F
100
AcDbEntity
  8
営業図
  6
CONTINUOUS
 62
    54
100
AcDbLine
 10
452.1010101005572
 20
18.86629934782017
 30
0.0
 11
450.6868686864175
 21
20.28044076195991
 31
0.0
  0
LINE
  5
19F
330
1F
100
AcDbEntity
  8
営業図
  6
CONTINUOUS
 62
    54
100
AcDbLine
 10
452.1010101005584
 20
19.26627894121716
 30
0.0
 11
450.6868686864175
 21
20.68042035535794
 31
0.0
  0
LINE
  5
1A0
330
1F
100
AcDbEntity
  8
営業図
  6
CONTINUOUS
 62
    54
100
AcDbLine
 10
452.1010101005594
 20
19.66625853461406
 30
0.0
 11
450.6868686864175
 21
21.08039994875587
 31
0.0
  0
LINE
  5
1A1
330
1F
100
AcDbEntity
  8
営業図
  6
CONTINUOUS
 62
    54
100
AcDbLine
 10
452.1010101005587
 20
20.06623812801286
 30
0.0
 11
450.6868686864175
 21
21.48037954215397
 31
0.0
  0
LINE
  5
1A2
330
1F
100
AcDbEntity
  8
営業図
  6
CONTINUOUS
 62
    54
100
AcDbLine
 10
452.1010101005579
 20
20.46621772141161
 30
0.0
 11
450.6868686864175
 21
21.88035913555193
 31
0.0
  0
LINE
  5
1A3
330
1F
100
AcDbEntity
  8
営業図
  6
CONTINUOUS
 62
    54
100
AcDbLine
 10
452.101010100559
 20
20.86619731480859
 30
0.0
 11
450.6868686864175
 21
22.28033872895005
 31
0.0
  0
LINE
  5
1A4
330
1F
100
AcDbEntity
  8
営業図
  6
CONTINUOUS
 62
    54
100
AcDbLine
 10
452.1010101005583
 20
21.26617690820735
 30
0.0
 11
450.6868686864175
 21
22.68031832234807
 31
0.0
  0
LINE
  5
1A5
330
1F
100
AcDbEntity
  8
営業図
  6
CONTINUOUS
 62
    54
100
AcDbLine
 10
452.1010101005593
 20
21.66615650160429
 30
0.0
 11
450.6868686864175
 21
23.08029791574607
 31
0.0
  0
LINE
  5
1A6
330
1F
100
AcDbEntity
  8
営業図
  6
CONTINUOUS
 62
    54
100
AcDbLine
 10
452.1010101005586
 20
22.06613609500305
 30
0.0
 11
450.6868686864175
 21
23.48027750914412
 31
0.0
  0
LINE
  5
1A7
330
1F
100
AcDbEntity
  8
営業図
  6
CONTINUOUS
 62
    54
100
AcDbLine
 10
452.1010101005579
 20
22.46611568840184
 30
0.0
 11
450.6868686864175
 21
23.88025710254216
 31
0.0
  0
LINE
  5
1A8
330
1F
100
AcDbEntity
  8
営業図
  6
CONTINUOUS
 62
    54
100
AcDbLine
 10
452.101010100559
 20
22.86609528179875
 30
0.0
 11
450.6868686864175
 21
24.28023669594017
 31
0.0
  0
LINE
  5
1A9
330
1F
100
AcDbEntity
  8
営業図
  6
CONTINUOUS
 62
    54
100
AcDbLine
 10
452.1010101005582
 20
23.26607487519754
 30
0.0
 11
450.6868686864175
 21
24.68021628933822
 31
0.0
  0
LINE
  5
1AA
330
1F
100
AcDbEntity
  8
営業図
  6
CONTINUOUS
 62
    54
100
AcDbLine
 10
452.1010101005593
 20
23.66605446859448
 30
0.0
 11
450.6868686864175
 21
25.08019588273629
 31
0.0
  0
LINE
  5
1AB
330
1F
100
AcDbEntity
  8
営業図
  6
CONTINUOUS
 62
    54
100
AcDbLine
 10
452.1010101005585
 20
24.06603406199324
 30
0.0
 11
448.9448219403551
 21
27.22222222219663
 31
0.0
  0
LINE
  5
1AC
330
1F
100
AcDbEntity
  8
営業図
  6
CONTINUOUS
 62
    54
100
AcDbLine
 10
452.1010101005579
 20
24.46601365539203
 30
0.0
 11
449.3448015337539
 21
27.22222222219591
 31
0.0
  0
LINE
  5
1AD
330
1F
100
AcDbEntity
  8
営業図
  6
CONTINUOUS
 62
    54
100
AcDbLine
 10
452.1010101005588
 20
24.86599324878894
 30
0.0
 11
449.7447811271527
 21
27.22222222219515
 31
0.0
  0
LINE
  5
1AE
330
1F
100
AcDbEntity
  8
営業図
  6
CONTINUOUS
 62
    54
100
AcDbLine
 10
452.1010101005582
 20
25.26597284218773
 30
0.0
 11
450.1447607205497
 21
27.22222222219627
 31
0.0
  0
LINE
  5
1AF
330
1F
100
AcDbEntity
  8
営業図
  6
CONTINUOUS
 62
    54
100
AcDbLine
 10
452.1010101005593
 20
25.66595243558467
 30
0.0
 11
450.5447403139484
 21
27.22222222219551
 31
0.0
  0
LINE
  5
1B0
330
1F
100
AcDbEntity
  8
営業図
  6
CONTINUOUS
 62
    54
100
AcDbLine
 10
452.0715070791388
 20
26.09543505040315
 30
0.0
 11
450.9742229287687
 21
27.19271920077326
 31
0.0
  0
LINE
  5
1B1
330
1F
100
AcDbEntity
  8
営業図
  6
CONTINUOUS
 62
    54
100
AcDbLine
 10
449.9797979793481
 20
25.78726658980566
 30
0.0
 11
448.5656565652069
 21
27.2014080039469
 31
0.0
  0
LINE
  5
1B2
330
1F
100
AcDbEntity
  8
営業図
  6
CONTINUOUS
 62
    54
100
AcDbLine
 10
450.5205895295359
 20
25.55652462769224
 30
0.0
 11
451.7285467003343
 21
26.76448179849062
 31
0.0
  0
LINE
  5
1B3
330
1F
100
AcDbEntity
  8
営業図
  6
CONTINUOUS
 62
    54
100
AcDbLine
 10
450.6595830060724
 20
25.2955385108308
 30
0.0
 11
451.8995637314981
 21
26.53551923625641
 31
0.0
  0
LINE
  5
1B4
330
1F
100
AcDbEntity
  8
営業図
  6
CONTINUOUS
 62
    54
100
AcDbLine
 10
449.9797979793481
 20
24.9873074030096
 30
0.0
 11
448.5656565652084
 21
26.40144881714935
 31
0.0
  0
LINE
  5
1B5
330
1F
100
AcDbEntity
  8
営業図
  6
CONTINUOUS
 62
    54
100
AcDbLine
 10
450.6868686864175
 20
24.5228650043798
 30
0.0
 11
452.0956052028429
 21
25.93160152080519
 31
0.0
  0
LINE
  5
1B6
330
1F
100
AcDbEntity
  8
営業図
  6
CONTINUOUS
 62
    54
100
AcDbLine
 10
449.9797979793481
 20
24.18734821621354
 30
0.0
 11
448.565656565208
 21
25.60148963035365
 31
0.0
  0
LINE
  5
1B7
330
1F
100
AcDbEntity
  8
営業図
  6
CONTINUOUS
 62
    54
100
AcDbLine
 10
450.6868686864175
 20
24.12288541098177
 30
0.0
 11
452.1010101005588
 21
25.53702682512299
 31
0.0
  0
LINE
  5
1B8
330
1F
100
AcDbEntity
  8
営業図
  6
CONTINUOUS
 62
    54
100
AcDbLine
 10
450.6868686864175
 20
23.72290581758373
 30
0.0
 11
452.101010100558
 21
25.13704723172423
 31
0.0
  0
LINE
  5
1B9
330
1F
100
AcDbEntity
  8
営業図
  6
CONTINUOUS
 62
    54
100
AcDbLine
 10
449.9797979793481
 20
23.38738902941749
 30
0.0
 11
448.5656565652059
 21
24.80153044355976
 31
0.0
  0
LINE
  5
1BA
330
1F
100
AcDbEntity
  8
営業図
  6
CONTINUOUS
 62
    54
100
AcDbLine
 10
449.9797979793481
 20
22.98740943601951
 30
0.0
 11
448.5656565652066
 21
24.40155085016101
 31
0.0
  0
LINE
  5
1BB
330
1F
100
AcDbEntity
  8
営業図
  6
CONTINUOUS
 62
    54
100
AcDbLine
 10
449.9797979793481
 20
22.58742984262141
 30
0.0
 11
448.5656565652092
 21
24.0015712567604
 31
0.0
  0
LINE
  5
1BC
330
1F
100
AcDbEntity
  8
営業図
  6
CONTINUOUS
 62
    54
100
AcDbLine
 10
449.9797979793481
 20
22.18745024922337
 30
0.0
 11
448.565656565208
 21
23.60159166336346
 31
0.0
  0
LINE
  5
1BD
330
1F
100
AcDbEntity
  8
営業図
  6
CONTINUOUS
 62
    54
100
AcDbLine
 10
450.6868686864175
 20
21.7230078505936
 30
0.0
 11
452.101010100558
 21
23.137149264734
 31
0.0
  0
LINE
  5
1BE
330
1F
100
AcDbEntity
  8
営業図
  6
CONTINUOUS
 62
    54
100
AcDbLine
 10
449.9797979793481
 20
21.78747065582535
 30
0.0
 11
448.565656565207
 21
23.20161206996647
 31
0.0
  0
LINE
  5
1BF
330
1F
100
AcDbEntity
  8
営業図
  6
CONTINUOUS
 62
    54
100
AcDbLine
 10
449.9797979793481
 20
21.38749106242737
 30
0.0
 11
448.5656565652077
 21
22.80163247656776
 31
0.0
  0
LINE
  5
1C0
330
1F
100
AcDbEntity
  8
営業図
  6
CONTINUOUS
 62
    54
100
AcDbLine
 10
450.6868686864175
 20
20.92304866379756
 30
0.0
 11
452.1010101005564
 21
22.33719007793645
 31
0.0
  0
LINE
  5
1C1
330
1F
100
AcDbEntity
  8
営業図
  6
CONTINUOUS
 62
    54
100
AcDbLine
 10
449.9797979793481
 20
20.98751146902932
 30
0.0
 11
448.5656565652085
 21
22.40165288316897
 31
0.0
  0
LINE
  5
1C2
330
1F
100
AcDbEntity
  8
営業図
  6
CONTINUOUS
 62
    54
100
AcDbLine
 10
450.6868686864175
 20
20.52306907039954
 30
0.0
 11
452.1010101005576
 21
21.93721048453955
 31
0.0
  0
LINE
  5
1C3
330
1F
100
AcDbEntity
  8
営業図
  6
CONTINUOUS
 62
    54
100
AcDbLine
 10
450.6868686864175
 20
20.12308947700148
 30
0.0
 11
452.1010101005587
 21
21.53723089114256
 31
0.0
  0
LINE
  5
1C4
330
1F
100
AcDbEntity
  8
営業図
  6
CONTINUOUS
 62
    54
100
AcDbLine
 10
449.9797979793481
 20
20.1875522822332
 30
0.0
 11
448.5656565652081
 21
21.60169369637323
 31
0.0
  0
LINE
  5
1C5
330
1F
100
AcDbEntity
  8
営業図
  6
CONTINUOUS
 62
    54
100
AcDbLine
 10
450.6868686864175
 20
19.72310988360349
 30
0.0
 11
452.1010101005579
 21
21.13725129774381
 31
0.0
  0
LINE
  5
1C6
330
1F
100
AcDbEntity
  8
営業図
  6
CONTINUOUS
 62
    54
100
AcDbLine
 10
449.9797979793481
 20
19.78757268883531
 30
0.0
 11
448.5656565652071
 21
21.20171410297632
 31
0.0
  0
LINE
  5
1C7
330
1F
100
AcDbEntity
  8
営業図
  6
CONTINUOUS
 62
    54
100
AcDbLine
 10
450.6868686864175
 20
19.32313029020543
 30
0.0
 11
452.101010100559
 21
20.73727170434686
 31
0.0
  0
LINE
  5
1C8
330
1F
100
AcDbEntity
  8
営業図
  6
CONTINUOUS
 62
    54
100
AcDbLine
 10
449.9797979793481
 20
18.98761350203917
 30
0.0
 11
448.5656565652085
 21
20.40175491617877
 31
0.0
  0
LINE
  5
1C9
330
1F
100
AcDbEntity
  8
営業図
  6
CONTINUOUS
 62
    54
100
AcDbLine
 10
450.6868686864175
 20
18.92315069680747
 30
0.0
 11
452.1010101005564
 21
20.3372921109463
 31
0.0
  0
LINE
  5
1CA
330
1F
100
AcDbEntity
  8
営業図
  6
CONTINUOUS
 62
    54
100
AcDbLine
 10
449.9797979793481
 20
18.5876339086411
 30
0.0
 11
448.5656565652074
 21
20.00177532278179
 31
0.0
  0
LINE
  5
1CB
330
1F
100
AcDbEntity
  8
営業図
  6
CONTINUOUS
 62
    54
100
AcDbLine
 10
449.9797979793481
 20
18.18765431524317
 30
0.0
 11
448.5656565652064
 21
19.60179572938489
 31
0.0
  0
LINE
  5
1CC
330
1F
100
AcDbEntity
  8
営業図
  6
CONTINUOUS
 62
    54
100
AcDbLine
 10
450.6868686864175
 20
18.1231915100114
 30
0.0
 11
452.1010101005585
 21
19.53733292415237
 31
0.0
  0
LINE
  5
1CD
330
1F
100
AcDbEntity
  8
営業図
  6
CONTINUOUS
 62
    54
100
AcDbLine
 10
449.9797979793481
 20
17.78767472184505
 30
0.0
 11
448.5656565652071
 21
19.20181613598609
 31
0.0
  0
LINE
  5
1CE
330
1F
100
AcDbEntity
  8
営業図
  6
CONTINUOUS
 62
    54
100
AcDbLine
 10
450.6868686864175
 20
17.72321191661334
 30
0.0
 11
452.1010101005579
 21
19.13735333075366
 31
0.0
  0
LINE
  5
1CF
330
1F
100
AcDbEntity
  8
営業図
  6
CONTINUOUS
 62
    54
100
AcDbLine
 10
449.9797979793481
 20
17.38769512844706
 30
0.0
 11
448.5656565652079
 21
18.80183654258734
 31
0.0
  0
LINE
  5
1D0
330
1F
100
AcDbEntity
  8
営業図
  6
CONTINUOUS
 62
    54
100
AcDbLine
 10
450.2970149882311
 20
25.73292967978551
 30
0.0
 11
451.5170084357053
 21
26.9529231272597
 31
0.0
  0
LINE
  5
1D1
330
1F
100
AcDbEntity
  8
営業図
  6
CONTINUOUS
 62
    54
100
AcDbLine
 10
449.9797979793481
 20
25.38728699640764
 30
0.0
 11
448.5656565652076
 21
26.80142841054814
 31
0.0
  0
LINE
  5
1D2
330
1F
100
AcDbEntity
  8
営業図
  6
CONTINUOUS
 62
    54
100
AcDbLine
 10
450.6868686864175
 20
24.92284459777788
 30
0.0
 11
452.0261401150884
 21
26.26211602644872
 31
0.0
  0
LINE
  5
1D3
330
1F
100
AcDbEntity
  8
営業図
  6
CONTINUOUS
 62
    54
100
AcDbLine
 10
449.9797979793481
 20
24.58732780961162
 30
0.0
 11
448.5656565652073
 21
26.00146922375244
 31
0.0
  0
LINE
  5
1D4
330
1F
100
AcDbEntity
  8
営業図
  6
CONTINUOUS
 62
    54
100
AcDbLine
 10
449.9797979793481
 20
23.7873686228155
 30
0.0
 11
448.5656565652069
 21
25.20151003695671
 31
0.0
  0
LINE
  5
1D5
330
1F
100
AcDbEntity
  8
営業図
  6
CONTINUOUS
 62
    54
100
AcDbLine
 10
450.6868686864175
 20
23.3229262241857
 30
0.0
 11
452.1010101005591
 21
24.73706763832725
 31
0.0
  0
LINE
  5
1D6
330
1F
100
AcDbEntity
  8
営業図
  6
CONTINUOUS
 62
    54
100
AcDbLine
 10
450.6868686864175
 20
22.92294663078768
 30
0.0
 11
452.1010101005584
 21
24.33708804492849
 31
0.0
  0
LINE
  5
1D7
330
1F
100
AcDbEntity
  8
営業図
  6
CONTINUOUS
 62
    54
100
AcDbLine
 10
450.6868686864175
 20
22.52296703738966
 30
0.0
 11
452.1010101005576
 21
23.93710845152974
 31
0.0
  0
LINE
  5
1D8
330
1F
100
AcDbEntity
  8
営業図
  6
CONTINUOUS
 62
    54
100
AcDbLine
 10
450.6868686864175
 20
22.12298744399167
 30
0.0
 11
452.1010101005587
 21
23.53712885813279
 31
0.0
  0
LINE
  5
1D9
330
1F
100
AcDbEntity
  8
営業図
  6
CONTINUOUS
 62
    54
100
AcDbLine
 10
450.6868686864175
 20
21.32302825719562
 30
0.0
 11
452.101010100559
 21
22.7371696713371
 31
0.0
  0
LINE
  5
1DA
330
1F
100
AcDbEntity
  8
営業図
  6
CONTINUOUS
 62
    54
100
AcDbLine
 10
449.9797979793481
 20
20.58753187563134
 30
0.0
 11
448.5656565652074
 21
22.00167328977202
 31
0.0
  0
LINE
  5
1DB
330
1F
100
AcDbEntity
  8
営業図
  6
CONTINUOUS
 62
    54
100
AcDbLine
 10
449.9797979793481
 20
19.38759309543716
 30
0.0
 11
448.565656565206
 21
20.80173450957934
 31
0.0
  0
LINE
  5
1DC
330
1F
100
AcDbEntity
  8
営業図
  6
CONTINUOUS
 62
    54
100
AcDbLine
 10
450.6868686864175
 20
18.52317110340936
 30
0.0
 11
452.1010101005576
 21
19.93731251754932
 31
0.0
  0
LINE
  5
1DD
330
1F
100
AcDbEntity
  8
営業図
  6
CONTINUOUS
 62
    54
100
AcDbLine
 10
450.6868686864175
 20
17.32323232321529
 30
0.0
 11
452.1010101005589
 21
18.73737373735667
 31
0.0
  0
LINE
  5
1DE
330
1F
100
AcDbEntity
  8
営業図
  6
CONTINUOUS
 62
    54
100
AcDbLine
 10
449.9797979793481
 20
16.98771553504903
 30
0.0
 11
448.5656565652068
 21
18.40185694919039
 31
0.0
  0
LINE
  5
1DF
330
1F
100
AcDbEntity
  8
営業図
  6
CONTINUOUS
 62
    54
100
AcDbLine
 10
452.8235960363512
 20
26.01698445247585
 30
0.0
 11
454.0133185773458
 21
27.2067069934705
 31
0.0
  0
LINE
  5
1E0
330
1F
100
AcDbEntity
  8
営業図
  6
CONTINUOUS
 62
    54
100
AcDbLine
 10
452.808080807626
 20
25.60148963035261
 30
0.0
 11
454.4288133994672
 21
27.22222222219386
 31
0.0
  0
LINE
  5
1E1
330
1F
100
AcDbEntity
  8
営業図
  6
CONTINUOUS
 62
    54
100
AcDbLine
 10
452.8080808076271
 20
25.2015100369557
 30
0.0
 11
454.8287929928643
 21
27.22222222219281
 31
0.0
  0
LINE
  5
1E2
330
1F
100
AcDbEntity
  8
営業図
  6
CONTINUOUS
 62
    54
100
AcDbLine
 10
452.8080808076264
 20
24.80153044355691
 30
0.0
 11
455.2021910921455
 21
27.19564072807607
 31
0.0
  0
LINE
  5
1E3
330
1F
100
AcDbEntity
  8
営業図
  6
CONTINUOUS
 62
    54
100
AcDbLine
 10
452.8080808076293
 20
24.40155085016181
 30
0.0
 11
455.5058711803965
 21
27.099341222929
 31
0.0
  0
LINE
  5
1E4
330
1F
100
AcDbEntity
  8
営業図
  6
CONTINUOUS
 62
    54
100
AcDbLine
 10
452.8080808076285
 20
24.00157125676301
 30
0.0
 11
454.2222222217675
 21
25.415712670902
 31
0.0
  0
LINE
  5
1E5
330
1F
100
AcDbEntity
  8
営業図
  6
CONTINUOUS
 62
    54
100
AcDbLine
 10
452.8080808076278
 20
23.60159166336426
 30
0.0
 11
454.2222222217675
 21
25.015733077504
 31
0.0
  0
LINE
  5
1E6
330
1F
100
AcDbEntity
  8
営業図
  6
CONTINUOUS
 62
    54
100
AcDbLine
 10
452.8080808076271
 20
23.20161206996547
 30
0.0
 11
454.2222222217675
 21
24.61575348410597
 31
0.0
  0
LINE
  5
1E7
330
1F
100
AcDbEntity
  8
営業図
  6
CONTINUOUS
 62
    54
100
AcDbLine
 10
452.8080808076281
 20
22.80163247656852
 30
0.0
 11
454.2222222217675
 21
24.21577389070802
 31
0.0
  0
LINE
  5
1E8
330
1F
100
AcDbEntity
  8
営業図
  6
CONTINUOUS
 62
    54
100
AcDbLine
 10
452.8080808076274
 20
22.40165288316973
 30
0.0
 11
454.2222222217675
 21
23.81579429730993
 31
0.0
  0
LINE
  5
1E9
330
1F
100
AcDbEntity
  8
営業図
  6
CONTINUOUS
 62
    54
100
AcDbLine
 10
452.8080808076285
 20
22.00167328977282
 30
0.0
 11
454.2222222217675
 21
23.41581470391194
 31
0.0
  0
LINE
  5
1EA
330
1F
100
AcDbEntity
  8
営業図
  6
CONTINUOUS
 62
    54
100
AcDbLine
 10
452.8080808076295
 20
21.60169369637584
 30
0.0
 11
454.2222222217675
 21
23.01583511051387
 31
0.0
  0
LINE
  5
1EB
330
1F
100
AcDbEntity
  8
営業図
  6
CONTINUOUS
 62
    54
100
AcDbLine
 10
452.8080808076269
 20
21.20171410297528
 30
0.0
 11
454.2222222217675
 21
22.61585551711591
 31
0.0
  0
LINE
  5
1EC
330
1F
100
AcDbEntity
  8
営業図
  6
CONTINUOUS
 62
    54
100
AcDbLine
 10
452.8080808076281
 20
20.80173450957833
 30
0.0
 11
454.2222222217675
 21
22.21587592371783
 31
0.0
  0
LINE
  5
1ED
330
1F
100
AcDbEntity
  8
営業図
  6
CONTINUOUS
 62
    54
100
AcDbLine
 10
452.8080808076273
 20
20.40175491617958
 30
0.0
 11
454.2222222217675
 21
21.81589633031983
 31
0.0
  0
LINE
  5
1EE
330
1F
100
AcDbEntity
  8
営業図
  6
CONTINUOUS
 62
    54
100
AcDbLine
 10
452.8080808076284
 20
20.00177532278259
 30
0.0
 11
454.2222222217675
 21
21.41591673692179
 31
0.0
  0
LINE
  5
1EF
330
1F
100
AcDbEntity
  8
営業図
  6
CONTINUOUS
 62
    54
100
AcDbLine
 10
452.8080808076295
 20
19.60179572938565
 30
0.0
 11
454.2222222217675
 21
21.01593714352376
 31
0.0
  0
LINE
  5
1F0
330
1F
100
AcDbEntity
  8
営業図
  6
CONTINUOUS
 62
    54
100
AcDbLine
 10
452.8080808076269
 20
19.20181613598509
 30
0.0
 11
454.2222222217675
 21
20.6159575501257
 31
0.0
  0
LINE
  5
1F1
330
1F
100
AcDbEntity
  8
営業図
  6
CONTINUOUS
 62
    54
100
AcDbLine
 10
452.8080808076281
 20
18.80183654258814
 30
0.0
 11
454.2222222217675
 21
20.21597795672767
 31
0.0
  0
LINE
  5
1F2
330
1F
100
AcDbEntity
  8
営業図
  6
CONTINUOUS
 62
    54
100
AcDbLine
 10
452.8080808076272
 20
18.40185694918939
 30
0.0
 11
454.2222222217675
 21
19.8159983633297
 31
0.0
  0
LINE
  5
1F3
330
1F
100
AcDbEntity
  8
営業図
  6
CONTINUOUS
 62
    54
100
AcDbLine
 10
452.8080808076284
 20
18.0018773557924
 30
0.0
 11
454.2222222217675
 21
19.41601876993163
 31
0.0
  0
LINE
  5
1F4
330
1F
100
AcDbEntity
  8
営業図
  6
CONTINUOUS
 62
    54
100
AcDbLine
 10
452.8080808076258
 20
17.60189776239184
 30
0.0
 11
454.2222222217675
 21
19.01603917653363
 31
0.0
  0
LINE
  5
1F5
330
1F
100
AcDbEntity
  8
営業図
  6
CONTINUOUS
 62
    54
100
AcDbLine
 10
452.8080808076269
 20
17.20191816899489
 30
0.0
 11
454.3435363759886
 21
18.73737373735661
 31
0.0
  0
LINE
  5
1F6
330
1F
100
AcDbEntity
  8
営業図
  6
CONTINUOUS
 62
    54
100
AcDbLine
 10
452.808080807628
 20
16.80193857559795
 30
0.0
 11
454.7435159693866
 21
18.73737373735661
 31
0.0
  0
LINE
  5
1F7
330
1F
100
AcDbEntity
  8
営業図
  6
CONTINUOUS
 62
    54
100
AcDbLine
 10
452.8080808076272
 20
16.40195898219915
 30
0.0
 11
456.3434343429778
 21
19.93731251754976
 31
0.0
  0
LINE
  5
1F8
330
1F
100
AcDbEntity
  8
営業図
  6
CONTINUOUS
 62
    54
100
AcDbLine
 10
452.8080808076283
 20
16.00197938880221
 30
0.0
 11
456.3434343429789
 21
19.53733292415281
 31
0.0
  0
LINE
  5
1F9
330
1F
100
AcDbEntity
  8
営業図
  6
CONTINUOUS
 62
    54
100
AcDbLine
 10
452.8080808076257
 20
15.60199979540161
 30
0.0
 11
454.2222222217678
 21
17.0161412095437
 31
0.0
  0
LINE
  5
1FA
330
1F
100
AcDbEntity
  8
営業図
  6
CONTINUOUS
 62
    54
100
AcDbLine
 10
454.5293133354402
 20
17.32323232321611
 30
0.0
 11
456.3434343429781
 21
19.13735333075402
 31
0.0
  0
LINE
  5
1FB
330
1F
100
AcDbEntity
  8
営業図
  6
CONTINUOUS
 62
    54
100
AcDbLine
 10
452.808080807625
 20
15.20202020200289
 30
0.0
 11
454.2222222217688
 21
16.61616161614675
 31
0.0
  0
LINE
  5
1FC
330
1F
100
AcDbEntity
  8
営業図
  6
CONTINUOUS
 62
    54
100
AcDbLine
 10
454.9292929288372
 20
17.32323232321507
 30
0.0
 11
456.3434343429793
 21
18.73737373735711
 31
0.0
  0
LINE
  5
1FD
330
1F
100
AcDbEntity
  8
営業図
  6
CONTINUOUS
 62
    54
100
AcDbLine
 10
453.2080604010238
 20
15.20202020200358
 30
0.0
 11
454.22222222177
 21
16.21618202274977
 31
0.0
  0
LINE
  5
1FE
330
1F
100
AcDbEntity
  8
営業図
  6
CONTINUOUS
 62
    54
100
AcDbLine
 10
454.9292929288382
 20
16.92325272981808
 30
0.0
 11
456.3434343429767
 21
18.33739414395651
 31
0.0
  0
LINE
  5
1FF
330
1F
100
AcDbEntity
  8
営業図
  6
CONTINUOUS
 62
    54
100
AcDbLine
 10
453.6080399944225
 20
15.20202020200434
 30
0.0
 11
454.2222222217674
 21
15.81620242934921
 31
0.0
  0
LINE
  5
200
330
1F
100
AcDbEntity
  8
営業図
  6
CONTINUOUS
 62
    54
100
AcDbLine
 10
454.9292929288393
 20
16.52327313642114
 30
0.0
 11
456.3434343429777
 21
17.93741455055957
 31
0.0
  0
LINE
  5
201
330
1F
100
AcDbEntity
  8
営業図
  6
CONTINUOUS
 62
    54
100
AcDbLine
 10
454.0080195878194
 20
15.20202020200326
 30
0.0
 11
454.2222222217685
 21
15.41622283595226
 31
0.0
  0
LINE
  5
202
330
1F
100
AcDbEntity
  8
営業図
  6
CONTINUOUS
 62
    54
100
AcDbLine
 10
454.9292929288386
 20
16.12329354302238
 30
0.0
 11
456.3434343429789
 21
17.53743495716262
 31
0.0
  0
LINE
  5
203
330
1F
100
AcDbEntity
  8
営業図
  6
CONTINUOUS
 62
    54
100
AcDbLine
 10
454.9292929288396
 20
15.72331394962544
 30
0.0
 11
456.3434343429781
 21
17.13745536376387
 31
0.0
  0
LINE
  5
204
330
1F
100
AcDbEntity
  8
営業図
  6
CONTINUOUS
 62
    54
100
AcDbLine
 10
454.9292929288408
 20
15.32333435622845
 30
0.0
 11
456.3434343429792
 21
16.73747577036688
 31
0.0
  0
LINE
  5
205
330
1F
100
AcDbEntity
  8
営業図
  6
CONTINUOUS
 62
    54
100
AcDbLine
 10
455.2079583680139
 20
15.20202020200366
 30
0.0
 11
456.3434343429766
 21
16.33749617696632
 31
0.0
  0
LINE
  5
206
330
1F
100
AcDbEntity
  8
営業図
  6
CONTINUOUS
 62
    54
100
AcDbLine
 10
455.6079379614146
 20
15.20202020200619
 30
0.0
 11
456.3434343429777
 21
15.93751658356934
 31
0.0
  0
LINE
  5
207
330
1F
100
AcDbEntity
  8
営業図
  6
CONTINUOUS
 62
    54
100
AcDbLine
 10
456.0079175548115
 20
15.20202020200514
 30
0.0
 11
456.3434343429788
 21
15.53753699017243
 31
0.0
  0
LINE
  5
208
330
1F
100
AcDbEntity
  8
営業図
  6
CONTINUOUS
 62
    54
100
AcDbLine
 10
453.2080604010263
 20
15.2020202020045
 30
0.0
 11
452.8080808076268
 21
15.60199979540402
 31
0.0
  0
LINE
  5
209
330
1F
100
AcDbEntity
  8
営業図
  6
CONTINUOUS
 62
    54
100
AcDbLine
 10
453.6080399944232
 20
15.20202020200563
 30
0.0
 11
452.808080807626
 21
16.00197938880281
 31
0.0
  0
LINE
  5
20A
330
1F
100
AcDbEntity
  8
営業図
  6
CONTINUOUS
 62
    54
100
AcDbLine
 10
454.008019587822
 20
15.20202020200486
 30
0.0
 11
452.8080808076253
 21
16.40195898220157
 31
0.0
  0
LINE
  5
20B
330
1F
100
AcDbEntity
  8
営業図
  6
CONTINUOUS
 62
    54
100
AcDbLine
 10
454.2222222217684
 20
15.38779716145646
 30
0.0
 11
452.8080808076264
 21
16.80193857559855
 31
0.0
  0
LINE
  5
20C
330
1F
100
AcDbEntity
  8
営業図
  6
CONTINUOUS
 62
    54
100
AcDbLine
 10
454.2222222217677
 20
15.78777675485522
 30
0.0
 11
452.8080808076256
 21
17.20191816899727
 31
0.0
  0
LINE
  5
20D
330
1F
100
AcDbEntity
  8
営業図
  6
CONTINUOUS
 62
    54
100
AcDbLine
 10
455.2079583680147
 20
15.20202020200631
 30
0.0
 11
454.9292929288371
 21
15.48068564118389
 31
0.0
  0
LINE
  5
20E
330
1F
100
AcDbEntity
  8
営業図
  6
CONTINUOUS
 62
    54
100
AcDbLine
 10
454.2222222217688
 20
16.1877563482522
 30
0.0
 11
452.8080808076268
 21
17.60189776239425
 31
0.0
  0
LINE
  5
20F
330
1F
100
AcDbEntity
  8
営業図
  6
CONTINUOUS
 62
    54
100
AcDbLine
 10
455.6079379614116
 20
15.20202020200736
 30
0.0
 11
454.9292929288363
 21
15.88066523458264
 31
0.0
  0
LINE
  5
210
330
1F
100
AcDbEntity
  8
営業図
  6
CONTINUOUS
 62
    54
100
AcDbLine
 10
454.2222222217662
 20
16.58773594165276
 30
0.0
 11
452.808080807626
 21
18.00187735579301
 31
0.0
  0
LINE
  5
211
330
1F
100
AcDbEntity
  8
営業図
  6
CONTINUOUS
 62
    54
100
AcDbLine
 10
456.0079175548104
 20
15.20202020200663
 30
0.0
 11
454.9292929288357
 21
16.28064482798144
 31
0.0
  0
LINE
  5
212
330
1F
100
AcDbEntity
  8
営業図
  6
CONTINUOUS
 62
    54
100
AcDbLine
 10
454.2222222217673
 20
16.98771553504975
 30
0.0
 11
452.8080808076253
 21
18.4018569491918
 31
0.0
  0
LINE
  5
213
330
1F
100
AcDbEntity
  8
営業図
  6
CONTINUOUS
 62
    54
100
AcDbLine
 10
456.3434343429752
 20
15.26648300723995
 30
0.0
 11
454.9292929288367
 21
16.68062442137834
 31
0.0
  0
LINE
  5
214
330
1F
100
AcDbEntity
  8
営業図
  6
CONTINUOUS
 62
    54
100
AcDbLine
 10
454.2866850270006
 20
17.32323232321442
 30
0.0
 11
452.8080808076263
 21
18.8018365425887
 31
0.0
  0
LINE
  5
215
330
1F
100
AcDbEntity
  8
営業図
  6
CONTINUOUS
 62
    54
100
AcDbLine
 10
456.3434343429762
 20
15.66646260063689
 30
0.0
 11
454.9292929288377
 21
17.08060401477533
 31
0.0
  0
LINE
  5
216
330
1F
100
AcDbEntity
  8
営業図
  6
CONTINUOUS
 62
    54
100
AcDbLine
 10
454.6866646203994
 20
17.3232323232137
 30
0.0
 11
452.8080808076274
 21
19.20181613598569
 31
0.0
  0
LINE
  5
217
330
1F
100
AcDbEntity
  8
営業図
  6
CONTINUOUS
 62
    54
100
AcDbLine
 10
456.3434343429772
 20
16.06644219403384
 30
0.0
 11
452.8080808076266
 21
19.60179572938444
 31
0.0
  0
LINE
  5
218
330
1F
100
AcDbEntity
  8
営業図
  6
CONTINUOUS
 62
    54
100
AcDbLine
 10
456.3434343429765
 20
16.46642178743263
 30
0.0
 11
452.8080808076277
 21
20.00177532278139
 31
0.0
  0
LINE
  5
219
330
1F
100
AcDbEntity
  8
営業図
  6
CONTINUOUS
 62
    54
100
AcDbLine
 10
456.3434343429758
 20
16.86640138083139
 30
0.0
 11
454.4724619864505
 21
18.73737373735661
 31
0.0
  0
LINE
  5
21A
330
1F
100
AcDbEntity
  8
営業図
  6
CONTINUOUS
 62
    54
100
AcDbLine
 10
456.3434343429751
 20
17.26638097423018
 30
0.0
 11
454.8724415798486
 21
18.73737373735661
 31
0.0
  0
LINE
  5
21B
330
1F
100
AcDbEntity
  8
営業図
  6
CONTINUOUS
 62
    54
100
AcDbLine
 10
456.3434343429761
 20
17.66636056762709
 30
0.0
 11
454.9292929288378
 21
19.08050198176543
 31
0.0
  0
LINE
  5
21C
330
1F
100
AcDbEntity
  8
営業図
  6
CONTINUOUS
 62
    54
100
AcDbLine
 10
456.3434343429772
 20
18.06634016102407
 30
0.0
 11
454.9292929288378
 21
19.48048157516349
 31
0.0
  0
LINE
  5
21D
330
1F
100
AcDbEntity
  8
営業図
  6
CONTINUOUS
 62
    54
100
AcDbLine
 10
456.3434343429783
 20
18.46631975442098
 30
0.0
 11
454.9292929288378
 21
19.88046116856148
 31
0.0
  0
LINE
  5
21E
330
1F
100
AcDbEntity
  8
営業図
  6
CONTINUOUS
 62
    54
100
AcDbLine
 10
456.3434343429776
 20
18.86629934781977
 30
0.0
 11
454.9292929288378
 21
20.28044076195951
 31
0.0
  0
LINE
  5
21F
330
1F
100
AcDbEntity
  8
営業図
  6
CONTINUOUS
 62
    54
100
AcDbLine
 10
456.3434343429768
 20
19.26627894121852
 30
0.0
 11
454.9292929288378
 21
20.6804203553575
 31
0.0
  0
LINE
  5
220
330
1F
100
AcDbEntity
  8
営業図
  6
CONTINUOUS
 62
    54
100
AcDbLine
 10
456.3434343429761
 20
19.66625853461732
 30
0.0
 11
454.9292929288378
 21
21.08039994875563
 31
0.0
  0
LINE
  5
221
330
1F
100
AcDbEntity
  8
営業図
  6
CONTINUOUS
 62
    54
100
AcDbLine
 10
456.3434343429772
 20
20.06623812801426
 30
0.0
 11
454.9292929288378
 21
21.48037954215362
 31
0.0
  0
LINE
  5
222
330
1F
100
AcDbEntity
  8
営業図
  6
CONTINUOUS
 62
    54
100
AcDbLine
 10
456.3434343429764
 20
20.46621772141302
 30
0.0
 11
454.9292929288378
 21
21.88035913555163
 31
0.0
  0
LINE
  5
223
330
1F
100
AcDbEntity
  8
営業図
  6
CONTINUOUS
 62
    54
100
AcDbLine
 10
456.3434343429775
 20
20.86619731480996
 30
0.0
 11
454.9292929288378
 21
22.28033872894966
 31
0.0
  0
LINE
  5
224
330
1F
100
AcDbEntity
  8
営業図
  6
CONTINUOUS
 62
    54
100
AcDbLine
 10
456.3434343429768
 20
21.26617690820872
 30
0.0
 11
454.9292929288378
 21
22.68031832234765
 31
0.0
  0
LINE
  5
225
330
1F
100
AcDbEntity
  8
営業図
  6
CONTINUOUS
 62
    54
100
AcDbLine
 10
456.343434342976
 20
21.66615650160751
 30
0.0
 11
454.9292929288378
 21
23.08029791574572
 31
0.0
  0
LINE
  5
226
330
1F
100
AcDbEntity
  8
営業図
  6
CONTINUOUS
 62
    54
100
AcDbLine
 10
456.3434343429771
 20
22.06613609500441
 30
0.0
 11
454.9292929288378
 21
23.48027750914365
 31
0.0
  0
LINE
  5
227
330
1F
100
AcDbEntity
  8
営業図
  6
CONTINUOUS
 62
    54
100
AcDbLine
 10
456.3434343429764
 20
22.46611568840321
 30
0.0
 11
454.9292929288378
 21
23.88025710254173
 31
0.0
  0
LINE
  5
228
330
1F
100
AcDbEntity
  8
営業図
  6
CONTINUOUS
 62
    54
100
AcDbLine
 10
456.3434343429756
 20
22.86609528180196
 30
0.0
 11
454.9292929288378
 21
24.28023669593979
 31
0.0
  0
LINE
  5
229
330
1F
100
AcDbEntity
  8
営業図
  6
CONTINUOUS
 62
    54
100
AcDbLine
 10
456.3434343429768
 20
23.26607487519895
 30
0.0
 11
454.9292929288378
 21
24.68021628933787
 31
0.0
  0
LINE
  5
22A
330
1F
100
AcDbEntity
  8
営業図
  6
CONTINUOUS
 62
    54
100
AcDbLine
 10
456.3434343429777
 20
23.66605446859585
 30
0.0
 11
454.9292929288378
 21
25.0801958827358
 31
0.0
  0
LINE
  5
22B
330
1F
100
AcDbEntity
  8
営業図
  6
CONTINUOUS
 62
    54
100
AcDbLine
 10
456.3434343429771
 20
24.06603406199465
 30
0.0
 11
454.9282881922033
 21
25.48118021276848
 31
0.0
  0
LINE
  5
22C
330
1F
100
AcDbEntity
  8
営業図
  6
CONTINUOUS
 62
    54
100
AcDbLine
 10
456.3434343429763
 20
24.4660136553934
 30
0.0
 11
453.6908542904399
 21
27.11859370792979
 31
0.0
  0
LINE
  5
22D
330
1F
100
AcDbEntity
  8
営業図
  6
CONTINUOUS
 62
    54
100
AcDbLine
 10
456.3434343429756
 20
24.86599324879219
 30
0.0
 11
454.0041247436542
 21
27.20530284811348
 31
0.0
  0
LINE
  5
22E
330
1F
100
AcDbEntity
  8
営業図
  6
CONTINUOUS
 62
    54
100
AcDbLine
 10
456.3434343429766
 20
25.2659728421891
 30
0.0
 11
454.3871849629699
 21
27.22222222219583
 31
0.0
  0
LINE
  5
22F
330
1F
100
AcDbEntity
  8
営業図
  6
CONTINUOUS
 62
    54
100
AcDbLine
 10
456.3434343429777
 20
25.66595243558608
 30
0.0
 11
454.7871645563687
 21
27.2222222221951
 31
0.0
  0
LINE
  5
230
330
1F
100
AcDbEntity
  8
営業図
  6
CONTINUOUS
 62
    54
100
AcDbLine
 10
456.3139313215572
 20
26.09543505040455
 30
0.0
 11
455.216647171189
 21
27.19271920077281
 31
0.0
  0
LINE
  5
231
330
1F
100
AcDbEntity
  8
営業図
  6
CONTINUOUS
 62
    54
100
AcDbLine
 10
454.6079889779186
 20
25.80147942705309
 30
0.0
 11
455.7594326781257
 21
26.9529231272601
 31
0.0
  0
LINE
  5
232
330
1F
100
AcDbEntity
  8
営業図
  6
CONTINUOUS
 62
    54
100
AcDbLine
 10
454.3155799411372
 20
25.69390887043641
 30
0.0
 11
453.2119202873382
 21
26.79756852423541
 31
0.0
  0
LINE
  5
233
330
1F
100
AcDbEntity
  8
営業図
  6
CONTINUOUS
 62
    54
100
AcDbLine
 10
454.2222222217675
 20
25.38728699640811
 30
0.0
 11
453.0342614501998
 21
26.5752477679759
 31
0.0
  0
LINE
  5
234
330
1F
100
AcDbEntity
  8
営業図
  6
CONTINUOUS
 62
    54
100
AcDbLine
 10
454.8647202239363
 20
25.65823107967269
 30
0.0
 11
455.9709709427547
 21
26.76448179849107
 31
0.0
  0
LINE
  5
235
330
1F
100
AcDbEntity
  8
営業図
  6
CONTINUOUS
 62
    54
100
AcDbLine
 10
454.6079889779186
 20
25.8014794270531
 30
0.0
 11
453.4299921093825
 21
26.9794762955892
 31
0.0
  0
LINE
  5
236
330
1F
100
AcDbEntity
  8
営業図
  6
CONTINUOUS
 62
    54
100
AcDbLine
 10
454.9292929288378
 20
25.32282419117622
 30
0.0
 11
456.1419879739184
 21
26.53551923625681
 31
0.0
  0
LINE
  5
237
330
1F
100
AcDbEntity
  8
営業図
  6
CONTINUOUS
 62
    54
100
AcDbLine
 10
454.2222222217675
 20
24.98730740301001
 30
0.0
 11
452.8999798705892
 21
26.30954975418842
 31
0.0
  0
LINE
  5
238
330
1F
100
AcDbEntity
  8
営業図
  6
CONTINUOUS
 62
    54
100
AcDbLine
 10
454.2222222217675
 20
24.58732780961198
 30
0.0
 11
452.819798691878
 21
25.98975133950149
 31
0.0
  0
LINE
  5
239
330
1F
100
AcDbEntity
  8
営業図
  6
CONTINUOUS
 62
    54
100
AcDbLine
 10
454.2222222217675
 20
24.18734821621391
 30
0.0
 11
452.8080808076264
 21
25.60148963035502
 31
0.0
  0
LINE
  5
23A
330
1F
100
AcDbEntity
  8
営業図
  6
CONTINUOUS
 62
    54
100
AcDbLine
 10
454.9292929288378
 20
24.92284459777826
 30
0.0
 11
456.2685643575087
 21
26.26211602644916
 31
0.0
  0
LINE
  5
23B
330
1F
100
AcDbEntity
  8
営業図
  6
CONTINUOUS
 62
    54
100
AcDbLine
 10
454.9292929288378
 20
24.52286500438015
 30
0.0
 11
456.3380294452632
 21
25.93160152080559
 31
0.0
  0
LINE
  5
23C
330
1F
100
AcDbEntity
  8
営業図
  6
CONTINUOUS
 62
    54
100
AcDbLine
 10
454.9292929288378
 20
24.1228854109822
 30
0.0
 11
456.343434342979
 21
25.53702682512343
 31
0.0
  0
LINE
  5
23D
330
1F
100
AcDbEntity
  8
営業図
  6
CONTINUOUS
 62
    54
100
AcDbLine
 10
454.9292929288378
 20
23.72290581758413
 30
0.0
 11
456.3434343429801
 21
25.13704723172644
 31
0.0
  0
LINE
  5
23E
330
1F
100
AcDbEntity
  8
営業図
  6
CONTINUOUS
 62
    54
100
AcDbLine
 10
454.9292929288378
 20
23.32292622418616
 30
0.0
 11
456.3434343429793
 21
24.73706763832769
 31
0.0
  0
LINE
  5
23F
330
1F
100
AcDbEntity
  8
営業図
  6
CONTINUOUS
 62
    54
100
AcDbLine
 10
454.9292929288378
 20
22.92294663078804
 30
0.0
 11
456.3434343429787
 21
24.33708804492889
 31
0.0
  0
LINE
  5
240
330
1F
100
AcDbEntity
  8
営業図
  6
CONTINUOUS
 62
    54
100
AcDbLine
 10
454.9292929288378
 20
22.52296703739008
 30
0.0
 11
456.3434343429779
 21
23.93710845153018
 31
0.0
  0
LINE
  5
241
330
1F
100
AcDbEntity
  8
営業図
  6
CONTINUOUS
 62
    54
100
AcDbLine
 10
454.9292929288378
 20
22.12298744399201
 30
0.0
 11
456.343434342979
 21
23.5371288581332
 31
0.0
  0
LINE
  5
242
330
1F
100
AcDbEntity
  8
営業図
  6
CONTINUOUS
 62
    54
100
AcDbLine
 10
454.9292929288378
 20
21.72300785059401
 30
0.0
 11
456.3434343429782
 21
23.13714926473444
 31
0.0
  0
LINE
  5
243
330
1F
100
AcDbEntity
  8
営業図
  6
CONTINUOUS
 62
    54
100
AcDbLine
 10
454.9292929288378
 20
21.32302825719597
 30
0.0
 11
456.3434343429793
 21
22.7371696713375
 31
0.0
  0
LINE
  5
244
330
1F
100
AcDbEntity
  8
営業図
  6
CONTINUOUS
 62
    54
100
AcDbLine
 10
454.9292929288378
 20
20.9230486637979
 30
0.0
 11
456.3434343429805
 21
22.33719007794055
 31
0.0
  0
LINE
  5
245
330
1F
100
AcDbEntity
  8
営業図
  6
CONTINUOUS
 62
    54
100
AcDbLine
 10
454.9292929288378
 20
20.52306907039993
 30
0.0
 11
456.3434343429779
 21
21.93721048453999
 31
0.0
  0
LINE
  5
246
330
1F
100
AcDbEntity
  8
営業図
  6
CONTINUOUS
 62
    54
100
AcDbLine
 10
454.9292929288378
 20
20.12308947700186
 30
0.0
 11
456.3434343429789
 21
21.537230891143
 31
0.0
  0
LINE
  5
247
330
1F
100
AcDbEntity
  8
営業図
  6
CONTINUOUS
 62
    54
100
AcDbLine
 10
454.9292929288378
 20
19.72310988360385
 30
0.0
 11
456.3434343429782
 21
21.13725129774425
 31
0.0
  0
LINE
  5
248
330
1F
100
AcDbEntity
  8
営業図
  6
CONTINUOUS
 62
    54
100
AcDbLine
 10
454.9292929288378
 20
19.32313029020578
 30
0.0
 11
456.3434343429793
 21
20.73727170434731
 31
0.0
  0
LINE
  5
249
330
1F
100
AcDbEntity
  8
営業図
  6
CONTINUOUS
 62
    54
100
AcDbLine
 10
454.9292929288378
 20
18.92315069680779
 30
0.0
 11
456.3434343429804
 21
20.33729211095036
 31
0.0
  0
LINE
  5
24A
330
1F
100
AcDbEntity
  8
営業図
  6
CONTINUOUS
 62
    54
100
AcDbLine
 10
454.2222222217675
 20
18.98761350203962
 30
0.0
 11
452.808080807627
 21
20.40175491618014
 31
0.0
  0
LINE
  5
24B
330
1F
100
AcDbEntity
  8
営業図
  6
CONTINUOUS
 62
    54
100
AcDbLine
 10
454.2222222217675
 20
19.38759309543766
 30
0.0
 11
452.8080808076263
 21
20.80173450957894
 31
0.0
  0
LINE
  5
24C
330
1F
100
AcDbEntity
  8
営業図
  6
CONTINUOUS
 62
    54
100
AcDbLine
 10
454.2222222217675
 20
19.78757268883568
 30
0.0
 11
452.8080808076274
 21
21.20171410297588
 31
0.0
  0
LINE
  5
24D
330
1F
100
AcDbEntity
  8
営業図
  6
CONTINUOUS
 62
    54
100
AcDbLine
 10
454.2222222217675
 20
20.18755228223372
 30
0.0
 11
452.8080808076285
 21
21.60169369637282
 31
0.0
  0
LINE
  5
24E
330
1F
100
AcDbEntity
  8
営業図
  6
CONTINUOUS
 62
    54
100
AcDbLine
 10
454.2222222217675
 20
20.58753187563172
 30
0.0
 11
452.8080808076277
 21
22.00167328977158
 31
0.0
  0
LINE
  5
24F
330
1F
100
AcDbEntity
  8
営業図
  6
CONTINUOUS
 62
    54
100
AcDbLine
 10
454.2222222217675
 20
20.98751146902974
 30
0.0
 11
452.8080808076269
 21
22.40165288317037
 31
0.0
  0
LINE
  5
250
330
1F
100
AcDbEntity
  8
営業図
  6
CONTINUOUS
 62
    54
100
AcDbLine
 10
454.2222222217675
 20
21.38749106242774
 30
0.0
 11
452.8080808076262
 21
22.80163247656913
 31
0.0
  0
LINE
  5
251
330
1F
100
AcDbEntity
  8
営業図
  6
CONTINUOUS
 62
    54
100
AcDbLine
 10
454.2222222217675
 20
21.78747065582588
 30
0.0
 11
452.8080808076273
 21
23.20161206996611
 31
0.0
  0
LINE
  5
252
330
1F
100
AcDbEntity
  8
営業図
  6
CONTINUOUS
 62
    54
100
AcDbLine
 10
454.2222222217675
 20
22.18745024922385
 30
0.0
 11
452.8080808076266
 21
23.60159166336483
 31
0.0
  0
LINE
  5
253
330
1F
100
AcDbEntity
  8
営業図
  6
CONTINUOUS
 62
    54
100
AcDbLine
 10
454.2222222217675
 20
22.58742984262186
 30
0.0
 11
452.8080808076258
 21
24.00157125676362
 31
0.0
  0
LINE
  5
254
330
1F
100
AcDbEntity
  8
営業図
  6
CONTINUOUS
 62
    54
100
AcDbLine
 10
454.2222222217675
 20
22.98740943601991
 30
0.0
 11
452.8080808076269
 21
24.40155085016056
 31
0.0
  0
LINE
  5
255
330
1F
100
AcDbEntity
  8
営業図
  6
CONTINUOUS
 62
    54
100
AcDbLine
 10
454.2222222217675
 20
23.38738902941788
 30
0.0
 11
452.8080808076261
 21
24.80153044355932
 31
0.0
  0
LINE
  5
256
330
1F
100
AcDbEntity
  8
営業図
  6
CONTINUOUS
 62
    54
100
AcDbLine
 10
454.2222222217675
 20
23.78736862281596
 30
0.0
 11
452.8080808076272
 21
25.20151003695626
 31
0.0
  0
LINE
  5
257
330
1F
100
AcDbEntity
  8
営業図
  6
CONTINUOUS
 62
    54
100
AcDbLine
 10
457.0505050500475
 20
27.20140800394621
 30
0.0
 11
457.0713192682943
 21
27.2222222221931
 31
0.0
  0
LINE
  5
258
330
1F
100
AcDbEntity
  8
営業図
  6
CONTINUOUS
 62
    54
100
AcDbLine
 10
457.0505050500468
 20
26.8014284105475
 30
0.0
 11
457.4712988616949
 21
27.22222222219567
 31
0.0
  0
LINE
  5
259
330
1F
100
AcDbEntity
  8
営業図
  6
CONTINUOUS
 62
    54
100
AcDbLine
 10
457.0505050500479
 20
26.40144881715051
 30
0.0
 11
457.8712784550919
 21
27.22222222219458
 31
0.0
  0
LINE
  5
25A
330
1F
100
AcDbEntity
  8
営業図
  6
CONTINUOUS
 62
    54
100
AcDbLine
 10
457.0505050500471
 20
26.00146922375176
 30
0.0
 11
458.2712580484906
 21
27.22222222219531
 31
0.0
  0
LINE
  5
25B
330
1F
100
AcDbEntity
  8
営業図
  6
CONTINUOUS
 62
    54
100
AcDbLine
 10
457.0505050500464
 20
25.60148963035297
 30
0.0
 11
458.4646464641884
 21
27.01563104449502
 31
0.0
  0
LINE
  5
25C
330
1F
100
AcDbEntity
  8
営業図
  6
CONTINUOUS
 62
    54
100
AcDbLine
 10
457.0505050500474
 20
25.20151003695606
 30
0.0
 11
458.4646464641858
 21
26.61565145109445
 31
0.0
  0
LINE
  5
25D
330
1F
100
AcDbEntity
  8
営業図
  6
CONTINUOUS
 62
    54
100
AcDbLine
 10
457.0505050500485
 20
24.80153044355908
 30
0.0
 11
458.4646464641869
 21
26.21567185769751
 31
0.0
  0
LINE
  5
25E
330
1F
100
AcDbEntity
  8
営業図
  6
CONTINUOUS
 62
    54
100
AcDbLine
 10
457.0505050500477
 20
24.40155085016032
 30
0.0
 11
458.464646464188
 21
25.81569226430057
 31
0.0
  0
LINE
  5
25F
330
1F
100
AcDbEntity
  8
営業図
  6
CONTINUOUS
 62
    54
100
AcDbLine
 10
457.0505050500452
 20
24.00157125675976
 30
0.0
 11
458.4646464641872
 21
25.41571267090181
 31
0.0
  0
LINE
  5
260
330
1F
100
AcDbEntity
  8
営業図
  6
CONTINUOUS
 62
    54
100
AcDbLine
 10
457.0505050500463
 20
23.60159166336278
 30
0.0
 11
458.4646464641884
 21
25.01573307750487
 31
0.0
  0
LINE
  5
261
330
1F
100
AcDbEntity
  8
営業図
  6
CONTINUOUS
 62
    54
100
AcDbLine
 10
457.0505050500474
 20
23.20161206996587
 30
0.0
 11
458.4646464641858
 21
24.6157534841043
 31
0.0
  0
LINE
  5
262
330
1F
100
AcDbEntity
  8
営業図
  6
CONTINUOUS
 62
    54
100
AcDbLine
 10
457.0505050500466
 20
22.80163247656708
 30
0.0
 11
458.4646464641869
 21
24.21577389070732
 31
0.0
  0
LINE
  5
263
330
1F
100
AcDbEntity
  8
営業図
  6
CONTINUOUS
 62
    54
100
AcDbLine
 10
457.0505050500477
 20
22.40165288317013
 30
0.0
 11
458.464646464188
 21
23.81579429731037
 31
0.0
  0
LINE
  5
264
330
1F
100
AcDbEntity
  8
営業図
  6
CONTINUOUS
 62
    54
100
AcDbLine
 10
457.0505050500489
 20
22.00167328977319
 30
0.0
 11
458.4646464641872
 21
23.41581470391158
 31
0.0
  0
LINE
  5
265
330
1F
100
AcDbEntity
  8
営業図
  6
CONTINUOUS
 62
    54
100
AcDbLine
 10
457.0505050500463
 20
21.60169369637262
 30
0.0
 11
458.4646464641884
 21
23.01583511051468
 31
0.0
  0
LINE
  5
266
330
1F
100
AcDbEntity
  8
営業図
  6
CONTINUOUS
 62
    54
100
AcDbLine
 10
457.0505050500473
 20
21.20171410297564
 30
0.0
 11
458.4646464641893
 21
22.61585551711769
 31
0.0
  0
LINE
  5
267
330
1F
100
AcDbEntity
  8
営業図
  6
CONTINUOUS
 62
    54
100
AcDbLine
 10
457.0505050500466
 20
20.80173450957689
 30
0.0
 11
458.4646464641868
 21
22.21587592371712
 31
0.0
  0
LINE
  5
268
330
1F
100
AcDbEntity
  8
営業図
  6
CONTINUOUS
 62
    54
100
AcDbLine
 10
457.0505050500477
 20
20.40175491617994
 30
0.0
 11
458.4646464641861
 21
21.81589633031833
 31
0.0
  0
LINE
  5
269
330
1F
100
AcDbEntity
  8
営業図
  6
CONTINUOUS
 62
    54
100
AcDbLine
 10
457.0505050500487
 20
20.00177532278299
 30
0.0
 11
458.4646464641872
 21
21.41591673692143
 31
0.0
  0
LINE
  5
26A
330
1F
100
AcDbEntity
  8
営業図
  6
CONTINUOUS
 62
    54
100
AcDbLine
 10
457.0505050500462
 20
19.60179572938239
 30
0.0
 11
458.4646464641882
 21
21.01593714352444
 31
0.0
  0
LINE
  5
26B
330
1F
100
AcDbEntity
  8
営業図
  6
CONTINUOUS
 62
    54
100
AcDbLine
 10
457.0505050500473
 20
19.20181613598545
 30
0.0
 11
458.4646464641856
 21
20.61595755012388
 31
0.0
  0
LINE
  5
26C
330
1F
100
AcDbEntity
  8
営業図
  6
CONTINUOUS
 62
    54
100
AcDbLine
 10
457.0505050500465
 20
18.80183654258665
 30
0.0
 11
458.4646464641868
 21
20.2159779567269
 31
0.0
  0
LINE
  5
26D
330
1F
100
AcDbEntity
  8
営業図
  6
CONTINUOUS
 62
    54
100
AcDbLine
 10
457.0505050500475
 20
18.40185694918975
 30
0.0
 11
458.4646464641879
 21
19.81599836332999
 31
0.0
  0
LINE
  5
26E
330
1F
100
AcDbEntity
  8
営業図
  6
CONTINUOUS
 62
    54
100
AcDbLine
 10
457.0505050500487
 20
18.00187735579276
 30
0.0
 11
458.4646464641871
 21
19.4160187699312
 31
0.0
  0
LINE
  5
26F
330
1F
100
AcDbEntity
  8
営業図
  6
CONTINUOUS
 62
    54
100
AcDbLine
 10
457.0505050500461
 20
17.6018977623922
 30
0.0
 11
458.4646464641882
 21
19.01603917653425
 31
0.0
  0
LINE
  5
270
330
1F
100
AcDbEntity
  8
営業図
  6
CONTINUOUS
 62
    54
100
AcDbLine
 10
457.0505050500473
 20
17.20191816899522
 30
0.0
 11
458.4646464641893
 21
18.61605958313731
 31
0.0
  0
LINE
  5
271
330
1F
100
AcDbEntity
  8
営業図
  6
CONTINUOUS
 62
    54
100
AcDbLine
 10
457.0505050500464
 20
16.8019385755965
 30
0.0
 11
458.4646464641868
 21
18.21607998973674
 31
0.0
  0
LINE
  5
272
330
1F
100
AcDbEntity
  8
営業図
  6
CONTINUOUS
 62
    54
100
AcDbLine
 10
457.0505050500475
 20
16.40195898219952
 30
0.0
 11
458.4646464641859
 21
17.81610039633795
 31
0.0
  0
LINE
  5
273
330
1F
100
AcDbEntity
  8
営業図
  6
CONTINUOUS
 62
    54
100
AcDbLine
 10
457.0505050500486
 20
16.00197938880257
 30
0.0
 11
458.4646464641871
 21
17.41612080294101
 31
0.0
  0
LINE
  5
274
330
1F
100
AcDbEntity
  8
営業図
  6
CONTINUOUS
 62
    54
100
AcDbLine
 10
457.0505050500461
 20
15.60199979540197
 30
0.0
 11
458.4646464641881
 21
17.01614120954402
 31
0.0
  0
LINE
  5
275
330
1F
100
AcDbEntity
  8
営業図
  6
CONTINUOUS
 62
    54
100
AcDbLine
 10
457.0505050500471
 20
15.20202020200506
 30
0.0
 11
458.4646464641874
 21
16.61616161614531
 31
0.0
  0
LINE
  5
276
330
1F
100
AcDbEntity
  8
営業図
  6
CONTINUOUS
 62
    54
100
AcDbLine
 10
457.4504846434441
 20
15.20202020200398
 30
0.0
 11
458.4646464641867
 21
16.21618202274655
 31
0.0
  0
LINE
  5
277
330
1F
100
AcDbEntity
  8
営業図
  6
CONTINUOUS
 62
    54
100
AcDbLine
 10
457.8504642368429
 20
15.2020202020047
 30
0.0
 11
458.4646464641878
 21
15.81620242934957
 31
0.0
  0
LINE
  5
278
330
1F
100
AcDbEntity
  8
営業図
  6
CONTINUOUS
 62
    54
100
AcDbLine
 10
458.2504438302417
 20
15.20202020200547
 30
0.0
 11
458.464646464187
 21
15.41622283595081
 31
0.0
  0
LINE
  5
279
330
1F
100
AcDbEntity
  8
営業図
  6
CONTINUOUS
 62
    54
100
AcDbLine
 10
457.4504846434467
 20
15.20202020200418
 30
0.0
 11
457.0505050500489
 21
15.60199979540185
 31
0.0
  0
LINE
  5
27A
330
1F
100
AcDbEntity
  8
営業図
  6
CONTINUOUS
 62
    54
100
AcDbLine
 10
457.8504642368435
 20
15.20202020200527
 30
0.0
 11
457.05050505005
 21
16.00197938879883
 31
0.0
  0
LINE
  5
27B
330
1F
100
AcDbEntity
  8
営業図
  6
CONTINUOUS
 62
    54
100
AcDbLine
 10
458.2504438302423
 20
15.2020202020045
 30
0.0
 11
457.0505050500475
 21
16.4019589821994
 31
0.0
  0
LINE
  5
27C
330
1F
100
AcDbEntity
  8
営業図
  6
CONTINUOUS
 62
    54
100
AcDbLine
 10
458.4646464641888
 20
15.3877971614561
 30
0.0
 11
457.0505050500485
 21
16.80193857559634
 31
0.0
  0
LINE
  5
27D
330
1F
100
AcDbEntity
  8
営業図
  6
CONTINUOUS
 62
    54
100
AcDbLine
 10
458.464646464188
 20
15.78777675485486
 30
0.0
 11
457.0505050500497
 21
17.20191816899329
 31
0.0
  0
LINE
  5
27E
330
1F
100
AcDbEntity
  8
営業図
  6
CONTINUOUS
 62
    54
100
AcDbLine
 10
458.4646464641892
 20
16.18775634825184
 30
0.0
 11
457.0505050500489
 21
17.60189776239208
 31
0.0
  0
LINE
  5
27F
330
1F
100
AcDbEntity
  8
営業図
  6
CONTINUOUS
 62
    54
100
AcDbLine
 10
458.4646464641884
 20
16.58773594165059
 30
0.0
 11
457.0505050500482
 21
18.00187735579084
 31
0.0
  0
LINE
  5
280
330
1F
100
AcDbEntity
  8
営業図
  6
CONTINUOUS
 62
    54
100
AcDbLine
 10
458.4646464641895
 20
16.98771553504754
 30
0.0
 11
457.0505050500493
 21
18.40185694918778
 31
0.0
  0
LINE
  5
281
330
1F
100
AcDbEntity
  8
営業図
  6
CONTINUOUS
 62
    54
100
AcDbLine
 10
458.4646464641887
 20
17.38769512844629
 30
0.0
 11
457.0505050500485
 21
18.80183654258653
 31
0.0
  0
LINE
  5
282
330
1F
100
AcDbEntity
  8
営業図
  6
CONTINUOUS
 62
    54
100
AcDbLine
 10
458.4646464641898
 20
17.78767472184328
 30
0.0
 11
457.0505050500495
 21
19.20181613598352
 31
0.0
  0
LINE
  5
283
330
1F
100
AcDbEntity
  8
営業図
  6
CONTINUOUS
 62
    54
100
AcDbLine
 10
458.4646464641891
 20
18.18765431524203
 30
0.0
 11
457.050505050047
 21
19.60179572938408
 31
0.0
  0
LINE
  5
284
330
1F
100
AcDbEntity
  8
営業図
  6
CONTINUOUS
 62
    54
100
AcDbLine
 10
458.4646464641884
 20
18.58763390864079
 30
0.0
 11
457.0505050500481
 21
20.00177532278099
 31
0.0
  0
LINE
  5
285
330
1F
100
AcDbEntity
  8
営業図
  6
CONTINUOUS
 62
    54
100
AcDbLine
 10
458.4646464641876
 20
18.98761350203954
 30
0.0
 11
457.0505050500492
 21
20.40175491617797
 31
0.0
  0
LINE
  5
286
330
1F
100
AcDbEntity
  8
営業図
  6
CONTINUOUS
 62
    54
100
AcDbLine
 10
458.4646464641887
 20
19.38759309543648
 30
0.0
 11
457.0505050500483
 21
20.80173450957673
 31
0.0
  0
LINE
  5
287
330
1F
100
AcDbEntity
  8
営業図
  6
CONTINUOUS
 62
    54
100
AcDbLine
 10
458.4646464641898
 20
19.78757268883347
 30
0.0
 11
457.0505050500495
 21
21.20171410297371
 31
0.0
  0
LINE
  5
288
330
1F
100
AcDbEntity
  8
営業図
  6
CONTINUOUS
 62
    54
100
AcDbLine
 10
458.464646464189
 20
20.18755228223218
 30
0.0
 11
457.0505050500487
 21
21.60169369637242
 31
0.0
  0
LINE
  5
289
330
1F
100
AcDbEntity
  8
営業図
  6
CONTINUOUS
 62
    54
100
AcDbLine
 10
458.4646464641883
 20
20.58753187563098
 30
0.0
 11
457.0505050500481
 21
22.00167328977122
 31
0.0
  0
LINE
  5
28A
330
1F
100
AcDbEntity
  8
営業図
  6
CONTINUOUS
 62
    54
100
AcDbLine
 10
458.4646464641893
 20
20.98751146902792
 30
0.0
 11
457.0505050500491
 21
22.40165288316816
 31
0.0
  0
LINE
  5
28B
330
1F
100
AcDbEntity
  8
営業図
  6
CONTINUOUS
 62
    54
100
AcDbLine
 10
458.4646464641886
 20
21.38749106242672
 30
0.0
 11
457.0505050500483
 21
22.80163247656695
 31
0.0
  0
LINE
  5
28C
330
1F
100
AcDbEntity
  8
営業図
  6
CONTINUOUS
 62
    54
100
AcDbLine
 10
458.4646464641879
 20
21.78747065582547
 30
0.0
 11
457.0505050500477
 21
23.20161206996571
 31
0.0
  0
LINE
  5
28D
330
1F
100
AcDbEntity
  8
営業図
  6
CONTINUOUS
 62
    54
100
AcDbLine
 10
458.464646464189
 20
22.18745024922242
 30
0.0
 11
457.0505050500487
 21
23.60159166336265
 31
0.0
  0
LINE
  5
28E
330
1F
100
AcDbEntity
  8
営業図
  6
CONTINUOUS
 62
    54
100
AcDbLine
 10
458.4646464641882
 20
22.58742984262117
 30
0.0
 11
457.0505050500479
 21
24.00157125676141
 31
0.0
  0
LINE
  5
28F
330
1F
100
AcDbEntity
  8
営業図
  6
CONTINUOUS
 62
    54
100
AcDbLine
 10
458.4646464641893
 20
22.98740943601815
 30
0.0
 11
457.0505050500491
 21
24.40155085015839
 31
0.0
  0
LINE
  5
290
330
1F
100
AcDbEntity
  8
営業図
  6
CONTINUOUS
 62
    54
100
AcDbLine
 10
458.4646464641885
 20
23.38738902941691
 30
0.0
 11
457.0505050500483
 21
24.80153044355715
 31
0.0
  0
LINE
  5
291
330
1F
100
AcDbEntity
  8
営業図
  6
CONTINUOUS
 62
    54
100
AcDbLine
 10
458.4646464641896
 20
23.78736862281385
 30
0.0
 11
457.0505050500494
 21
25.20151003695409
 31
0.0
  0
LINE
  5
292
330
1F
100
AcDbEntity
  8
営業図
  6
CONTINUOUS
 62
    54
100
AcDbLine
 10
458.4646464641888
 20
24.18734821621261
 30
0.0
 11
457.0505050500487
 21
25.60148963035284
 31
0.0
  0
LINE
  5
293
330
1F
100
AcDbEntity
  8
営業図
  6
CONTINUOUS
 62
    54
100
AcDbLine
 10
458.4646464641882
 20
24.5873278096114
 30
0.0
 11
457.0505050500479
 21
26.00146922375164
 31
0.0
  0
LINE
  5
294
330
1F
100
AcDbEntity
  8
営業図
  6
CONTINUOUS
 62
    54
100
AcDbLine
 10
458.4646464641892
 20
24.98730740300834
 30
0.0
 11
457.050505050049
 21
26.40144881714854
 31
0.0
  0
LINE
  5
295
330
1F
100
AcDbEntity
  8
営業図
  6
CONTINUOUS
 62
    54
100
AcDbLine
 10
458.4646464641885
 20
25.3872869964071
 30
0.0
 11
457.0505050500483
 21
26.80142841054734
 31
0.0
  0
LINE
  5
296
330
1F
100
AcDbEntity
  8
営業図
  6
CONTINUOUS
 62
    54
100
AcDbLine
 10
458.4646464641878
 20
25.78726658980585
 30
0.0
 11
457.0505050500475
 21
27.20140800394609
 31
0.0
  0
LINE
  5
297
330
1F
100
AcDbEntity
  8
営業図
  6
CONTINUOUS
 62
    54
100
AcDbLine
 10
458.4646464641888
 20
26.18724618320284
 30
0.0
 11
457.4296704251958
 21
27.22222222219587
 31
0.0
  0
LINE
  5
298
330
1F
100
AcDbEntity
  8
営業図
  6
CONTINUOUS
 62
    54
100
AcDbLine
 10
458.4646464641881
 20
26.58722577660159
 30
0.0
 11
457.8296500185928
 21
27.22222222219695
 31
0.0
  0
LINE
  5
299
330
1F
100
AcDbEntity
  8
営業図
  6
CONTINUOUS
 62
    54
100
AcDbLine
 10
458.4646464641892
 20
26.9872053699985
 30
0.0
 11
458.2296296119915
 21
27.22222222219619
 31
0.0
  0
LINE
  5
29A
330
1F
100
AcDbEntity
  8
営業図
  6
CONTINUOUS
 62
    54
100
AcDbLine
 10
459.1717171712579
 20
26.82224262879711
 30
0.0
 11
459.5716967646557
 21
27.22222222219482
 31
0.0
  0
LINE
  5
29B
330
1F
100
AcDbEntity
  8
営業図
  6
CONTINUOUS
 62
    54
100
AcDbLine
 10
459.1717171712553
 20
26.42226303539655
 30
0.0
 11
459.9716763580544
 21
27.22222222219559
 31
0.0
  0
LINE
  5
29C
330
1F
100
AcDbEntity
  8
営業図
  6
CONTINUOUS
 62
    54
100
AcDbLine
 10
459.1717171712564
 20
26.02228344199961
 30
0.0
 11
460.3716559514514
 21
27.22222222219446
 31
0.0
  0
LINE
  5
29D
330
1F
100
AcDbEntity
  8
営業図
  6
CONTINUOUS
 62
    54
100
AcDbLine
 10
459.1717171712576
 20
25.62230384860266
 30
0.0
 11
460.5858585853977
 21
27.0364452627429
 31
0.0
  0
LINE
  5
29E
330
1F
100
AcDbEntity
  8
営業図
  6
CONTINUOUS
 62
    54
100
AcDbLine
 10
459.1717171712587
 20
25.22232425520572
 30
0.0
 11
460.5858585853989
 21
26.63646566934592
 31
0.0
  0
LINE
  5
29F
330
1F
100
AcDbEntity
  8
営業図
  6
CONTINUOUS
 62
    54
100
AcDbLine
 10
459.1717171712579
 20
24.82234466180696
 30
0.0
 11
460.5858585854
 21
26.23648607594901
 31
0.0
  0
LINE
  5
2A0
330
1F
100
AcDbEntity
  8
営業図
  6
CONTINUOUS
 62
    54
100
AcDbLine
 10
461.29292929247
 20
26.94355678301913
 30
0.0
 11
461.5715947316476
 21
27.22222222219671
 31
0.0
  0
LINE
  5
2A1
330
1F
100
AcDbEntity
  8
営業図
  6
CONTINUOUS
 62
    54
100
AcDbLine
 10
459.1717171712572
 20
24.42236506840817
 30
0.0
 11
460.5858585853992
 21
25.83650648255022
 31
0.0
  0
LINE
  5
2A2
330
1F
100
AcDbEntity
  8
営業図
  6
CONTINUOUS
 62
    54
100
AcDbLine
 10
461.2929292924711
 20
26.54357718962215
 30
0.0
 11
461.9715743250446
 21
27.22222222219563
 31
0.0
  0
LINE
  5
2A3
330
1F
100
AcDbEntity
  8
営業図
  6
CONTINUOUS
 62
    54
100
AcDbLine
 10
459.1717171712564
 20
24.02238547500941
 30
0.0
 11
460.5858585854003
 21
25.43652688915327
 31
0.0
  0
LINE
  5
2A4
330
1F
100
AcDbEntity
  8
営業図
  6
CONTINUOUS
 62
    54
100
AcDbLine
 10
461.2929292924685
 20
26.14359759622159
 30
0.0
 11
462.3715539184415
 21
27.22222222219454
 31
0.0
  0
LINE
  5
2A5
330
1F
100
AcDbEntity
  8
営業図
  6
CONTINUOUS
 62
    54
100
AcDbLine
 10
459.1717171712575
 20
23.62240588161247
 30
0.0
 11
460.5858585853977
 21
25.03654729575271
 31
0.0
  0
LINE
  5
2A6
330
1F
100
AcDbEntity
  8
営業図
  6
CONTINUOUS
 62
    54
100
AcDbLine
 10
461.2929292924696
 20
25.74361800282468
 30
0.0
 11
462.707070706608
 21
27.15775941696307
 31
0.0
  0
LINE
  5
2A7
330
1F
100
AcDbEntity
  8
営業図
  6
CONTINUOUS
 62
    54
100
AcDbLine
 10
459.1717171712585
 20
23.22242628821553
 30
0.0
 11
460.5858585853989
 21
24.63656770235577
 31
0.0
  0
LINE
  5
2A8
330
1F
100
AcDbEntity
  8
営業図
  6
CONTINUOUS
 62
    54
100
AcDbLine
 10
461.292929292469
 20
25.34363840942589
 30
0.0
 11
462.7070707066073
 21
26.75777982356428
 31
0.0
  0
LINE
  5
2A9
330
1F
100
AcDbEntity
  8
営業図
  6
CONTINUOUS
 62
    54
100
AcDbLine
 10
459.1717171712579
 20
22.82244669481677
 30
0.0
 11
460.5858585853981
 21
24.23658810895701
 31
0.0
  0
LINE
  5
2AA
330
1F
100
AcDbEntity
  8
営業図
  6
CONTINUOUS
 62
    54
100
AcDbLine
 10
461.29292929247
 20
24.94365881602894
 30
0.0
 11
462.7070707066084
 21
26.35780023016737
 31
0.0
  0
LINE
  5
2AB
330
1F
100
AcDbEntity
  8
営業図
  6
CONTINUOUS
 62
    54
100
AcDbLine
 10
463.4141414136785
 20
27.06487093723749
 30
0.0
 11
463.5714926986361
 21
27.22222222219498
 31
0.0
  0
LINE
  5
2AC
330
1F
100
AcDbEntity
  8
営業図
  6
CONTINUOUS
 62
    54
100
AcDbLine
 10
459.1717171712589
 20
22.42246710141979
 30
0.0
 11
460.5858585853992
 21
23.83660851556003
 31
0.0
  0
LINE
  5
2AD
330
1F
100
AcDbEntity
  8
営業図
  6
CONTINUOUS
 62
    54
100
AcDbLine
 10
461.2929292924674
 20
24.54367922262834
 30
0.0
 11
462.7070707066077
 21
25.95782063676858
 31
0.0
  0
LINE
  5
2AE
330
1F
100
AcDbEntity
  8
営業図
  6
CONTINUOUS
 62
    54
100
AcDbLine
 10
463.414141413676
 20
26.66489134383689
 30
0.0
 11
463.971472292033
 21
27.22222222219386
 31
0.0
  0
LINE
  5
2AF
330
1F
100
AcDbEntity
  8
営業図
  6
CONTINUOUS
 62
    54
100
AcDbLine
 10
459.1717171712564
 20
22.02248750801922
 30
0.0
 11
460.5858585854003
 21
23.43662892216312
 31
0.0
  0
LINE
  5
2B0
330
1F
100
AcDbEntity
  8
営業図
  6
CONTINUOUS
 62
    54
100
AcDbLine
 10
461.2929292924685
 20
24.1436996292314
 30
0.0
 11
462.7070707066088
 21
25.55784104337163
 31
0.0
  0
LINE
  5
2B1
330
1F
100
AcDbEntity
  8
営業図
  6
CONTINUOUS
 62
    54
100
AcDbLine
 10
463.4141414136789
 20
26.26491175044175
 30
0.0
 11
464.3714518854318
 21
27.22222222219462
 31
0.0
  0
LINE
  5
2B2
330
1F
100
AcDbEntity
  8
営業図
  6
CONTINUOUS
 62
    54
100
AcDbLine
 10
459.1717171712574
 20
21.62250791462228
 30
0.0
 11
460.5858585854012
 21
23.03664932876614
 31
0.0
  0
LINE
  5
2B3
330
1F
100
AcDbEntity
  8
営業図
  6
CONTINUOUS
 62
    54
100
AcDbLine
 10
461.2929292924696
 20
23.74372003583445
 30
0.0
 11
462.707070706608
 21
25.15786144997284
 31
0.0
  0
LINE
  5
2B4
330
1F
100
AcDbEntity
  8
営業図
  6
CONTINUOUS
 62
    54
100
AcDbLine
 10
463.4141414136781
 20
25.86493215704296
 30
0.0
 11
464.7714314788287
 21
27.22222222219354
 31
0.0
  0
LINE
  5
2B5
330
1F
100
AcDbEntity
  8
営業図
  6
CONTINUOUS
 62
    54
100
AcDbLine
 10
459.1717171712568
 20
21.22252832122352
 30
0.0
 11
460.5858585853988
 21
22.63666973536558
 31
0.0
  0
LINE
  5
2B6
330
1F
100
AcDbEntity
  8
営業図
  6
CONTINUOUS
 62
    54
100
AcDbLine
 10
461.2929292924688
 20
23.3437404424357
 30
0.0
 11
462.7070707066073
 21
24.75788185657413
 31
0.0
  0
LINE
  5
2B7
330
1F
100
AcDbEntity
  8
営業図
  6
CONTINUOUS
 62
    54
100
AcDbLine
 10
463.4141414136793
 20
25.46495256364606
 30
0.0
 11
464.8282828278176
 21
26.87909397778445
 31
0.0
  0
LINE
  5
2B8
330
1F
100
AcDbEntity
  8
営業図
  6
CONTINUOUS
 62
    54
100
AcDbLine
 10
459.1717171712577
 20
20.82254872782654
 30
0.0
 11
460.5858585853998
 21
22.23669014196859
 31
0.0
  0
LINE
  5
2B9
330
1F
100
AcDbEntity
  8
営業図
  6
CONTINUOUS
 62
    54
100
AcDbLine
 10
461.29292929247
 20
22.94376084903871
 30
0.0
 11
462.7070707066084
 21
24.35790226317714
 31
0.0
  0
LINE
  5
2BA
330
1F
100
AcDbEntity
  8
営業図
  6
CONTINUOUS
 62
    54
100
AcDbLine
 10
463.4141414136785
 20
25.06497297024726
 30
0.0
 11
464.8282828278187
 21
26.4791143843875
 31
0.0
  0
LINE
  5
2BB
330
1F
100
AcDbEntity
  8
営業図
  6
CONTINUOUS
 62
    54
100
AcDbLine
 10
459.1717171712589
 20
20.42256913442959
 30
0.0
 11
460.5858585853991
 21
21.83671054856984
 31
0.0
  0
LINE
  5
2BC
330
1F
100
AcDbEntity
  8
営業図
  6
CONTINUOUS
 62
    54
100
AcDbLine
 10
461.2929292924692
 20
22.54378125563996
 30
0.0
 11
462.7070707066076
 21
23.95792266977839
 31
0.0
  0
LINE
  5
2BD
330
1F
100
AcDbEntity
  8
営業図
  6
CONTINUOUS
 62
    54
100
AcDbLine
 10
463.4141414136795
 20
24.66499337685032
 30
0.0
 11
464.828282827818
 21
26.07913479098875
 31
0.0
  0
LINE
  5
2BE
330
1F
100
AcDbEntity
  8
営業図
  6
CONTINUOUS
 62
    54
100
AcDbLine
 10
459.1717171712563
 20
20.02258954102899
 30
0.0
 11
460.5858585854002
 21
21.43673095517289
 31
0.0
  0
LINE
  5
2BF
330
1F
100
AcDbEntity
  8
営業図
  6
CONTINUOUS
 62
    54
100
AcDbLine
 10
461.2929292924685
 20
22.1438016622412
 30
0.0
 11
462.7070707066087
 21
23.5579430763814
 31
0.0
  0
LINE
  5
2C0
330
1F
100
AcDbEntity
  8
営業図
  6
CONTINUOUS
 62
    54
100
AcDbLine
 10
463.414141413677
 20
24.26501378344972
 30
0.0
 11
464.828282827819
 21
25.67915519759176
 31
0.0
  0
LINE
  5
2C1
330
1F
100
AcDbEntity
  8
営業図
  6
CONTINUOUS
 62
    54
100
AcDbLine
 10
459.1717171712574
 20
19.62260994763209
 30
0.0
 11
460.5858585853994
 21
21.03675136177414
 31
0.0
  0
LINE
  5
2C2
330
1F
100
AcDbEntity
  8
営業図
  6
CONTINUOUS
 62
    54
100
AcDbLine
 10
461.2929292924677
 20
21.74382206884245
 30
0.0
 11
462.7070707066061
 21
23.15796348298084
 31
0.0
  0
LINE
  5
2C3
330
1F
100
AcDbEntity
  8
営業図
  6
CONTINUOUS
 62
    54
100
AcDbLine
 10
463.4141414136781
 20
23.86503419005281
 30
0.0
 11
464.8282828278165
 21
25.2791756041912
 31
0.0
  0
LINE
  5
2C4
330
1F
100
AcDbEntity
  8
営業図
  6
CONTINUOUS
 62
    54
100
AcDbLine
 10
459.1717171712566
 20
19.22263035423329
 30
0.0
 11
460.5858585853987
 21
20.63677176837534
 31
0.0
  0
LINE
  5
2C5
330
1F
100
AcDbEntity
  8
営業図
  6
CONTINUOUS
 62
    54
100
AcDbLine
 10
461.2929292924688
 20
21.34384247544546
 30
0.0
 11
462.7070707066072
 21
22.7579838895839
 31
0.0
  0
LINE
  5
2C6
330
1F
100
AcDbEntity
  8
営業図
  6
CONTINUOUS
 62
    54
100
AcDbLine
 10
463.4141414136774
 20
23.46505459665402
 30
0.0
 11
464.8282828278176
 21
24.87919601079426
 31
0.0
  0
LINE
  5
2C7
330
1F
100
AcDbEntity
  8
営業図
  6
CONTINUOUS
 62
    54
100
AcDbLine
 10
459.1717171712577
 20
18.82265076083635
 30
0.0
 11
460.5858585853997
 21
20.2367921749784
 31
0.0
  0
LINE
  5
2C8
330
1F
100
AcDbEntity
  8
営業図
  6
CONTINUOUS
 62
    54
100
AcDbLine
 10
461.2929292924698
 20
20.94386288204852
 30
0.0
 11
462.7070707066064
 21
22.35800429618514
 31
0.0
  0
LINE
  5
2C9
330
1F
100
AcDbEntity
  8
営業図
  6
CONTINUOUS
 62
    54
100
AcDbLine
 10
463.4141414136784
 20
23.06507500325707
 30
0.0
 11
464.8282828278168
 21
24.47921641739551
 31
0.0
  0
LINE
  5
2CA
330
1F
100
AcDbEntity
  8
営業図
  6
CONTINUOUS
 62
    54
100
AcDbLine
 10
459.1717171712551
 20
18.42267116743574
 30
0.0
 11
460.585858585399
 21
19.83681258157964
 31
0.0
  0
LINE
  5
2CB
330
1F
100
AcDbEntity
  8
営業図
  6
CONTINUOUS
 62
    54
100
AcDbLine
 10
461.2929292924709
 20
20.54388328865157
 30
0.0
 11
462.7070707066094
 21
21.95802470279001
 31
0.0
  0
LINE
  5
2CC
330
1F
100
AcDbEntity
  8
営業図
  6
CONTINUOUS
 62
    54
100
AcDbLine
 10
463.4141414136795
 20
22.66509540986013
 30
0.0
 11
464.8282828278179
 21
24.07923682399852
 31
0.0
  0
LINE
  5
2CD
330
1F
100
AcDbEntity
  8
営業図
  6
CONTINUOUS
 62
    54
100
AcDbLine
 10
459.1717171712563
 20
18.02269157403884
 30
0.0
 11
460.5858585854002
 21
19.4368329881827
 31
0.0
  0
LINE
  5
2CE
330
1F
100
AcDbEntity
  8
営業図
  6
CONTINUOUS
 62
    54
100
AcDbLine
 10
461.2929292924702
 20
20.14390369525282
 30
0.0
 11
462.7070707066087
 21
21.55804510939125
 31
0.0
  0
LINE
  5
2CF
330
1F
100
AcDbEntity
  8
営業図
  6
CONTINUOUS
 62
    54
100
AcDbLine
 10
463.4141414136769
 20
22.26511581645952
 30
0.0
 11
464.828282827819
 21
23.67925723060161
 31
0.0
  0
LINE
  5
2D0
330
1F
100
AcDbEntity
  8
営業図
  6
CONTINUOUS
 62
    54
100
AcDbLine
 10
459.1717171712573
 20
17.62271198064186
 30
0.0
 11
460.5858585853993
 21
19.0368533947839
 31
0.0
  0
LINE
  5
2D1
330
1F
100
AcDbEntity
  8
営業図
  6
CONTINUOUS
 62
    54
100
AcDbLine
 10
461.2929292924695
 20
19.74392410185403
 30
0.0
 11
462.7070707066097
 21
21.15806551599427
 31
0.0
  0
LINE
  5
2D2
330
1F
100
AcDbEntity
  8
営業図
  6
CONTINUOUS
 62
    54
100
AcDbLine
 10
463.4141414136781
 20
21.86513622306258
 30
0.0
 11
464.8282828278165
 21
23.27927763720097
 31
0.0
  0
LINE
  5
2D3
330
1F
100
AcDbEntity
  8
営業図
  6
CONTINUOUS
 62
    54
100
AcDbLine
 10
459.1717171712566
 20
17.2227323872431
 30
0.0
 11
460.5858585854004
 21
18.636873801387
 31
0.0
  0
LINE
  5
2D4
330
1F
100
AcDbEntity
  8
営業図
  6
CONTINUOUS
 62
    54
100
AcDbLine
 10
461.2929292924687
 20
19.34394450845527
 30
0.0
 11
462.7070707066072
 21
20.7580859225937
 31
0.0
  0
LINE
  5
2D5
330
1F
100
AcDbEntity
  8
営業図
  6
CONTINUOUS
 62
    54
100
AcDbLine
 10
463.4141414136772
 20
21.46515662966383
 30
0.0
 11
464.8282828278176
 21
22.87929804380407
 31
0.0
  0
LINE
  5
2D6
330
1F
100
AcDbEntity
  8
営業図
  6
CONTINUOUS
 62
    54
100
AcDbLine
 10
459.1717171712576
 20
16.82275279384616
 30
0.0
 11
460.5858585853979
 21
18.23689420798636
 31
0.0
  0
LINE
  5
2D7
330
1F
100
AcDbEntity
  8
営業図
  6
CONTINUOUS
 62
    54
100
AcDbLine
 10
461.2929292924698
 20
18.94396491505833
 30
0.0
 11
462.7070707066082
 21
20.35810632919672
 31
0.0
  0
LINE
  5
2D8
330
1F
100
AcDbEntity
  8
営業図
  6
CONTINUOUS
 62
    54
100
AcDbLine
 10
463.4141414136784
 20
21.06517703626684
 30
0.0
 11
464.8282828278167
 21
22.47931845040527
 31
0.0
  0
LINE
  5
2D9
330
1F
100
AcDbEntity
  8
営業図
  6
CONTINUOUS
 62
    54
100
AcDbLine
 10
459.1834350555038
 20
16.43449108469426
 30
0.0
 11
460.585858585399
 21
17.83691461458945
 31
0.0
  0
LINE
  5
2DA
330
1F
100
AcDbEntity
  8
営業図
  6
CONTINUOUS
 62
    54
100
AcDbLine
 10
461.2929292924691
 20
18.54398532165957
 30
0.0
 11
462.7070707066075
 21
19.95812673579796
 31
0.0
  0
LINE
  5
2DB
330
1F
100
AcDbEntity
  8
営業図
  6
CONTINUOUS
 62
    54
100
AcDbLine
 10
463.4141414136795
 20
20.66519744286994
 30
0.0
 11
464.8282828278179
 21
22.07933885700833
 31
0.0
  0
LINE
  5
2DC
330
1F
100
AcDbEntity
  8
営業図
  6
CONTINUOUS
 62
    54
100
AcDbLine
 10
459.2636162342185
 20
16.1146926700109
 30
0.0
 11
460.5858585853982
 21
17.43693502119066
 31
0.0
  0
LINE
  5
2DD
330
1F
100
AcDbEntity
  8
営業図
  6
CONTINUOUS
 62
    54
100
AcDbLine
 10
461.2929292924701
 20
18.14400572826259
 30
0.0
 11
462.7070707066086
 21
19.55814714240102
 31
0.0
  0
LINE
  5
2DE
330
1F
100
AcDbEntity
  8
営業図
  6
CONTINUOUS
 62
    54
100
AcDbLine
 10
463.4141414136769
 20
20.26521784946933
 30
0.0
 11
464.8282828278153
 21
21.67935926360773
 31
0.0
  0
LINE
  5
2DF
330
1F
100
AcDbEntity
  8
営業図
  6
CONTINUOUS
 62
    54
100
AcDbLine
 10
459.3978978138272
 20
15.84899465622166
 30
0.0
 11
460.5858585853993
 21
17.03695542779371
 31
0.0
  0
LINE
  5
2E0
330
1F
100
AcDbEntity
  8
営業図
  6
CONTINUOUS
 62
    54
100
AcDbLine
 10
461.2929292924676
 20
17.74402613486203
 30
0.0
 11
462.707070706606
 21
19.15816754900046
 31
0.0
  0
LINE
  5
2E1
330
1F
100
AcDbEntity
  8
営業図
  6
CONTINUOUS
 62
    54
100
AcDbLine
 10
463.414141413678
 20
19.86523825607239
 30
0.0
 11
464.8282828278165
 21
21.27937967021082
 31
0.0
  0
LINE
  5
2E2
330
1F
100
AcDbEntity
  8
営業図
  6
CONTINUOUS
 62
    54
100
AcDbLine
 10
459.5755566509675
 20
15.62667389996396
 30
0.0
 11
460.6792163047667
 21
16.73033355376304
 31
0.0
  0
LINE
  5
2E3
330
1F
100
AcDbEntity
  8
営業図
  6
CONTINUOUS
 62
    54
100
AcDbLine
 10
461.2929292924687
 20
17.34404654146508
 30
0.0
 11
462.7070707066071
 21
18.75818795560351
 31
0.0
  0
LINE
  5
2E4
330
1F
100
AcDbEntity
  8
営業図
  6
CONTINUOUS
 62
    54
100
AcDbLine
 10
463.414141413679
 20
19.46525866267544
 30
0.0
 11
464.8282828278175
 21
20.87940007681388
 31
0.0
  0
LINE
  5
2E5
330
1F
100
AcDbEntity
  8
営業図
  6
CONTINUOUS
 62
    54
100
AcDbLine
 10
459.7936284730118
 20
15.4447661286102
 30
0.0
 11
460.9660286971829
 21
16.61716635278126
 31
0.0
  0
LINE
  5
2E6
330
1F
100
AcDbEntity
  8
営業図
  6
CONTINUOUS
 62
    54
100
AcDbLine
 10
461.2919245558337
 20
16.9430622114321
 30
0.0
 11
462.7070707066082
 21
18.35820836220657
 31
0.0
  0
LINE
  5
2E7
330
1F
100
AcDbEntity
  8
営業図
  6
CONTINUOUS
 62
    54
100
AcDbLine
 10
463.4141414136784
 20
19.06527906927669
 30
0.0
 11
464.8282828278167
 21
20.47942048341508
 31
0.0
  0
LINE
  5
2E8
330
1F
100
AcDbEntity
  8
営業図
  6
CONTINUOUS
 62
    54
100
AcDbLine
 10
460.0544906540674
 20
15.30564871626777
 30
0.0
 11
462.7070707066075
 21
17.95822876880781
 31
0.0
  0
LINE
  5
2E9
330
1F
100
AcDbEntity
  8
営業図
  6
CONTINUOUS
 62
    54
100
AcDbLine
 10
463.4141414136794
 20
18.66529947587975
 30
0.0
 11
464.8282828278179
 21
20.07944089001818
 31
0.0
  0
LINE
  5
2EA
330
1F
100
AcDbEntity
  8
営業図
  6
CONTINUOUS
 62
    54
100
AcDbLine
 10
460.3677611072818
 20
15.21893957608408
 30
0.0
 11
462.7070707066085
 21
17.55824917541083
 31
0.0
  0
LINE
  5
2EB
330
1F
100
AcDbEntity
  8
営業図
  6
CONTINUOUS
 62
    54
100
AcDbLine
 10
463.4141414136768
 20
18.26531988247914
 30
0.0
 11
464.8282828278171
 21
19.67946129661938
 31
0.0
  0
LINE
  5
2EC
330
1F
100
AcDbEntity
  8
営業図
  6
CONTINUOUS
 62
    54
100
AcDbLine
 10
460.7508213266012
 20
15.20202020200539
 30
0.0
 11
462.707070706606
 21
17.15826958201027
 31
0.0
  0
LINE
  5
2ED
330
1F
100
AcDbEntity
  8
営業図
  6
CONTINUOUS
 62
    54
100
AcDbLine
 10
463.4141414136779
 20
17.8653402890822
 30
0.0
 11
464.8282828278163
 21
19.27948170322063
 31
0.0
  0
LINE
  5
2EE
330
1F
100
AcDbEntity
  8
営業図
  6
CONTINUOUS
 62
    54
100
AcDbLine
 10
461.1696768719647
 20
15.22089615397095
 30
0.0
 11
462.7498681278809
 21
16.80108740988721
 31
0.0
  0
LINE
  5
2EF
330
1F
100
AcDbEntity
  8
営業図
  6
CONTINUOUS
 62
    54
100
AcDbLine
 10
463.4141414136772
 20
17.4653606956834
 30
0.0
 11
464.8282828278174
 21
18.87950210982364
 31
0.0
  0
LINE
  5
2F0
330
1F
100
AcDbEntity
  8
営業図
  6
CONTINUOUS
 62
    54
100
AcDbLine
 10
462.0139601561019
 20
15.66519984471018
 30
0.0
 11
462.9753546175268
 21
16.62659430613507
 31
0.0
  0
LINE
  5
2F1
330
1F
100
AcDbEntity
  8
営業図
  6
CONTINUOUS
 62
    54
100
AcDbLine
 10
463.4141414136783
 20
17.0653811022865
 30
0.0
 11
464.8282828278186
 21
18.47952251642674
 31
0.0
  0
LINE
  5
2F2
330
1F
100
AcDbEntity
  8
営業図
  6
CONTINUOUS
 62
    54
100
AcDbLine
 10
462.2244476447896
 20
15.47570773999986
 30
0.0
 11
464.8282828278177
 21
18.07954292302794
 31
0.0
  0
LINE
  5
2F3
330
1F
100
AcDbEntity
  8
営業図
  6
CONTINUOUS
 62
    54
100
AcDbLine
 10
462.4768498263855
 20
15.32813032819766
 30
0.0
 11
464.8282828278188
 21
17.679563329631
 31
0.0
  0
LINE
  5
2F4
330
1F
100
AcDbEntity
  8
営業図
  6
CONTINUOUS
 62
    54
100
AcDbLine
 10
462.7790347645821
 20
15.2303356729963
 30
0.0
 11
464.828282827818
 21
17.2795837362322
 31
0.0
  0
LINE
  5
2F5
330
1F
100
AcDbEntity
  8
営業図
  6
CONTINUOUS
 62
    54
100
AcDbLine
 10
463.1506988869882
 20
15.20202020200434
 30
0.0
 11
464.8282828278173
 21
16.87960414283345
 31
0.0
  0
LINE
  5
2F6
330
1F
100
AcDbEntity
  8
営業図
  6
CONTINUOUS
 62
    54
100
AcDbLine
 10
463.5580164572926
 20
15.20935817891072
 30
0.0
 11
464.8209448509091
 21
16.47228657252723
 31
0.0
  0
LINE
  5
2F7
330
1F
100
AcDbEntity
  8
営業図
  6
CONTINUOUS
 62
    54
100
AcDbLine
 10
464.1689455339864
 20
15.42030766220649
 30
0.0
 11
464.609995367617
 21
15.86135749583709
 31
0.0
  0
LINE
  5
2F8
330
1F
100
AcDbEntity
  8
営業図
  6
CONTINUOUS
 62
    54
100
AcDbLine
 10
460.3769549409776
 20
15.21753543072774
 30
0.0
 11
459.1872323999793
 21
16.40725797172605
 31
0.0
  0
LINE
  5
2F9
330
1F
100
AcDbEntity
  8
営業図
  6
CONTINUOUS
 62
    54
100
AcDbLine
 10
460.7924497630971
 20
15.20202020200623
 30
0.0
 11
459.171717171256
 21
16.82275279384749
 31
0.0
  0
LINE
  5
2FA
330
1F
100
AcDbEntity
  8
営業図
  6
CONTINUOUS
 62
    54
100
AcDbLine
 10
461.1730007442312
 20
15.22144881427018
 30
0.0
 11
459.1717171712569
 21
17.22273238724439
 31
0.0
  0
LINE
  5
2FB
330
1F
100
AcDbEntity
  8
営業図
  6
CONTINUOUS
 62
    54
100
AcDbLine
 10
461.4835304827697
 20
15.31089866912978
 30
0.0
 11
459.1717171712563
 21
17.62271198064318
 31
0.0
  0
LINE
  5
2FC
330
1F
100
AcDbEntity
  8
営業図
  6
CONTINUOUS
 62
    54
100
AcDbLine
 10
461.742330175603
 20
15.45207856969437
 30
0.0
 11
459.1717171712573
 21
18.02269157404013
 31
0.0
  0
LINE
  5
2FD
330
1F
100
AcDbEntity
  8
営業図
  6
CONTINUOUS
 62
    54
100
AcDbLine
 10
461.9585707887147
 20
15.63581754998077
 30
0.0
 11
460.9762955721536
 21
16.61809276654188
 31
0.0
  0
LINE
  5
2FE
330
1F
100
AcDbEntity
  8
営業図
  6
CONTINUOUS
 62
    54
100
AcDbLine
 10
460.5858585853969
 20
17.00852975329868
 30
0.0
 11
459.1717171712566
 21
18.42267116743892
 31
0.0
  0
LINE
  5
2FF
330
1F
100
AcDbEntity
  8
営業図
  6
CONTINUOUS
 62
    54
100
AcDbLine
 10
462.7600361398392
 20
15.23433179225425
 30
0.0
 11
461.2283565875658
 21
16.76601134452772
 31
0.0
  0
LINE
  5
300
330
1F
100
AcDbEntity
  8
営業図
  6
CONTINUOUS
 62
    54
100
AcDbLine
 10
460.5858585853979
 20
17.40850934669558
 30
0.0
 11
459.1717171712558
 21
18.82265076083764
 31
0.0
  0
LINE
  5
301
330
1F
100
AcDbEntity
  8
営業図
  6
CONTINUOUS
 62
    54
100
AcDbLine
 10
463.1923273234862
 20
15.20202020200543
 30
0.0
 11
461.2929292924672
 21
17.10141823302426
 31
0.0
  0
LINE
  5
302
330
1F
100
AcDbEntity
  8
営業図
  6
CONTINUOUS
 62
    54
100
AcDbLine
 10
460.5858585853971
 20
17.80848894009438
 30
0.0
 11
459.1717171712569
 21
19.22263035423462
 31
0.0
  0
LINE
  5
303
330
1F
100
AcDbEntity
  8
営業図
  6
CONTINUOUS
 62
    54
100
AcDbLine
 10
463.5822761308837
 20
15.21205098800584
 30
0.0
 11
461.2929292924665
 21
17.50139782642301
 31
0.0
  0
LINE
  5
304
330
1F
100
AcDbEntity
  8
営業図
  6
CONTINUOUS
 62
    54
100
AcDbLine
 10
460.5858585853965
 20
18.20846853349313
 30
0.0
 11
459.1717171712561
 21
19.62260994763338
 31
0.0
  0
LINE
  5
305
330
1F
100
AcDbEntity
  8
営業図
  6
CONTINUOUS
 62
    54
100
AcDbLine
 10
463.9045349704497
 20
15.28977174183789
 30
0.0
 11
461.2929292924676
 21
17.90137741982
 31
0.0
  0
LINE
  5
306
330
1F
100
AcDbEntity
  8
営業図
  6
CONTINUOUS
 62
    54
100
AcDbLine
 10
460.5858585853975
 20
18.60844812689012
 30
0.0
 11
459.1717171712555
 21
20.02258954103217
 31
0.0
  0
LINE
  5
307
330
1F
100
AcDbEntity
  8
営業図
  6
CONTINUOUS
 62
    54
100
AcDbLine
 10
464.1720276789423
 20
15.4222586267433
 30
0.0
 11
462.9649332087311
 21
16.62935309695451
 31
0.0
  0
LINE
  5
308
330
1F
100
AcDbEntity
  8
営業図
  6
CONTINUOUS
 62
    54
100
AcDbLine
 10
462.7202621874182
 20
16.87402411826742
 30
0.0
 11
461.2929292924669
 21
18.30135701321871
 31
0.0
  0
LINE
  5
309
330
1F
100
AcDbEntity
  8
営業図
  6
CONTINUOUS
 62
    54
100
AcDbLine
 10
460.5858585853967
 20
19.00842772028883
 30
0.0
 11
459.1717171712565
 21
20.42256913442907
 31
0.0
  0
LINE
  5
30A
330
1F
100
AcDbEntity
  8
営業図
  6
CONTINUOUS
 62
    54
100
AcDbLine
 10
464.3959094759916
 20
15.5983564230921
 30
0.0
 11
463.2919245245175
 21
16.70234137456613
 31
0.0
  0
LINE
  5
30B
330
1F
100
AcDbEntity
  8
営業図
  6
CONTINUOUS
 62
    54
100
AcDbLine
 10
462.7070707066082
 20
17.28719519247545
 30
0.0
 11
461.2929292924661
 21
18.70133660661751
 31
0.0
  0
LINE
  5
30C
330
1F
100
AcDbEntity
  8
営業図
  6
CONTINUOUS
 62
    54
100
AcDbLine
 10
460.585858585396
 20
19.40840731368763
 30
0.0
 11
459.1717171712558
 21
20.82254872782786
 31
0.0
  0
LINE
  5
30D
330
1F
100
AcDbEntity
  8
営業図
  6
CONTINUOUS
 62
    54
100
AcDbLine
 10
464.5793646170662
 20
15.81488087541548
 30
0.0
 11
463.4141414136758
 21
16.9801040788059
 31
0.0
  0
LINE
  5
30E
330
1F
100
AcDbEntity
  8
営業図
  6
CONTINUOUS
 62
    54
100
AcDbLine
 10
462.7070707066074
 20
17.68717478587421
 30
0.0
 11
461.2929292924672
 21
19.10131620001445
 31
0.0
  0
LINE
  5
30F
330
1F
100
AcDbEntity
  8
営業図
  6
CONTINUOUS
 62
    54
100
AcDbLine
 10
460.5858585853953
 20
19.80838690708638
 30
0.0
 11
459.1717171712568
 21
21.22252832122481
 31
0.0
  0
LINE
  5
310
330
1F
100
AcDbEntity
  8
営業図
  6
CONTINUOUS
 62
    54
100
AcDbLine
 10
464.7202256708565
 20
16.07399941502334
 30
0.0
 11
463.4141414136787
 21
17.38008367220107
 31
0.0
  0
LINE
  5
311
330
1F
100
AcDbEntity
  8
営業図
  6
CONTINUOUS
 62
    54
100
AcDbLine
 10
462.7070707066085
 20
18.08715437927119
 30
0.0
 11
461.2929292924684
 21
19.50129579341144
 31
0.0
  0
LINE
  5
312
330
1F
100
AcDbEntity
  8
営業図
  6
CONTINUOUS
 62
    54
100
AcDbLine
 10
460.5858585853965
 20
20.20836650048336
 30
0.0
 11
459.1717171712561
 21
21.6225079146236
 31
0.0
  0
LINE
  5
313
330
1F
100
AcDbEntity
  8
営業図
  6
CONTINUOUS
 62
    54
100
AcDbLine
 10
464.809253481449
 20
16.38495119782869
 30
0.0
 11
463.4141414136779
 21
17.78006326559979
 31
0.0
  0
LINE
  5
314
330
1F
100
AcDbEntity
  8
営業図
  6
CONTINUOUS
 62
    54
100
AcDbLine
 10
462.7070707066078
 20
18.48713397266991
 30
0.0
 11
461.2929292924676
 21
19.90127538681015
 31
0.0
  0
LINE
  5
315
330
1F
100
AcDbEntity
  8
営業図
  6
CONTINUOUS
 62
    54
100
AcDbLine
 10
460.5858585853974
 20
20.60834609388027
 30
0.0
 11
459.1717171712554
 21
22.02248750802236
 31
0.0
  0
LINE
  5
316
330
1F
100
AcDbEntity
  8
営業図
  6
CONTINUOUS
 62
    54
100
AcDbLine
 10
464.8282828278174
 20
16.76590144485834
 30
0.0
 11
463.4141414136772
 21
18.18004285899858
 31
0.0
  0
LINE
  5
317
330
1F
100
AcDbEntity
  8
営業図
  6
CONTINUOUS
 62
    54
100
AcDbLine
 10
462.7070707066089
 20
18.88711356606689
 30
0.0
 11
461.2929292924669
 21
20.30125498020894
 31
0.0
  0
LINE
  5
318
330
1F
100
AcDbEntity
  8
営業図
  6
CONTINUOUS
 62
    54
100
AcDbLine
 10
460.5858585853967
 20
21.00832568727906
 30
0.0
 11
459.1717171712564
 21
22.4224671014193
 31
0.0
  0
LINE
  5
319
330
1F
100
AcDbEntity
  8
営業図
  6
CONTINUOUS
 62
    54
100
AcDbLine
 10
464.8282828278186
 20
17.16588103825529
 30
0.0
 11
463.4141414136764
 21
18.58002245239733
 31
0.0
  0
LINE
  5
31A
330
1F
100
AcDbEntity
  8
営業図
  6
CONTINUOUS
 62
    54
100
AcDbLine
 10
462.7070707066081
 20
19.28709315946564
 30
0.0
 11
461.2929292924661
 21
20.7012345736077
 31
0.0
  0
LINE
  5
31B
330
1F
100
AcDbEntity
  8
営業図
  6
CONTINUOUS
 62
    54
100
AcDbLine
 10
460.585858585396
 20
21.40830528067782
 30
0.0
 11
459.1717171712576
 21
22.82244669481625
 31
0.0
  0
LINE
  5
31C
330
1F
100
AcDbEntity
  8
営業図
  6
CONTINUOUS
 62
    54
100
AcDbLine
 10
464.8282828278177
 20
17.56586063165404
 30
0.0
 11
463.4141414136775
 21
18.98000204579428
 31
0.0
  0
LINE
  5
31D
330
1F
100
AcDbEntity
  8
営業図
  6
CONTINUOUS
 62
    54
100
AcDbLine
 10
462.7070707066092
 20
19.68707275286255
 30
0.0
 11
461.2929292924671
 21
21.10121416700464
 31
0.0
  0
LINE
  5
31E
330
1F
100
AcDbEntity
  8
営業図
  6
CONTINUOUS
 62
    54
100
AcDbLine
 10
460.5858585853971
 20
21.80828487407476
 30
0.0
 11
459.1717171712568
 21
23.222426288215
 31
0.0
  0
LINE
  5
31F
330
1F
100
AcDbEntity
  8
営業図
  6
CONTINUOUS
 62
    54
100
AcDbLine
 10
464.8282828278171
 20
17.96584022505283
 30
0.0
 11
463.4141414136768
 21
19.37998163919307
 31
0.0
  0
LINE
  5
320
330
1F
100
AcDbEntity
  8
営業図
  6
CONTINUOUS
 62
    54
100
AcDbLine
 10
462.7070707066085
 20
20.08705234626134
 30
0.0
 11
461.2929292924665
 21
21.50119376040344
 31
0.0
  0
LINE
  5
321
330
1F
100
AcDbEntity
  8
営業図
  6
CONTINUOUS
 62
    54
100
AcDbLine
 10
460.5858585853963
 20
22.20826446747355
 30
0.0
 11
459.1717171712579
 21
23.62240588161195
 31
0.0
  0
LINE
  5
322
330
1F
100
AcDbEntity
  8
営業図
  6
CONTINUOUS
 62
    54
100
AcDbLine
 10
464.828282827818
 20
18.36581981844974
 30
0.0
 11
463.414141413676
 21
19.77996123259183
 31
0.0
  0
LINE
  5
323
330
1F
100
AcDbEntity
  8
営業図
  6
CONTINUOUS
 62
    54
100
AcDbLine
 10
462.7070707066077
 20
20.4870319396601
 30
0.0
 11
461.2929292924657
 21
21.90117335380215
 31
0.0
  0
LINE
  5
324
330
1F
100
AcDbEntity
  8
営業図
  6
CONTINUOUS
 62
    54
100
AcDbLine
 10
460.5858585853974
 20
22.60824406087046
 30
0.0
 11
459.1717171712571
 21
24.0223854750107
 31
0.0
  0
LINE
  5
325
330
1F
100
AcDbEntity
  8
営業図
  6
CONTINUOUS
 62
    54
100
AcDbLine
 10
464.8282828278174
 20
18.76579941184853
 30
0.0
 11
463.4141414136771
 21
20.17994082598877
 31
0.0
  0
LINE
  5
326
330
1F
100
AcDbEntity
  8
営業図
  6
CONTINUOUS
 62
    54
100
AcDbLine
 10
462.7070707066089
 20
20.88701153305708
 30
0.0
 11
461.2929292924667
 21
22.30115294719914
 31
0.0
  0
LINE
  5
327
330
1F
100
AcDbEntity
  8
営業図
  6
CONTINUOUS
 62
    54
100
AcDbLine
 10
460.5858585853966
 20
23.00822365426925
 30
0.0
 11
459.1717171712564
 21
24.42236506840949
 31
0.0
  0
LINE
  5
328
330
1F
100
AcDbEntity
  8
営業図
  6
CONTINUOUS
 62
    54
100
AcDbLine
 10
464.8282828278166
 20
19.16577900524728
 30
0.0
 11
463.4141414136764
 21
20.57992041938753
 31
0.0
  0
LINE
  5
329
330
1F
100
AcDbEntity
  8
営業図
  6
CONTINUOUS
 62
    54
100
AcDbLine
 10
462.707070706608
 20
21.28699112645584
 30
0.0
 11
461.2929292924679
 21
22.70113254059608
 31
0.0
  0
LINE
  5
32A
330
1F
100
AcDbEntity
  8
営業図
  6
CONTINUOUS
 62
    54
100
AcDbLine
 10
460.5858585853977
 20
23.4082032476662
 30
0.0
 11
459.1717171712575
 21
24.82234466180644
 31
0.0
  0
LINE
  5
32B
330
1F
100
AcDbEntity
  8
営業図
  6
CONTINUOUS
 62
    54
100
AcDbLine
 10
464.8282828278177
 20
19.56575859864427
 30
0.0
 11
463.4141414136775
 21
20.97990001278451
 31
0.0
  0
LINE
  5
32C
330
1F
100
AcDbEntity
  8
営業図
  6
CONTINUOUS
 62
    54
100
AcDbLine
 10
462.7070707066092
 20
21.68697071985278
 30
0.0
 11
461.2929292924671
 21
23.10111213399483
 31
0.0
  0
LINE
  5
32D
330
1F
100
AcDbEntity
  8
営業図
  6
CONTINUOUS
 62
    54
100
AcDbLine
 10
460.585858585397
 20
23.80818284106495
 30
0.0
 11
459.1717171712568
 21
25.22232425520519
 31
0.0
  0
LINE
  5
32E
330
1F
100
AcDbEntity
  8
営業図
  6
CONTINUOUS
 62
    54
100
AcDbLine
 10
464.8282828278169
 20
19.96573819204298
 30
0.0
 11
463.4141414136768
 21
21.37987960618322
 31
0.0
  0
LINE
  5
32F
330
1F
100
AcDbEntity
  8
営業図
  6
CONTINUOUS
 62
    54
100
AcDbLine
 10
462.7070707066084
 20
22.08695031325154
 30
0.0
 11
461.2929292924682
 21
23.50109172739178
 31
0.0
  0
LINE
  5
330
330
1F
100
AcDbEntity
  8
営業図
  6
CONTINUOUS
 62
    54
100
AcDbLine
 10
460.5858585853981
 20
24.2081624344619
 30
0.0
 11
459.1717171712578
 21
25.62230384860214
 31
0.0
  0
LINE
  5
331
330
1F
100
AcDbEntity
  8
営業図
  6
CONTINUOUS
 62
    54
100
AcDbLine
 10
464.828282827818
 20
20.36571778543997
 30
0.0
 11
463.414141413676
 21
21.77985919958202
 31
0.0
  0
LINE
  5
332
330
1F
100
AcDbEntity
  8
営業図
  6
CONTINUOUS
 62
    54
100
AcDbLine
 10
462.7070707066077
 20
22.48692990665033
 30
0.0
 11
461.2929292924674
 21
23.90107132079057
 31
0.0
  0
LINE
  5
333
330
1F
100
AcDbEntity
  8
営業図
  6
CONTINUOUS
 62
    54
100
AcDbLine
 10
460.5858585853973
 20
24.60814202786069
 30
0.0
 11
459.1717171712571
 21
26.02228344200093
 31
0.0
  0
LINE
  5
334
330
1F
100
AcDbEntity
  8
営業図
  6
CONTINUOUS
 62
    54
100
AcDbLine
 10
464.8282828278172
 20
20.76569737883872
 30
0.0
 11
463.4141414136771
 21
22.17983879297896
 31
0.0
  0
LINE
  5
335
330
1F
100
AcDbEntity
  8
営業図
  6
CONTINUOUS
 62
    54
100
AcDbLine
 10
462.7070707066088
 20
22.88690950004727
 30
0.0
 11
461.2929292924667
 21
24.30105091418933
 31
0.0
  0
LINE
  5
336
330
1F
100
AcDbEntity
  8
営業図
  6
CONTINUOUS
 62
    54
100
AcDbLine
 10
460.5858585853966
 20
25.00812162125944
 30
0.0
 11
459.1717171712564
 21
26.42226303539969
 31
0.0
  0
LINE
  5
337
330
1F
100
AcDbEntity
  8
営業図
  6
CONTINUOUS
 62
    54
100
AcDbLine
 10
464.8282828278166
 20
21.16567697223752
 30
0.0
 11
463.4141414136763
 21
22.57981838637776
 31
0.0
  0
LINE
  5
338
330
1F
100
AcDbEntity
  8
営業図
  6
CONTINUOUS
 62
    54
100
AcDbLine
 10
462.707070706608
 20
23.28688909344603
 30
0.0
 11
461.2929292924678
 21
24.70103050758627
 31
0.0
  0
LINE
  5
339
330
1F
100
AcDbEntity
  8
営業図
  6
CONTINUOUS
 62
    54
100
AcDbLine
 10
460.5858585853959
 20
25.40810121465824
 30
0.0
 11
459.1717171712574
 21
26.82224262879663
 31
0.0
  0
LINE
  5
33A
330
1F
100
AcDbEntity
  8
営業図
  6
CONTINUOUS
 62
    54
100
AcDbLine
 10
464.8282828278176
 20
21.56565656563442
 30
0.0
 11
463.4141414136756
 21
22.97979797977651
 31
0.0
  0
LINE
  5
33B
330
1F
100
AcDbEntity
  8
営業図
  6
CONTINUOUS
 62
    54
100
AcDbLine
 10
462.7070707066072
 20
23.68686868684478
 30
0.0
 11
461.2929292924671
 21
25.10101010098503
 31
0.0
  0
LINE
  5
33C
330
1F
100
AcDbEntity
  8
営業図
  6
CONTINUOUS
 62
    54
100
AcDbLine
 10
460.5858585853969
 20
25.80808080805514
 30
0.0
 11
459.1717171712548
 21
27.2222222221972
 31
0.0
  0
LINE
  5
33D
330
1F
100
AcDbEntity
  8
営業図
  6
CONTINUOUS
 62
    54
100
AcDbLine
 10
464.8282828278169
 20
21.96563615903322
 30
0.0
 11
463.4141414136767
 21
23.37977757317346
 31
0.0
  0
LINE
  5
33E
330
1F
100
AcDbEntity
  8
営業図
  6
CONTINUOUS
 62
    54
100
AcDbLine
 10
462.7070707066084
 20
24.08684828024177
 30
0.0
 11
461.2929292924663
 21
25.50098969438382
 31
0.0
  0
LINE
  5
33F
330
1F
100
AcDbEntity
  8
営業図
  6
CONTINUOUS
 62
    54
100
AcDbLine
 10
460.5858585853962
 20
26.20806040145394
 30
0.0
 11
459.5716967646518
 21
27.22222222219832
 31
0.0
  0
LINE
  5
340
330
1F
100
AcDbEntity
  8
営業図
  6
CONTINUOUS
 62
    54
100
AcDbLine
 10
464.828282827818
 20
22.36561575243016
 30
0.0
 11
463.414141413676
 21
23.77975716657221
 31
0.0
  0
LINE
  5
341
330
1F
100
AcDbEntity
  8
営業図
  6
CONTINUOUS
 62
    54
100
AcDbLine
 10
462.7070707066095
 20
24.48682787363871
 30
0.0
 11
461.2929292924655
 21
25.90096928778257
 31
0.0
  0
LINE
  5
342
330
1F
100
AcDbEntity
  8
営業図
  6
CONTINUOUS
 62
    54
100
AcDbLine
 10
460.5858585853955
 20
26.60803999485269
 30
0.0
 11
459.9716763580506
 21
27.22222222219755
 31
0.0
  0
LINE
  5
343
330
1F
100
AcDbEntity
  8
営業図
  6
CONTINUOUS
 62
    54
100
AcDbLine
 10
464.8282828278172
 20
22.76559534582896
 30
0.0
 11
463.4141414136771
 21
24.1797367599692
 31
0.0
  0
LINE
  5
344
330
1F
100
AcDbEntity
  8
営業図
  6
CONTINUOUS
 62
    54
100
AcDbLine
 10
462.7070707066087
 20
24.88680746703747
 30
0.0
 11
461.2929292924667
 21
26.30094888117956
 31
0.0
  0
LINE
  5
345
330
1F
100
AcDbEntity
  8
営業図
  6
CONTINUOUS
 62
    54
100
AcDbLine
 10
460.5858585853983
 20
27.00801958824783
 30
0.0
 11
460.3716559514494
 21
27.22222222219683
 31
0.0
  0
LINE
  5
346
330
1F
100
AcDbEntity
  8
営業図
  6
CONTINUOUS
 62
    54
100
AcDbLine
 10
464.8282828278165
 20
23.16557493922771
 30
0.0
 11
463.4141414136781
 21
24.5797163533661
 31
0.0
  0
LINE
  5
347
330
1F
100
AcDbEntity
  8
営業図
  6
CONTINUOUS
 62
    54
100
AcDbLine
 10
462.7070707066098
 20
25.28678706043441
 30
0.0
 11
461.2929292924677
 21
26.70092847457646
 31
0.0
  0
LINE
  5
348
330
1F
100
AcDbEntity
  8
営業図
  6
CONTINUOUS
 62
    54
100
AcDbLine
 10
464.8282828278176
 20
23.56555453262465
 30
0.0
 11
463.4141414136774
 21
24.9796959467649
 31
0.0
  0
LINE
  5
349
330
1F
100
AcDbEntity
  8
営業図
  6
CONTINUOUS
 62
    54
100
AcDbLine
 10
462.707070706609
 20
25.68676665383321
 30
0.0
 11
461.292929292467
 21
27.10090806797525
 31
0.0
  0
LINE
  5
34A
330
1F
100
AcDbEntity
  8
営業図
  6
CONTINUOUS
 62
    54
100
AcDbLine
 10
464.8282828278168
 20
23.96553412602341
 30
0.0
 11
463.4141414136766
 21
25.37967554016365
 31
0.0
  0
LINE
  5
34B
330
1F
100
AcDbEntity
  8
営業図
  6
CONTINUOUS
 62
    54
100
AcDbLine
 10
462.7070707066083
 20
26.08674624723196
 30
0.0
 11
461.5715947316457
 21
27.22222222219462
 31
0.0
  0
LINE
  5
34C
330
1F
100
AcDbEntity
  8
営業図
  6
CONTINUOUS
 62
    54
100
AcDbLine
 10
464.8282828278161
 20
24.3655137194222
 30
0.0
 11
463.4141414136758
 21
25.77965513356244
 31
0.0
  0
LINE
  5
34D
330
1F
100
AcDbEntity
  8
営業図
  6
CONTINUOUS
 62
    54
100
AcDbLine
 10
462.7070707066076
 20
26.48672584063075
 30
0.0
 11
461.9715743250426
 21
27.22222222219571
 31
0.0
  0
LINE
  5
34E
330
1F
100
AcDbEntity
  8
営業図
  6
CONTINUOUS
 62
    54
100
AcDbLine
 10
464.828282827819
 20
24.7654933128173
 30
0.0
 11
463.4141414136769
 21
26.17963472695939
 31
0.0
  0
LINE
  5
34F
330
1F
100
AcDbEntity
  8
営業図
  6
CONTINUOUS
 62
    54
100
AcDbLine
 10
462.7070707066087
 20
26.88670543402766
 30
0.0
 11
462.3715539184414
 21
27.22222222219494
 31
0.0
  0
LINE
  5
350
330
1F
100
AcDbEntity
  8
営業図
  6
CONTINUOUS
 62
    54
100
AcDbLine
 10
464.8282828278183
 20
25.16547290621609
 30
0.0
 11
463.4141414136763
 21
26.57961432035814
 31
0.0
  0
LINE
  5
351
330
1F
100
AcDbEntity
  8
営業図
  6
CONTINUOUS
 62
    54
100
AcDbLine
 10
464.8282828278176
 20
25.56545249961485
 30
0.0
 11
463.4141414136755
 21
26.97959391375689
 31
0.0
  0
LINE
  5
352
330
1F
100
AcDbEntity
  8
営業図
  6
CONTINUOUS
 62
    54
100
AcDbLine
 10
464.8282828278186
 20
25.96543209301179
 30
0.0
 11
463.571492698634
 21
27.22222222219635
 31
0.0
  0
LINE
  5
353
330
1F
100
AcDbEntity
  8
営業図
  6
CONTINUOUS
 62
    54
100
AcDbLine
 10
464.8282828278179
 20
26.36541168641058
 30
0.0
 11
463.9714722920328
 21
27.22222222219563
 31
0.0
  0
LINE
  5
354
330
1F
100
AcDbEntity
  8
営業図
  6
CONTINUOUS
 62
    54
100
AcDbLine
 10
464.8282828278171
 20
26.7653912798093
 30
0.0
 11
464.3714518854316
 21
27.22222222219486
 31
0.0
  0
LINE
  5
355
330
1F
100
AcDbEntity
  8
営業図
  6
CONTINUOUS
 62
    54
100
AcDbLine
 10
464.8282828278165
 20
27.16537087320809
 30
0.0
 11
464.7714314788286
 21
27.22222222219599
 31
0.0
  0
LINE
  5
356
330
1F
100
AcDbEntity
  8
営業図
  6
CONTINUOUS
 62
    54
100
AcDbLine
 10
465.5508687636122
 20
26.01698445247693
 30
0.0
 11
466.7405913046069
 21
27.20670699347158
 31
0.0
  0
LINE
  5
357
330
1F
100
AcDbEntity
  8
営業図
  6
CONTINUOUS
 62
    54
100
AcDbLine
 10
465.5353535348888
 20
25.6014896303555
 30
0.0
 11
467.1560861267284
 21
27.22222222219494
 31
0.0
  0
LINE
  5
358
330
1F
100
AcDbEntity
  8
営業図
  6
CONTINUOUS
 62
    54
100
AcDbLine
 10
465.5353535348881
 20
25.20151003695674
 30
0.0
 11
467.5560657201289
 21
27.22222222219752
 31
0.0
  0
LINE
  5
359
330
1F
100
AcDbEntity
  8
営業図
  6
CONTINUOUS
 62
    54
100
AcDbLine
 10
465.5353535348892
 20
24.8015304435598
 30
0.0
 11
467.9294638194048
 21
27.19564072807534
 31
0.0
  0
LINE
  5
35A
330
1F
100
AcDbEntity
  8
営業図
  6
CONTINUOUS
 62
    54
100
AcDbLine
 10
465.5353535348903
 20
24.40155085016286
 30
0.0
 11
468.2331439076539
 21
27.09934122292643
 31
0.0
  0
LINE
  5
35B
330
1F
100
AcDbEntity
  8
営業図
  6
CONTINUOUS
 62
    54
100
AcDbLine
 10
465.5353535348877
 20
24.00157125676225
 30
0.0
 11
466.9494949490278
 21
25.4157126709023
 31
0.0
  0
LINE
  5
35C
330
1F
100
AcDbEntity
  8
営業図
  6
CONTINUOUS
 62
    54
100
AcDbLine
 10
465.5353535348888
 20
23.60159166336535
 30
0.0
 11
466.9494949490278
 21
25.01573307750429
 31
0.0
  0
LINE
  5
35D
330
1F
100
AcDbEntity
  8
営業図
  6
CONTINUOUS
 62
    54
100
AcDbLine
 10
465.5353535348881
 20
23.20161206996655
 30
0.0
 11
466.9494949490278
 21
24.61575348410627
 31
0.0
  0
LINE
  5
35E
330
1F
100
AcDbEntity
  8
営業図
  6
CONTINUOUS
 62
    54
100
AcDbLine
 10
465.5353535348892
 20
22.80163247656961
 30
0.0
 11
466.9494949490278
 21
24.21577389070823
 31
0.0
  0
LINE
  5
35F
330
1F
100
AcDbEntity
  8
営業図
  6
CONTINUOUS
 62
    54
100
AcDbLine
 10
465.5353535348884
 20
22.40165288317082
 30
0.0
 11
466.9494949490278
 21
23.81579429731017
 31
0.0
  0
LINE
  5
360
330
1F
100
AcDbEntity
  8
営業図
  6
CONTINUOUS
 62
    54
100
AcDbLine
 10
465.5353535348895
 20
22.00167328977391
 30
0.0
 11
466.9494949490278
 21
23.4158147039122
 31
0.0
  0
LINE
  5
361
330
1F
100
AcDbEntity
  8
営業図
  6
CONTINUOUS
 62
    54
100
AcDbLine
 10
465.5353535348888
 20
21.60169369637516
 30
0.0
 11
466.9494949490278
 21
23.01583511051413
 31
0.0
  0
LINE
  5
362
330
1F
100
AcDbEntity
  8
営業図
  6
CONTINUOUS
 62
    54
100
AcDbLine
 10
465.535353534888
 20
21.20171410297636
 30
0.0
 11
466.9494949490278
 21
22.61585551711614
 31
0.0
  0
LINE
  5
363
330
1F
100
AcDbEntity
  8
営業図
  6
CONTINUOUS
 62
    54
100
AcDbLine
 10
465.5353535348892
 20
20.80173450957942
 30
0.0
 11
466.9494949490278
 21
22.21587592371808
 31
0.0
  0
LINE
  5
364
330
1F
100
AcDbEntity
  8
営業図
  6
CONTINUOUS
 62
    54
100
AcDbLine
 10
465.5353535348884
 20
20.40175491618063
 30
0.0
 11
466.9494949490278
 21
21.81589633032006
 31
0.0
  0
LINE
  5
365
330
1F
100
AcDbEntity
  8
営業図
  6
CONTINUOUS
 62
    54
100
AcDbLine
 10
465.5353535348895
 20
20.00177532278372
 30
0.0
 11
466.9494949490278
 21
21.41591673692205
 31
0.0
  0
LINE
  5
366
330
1F
100
AcDbEntity
  8
営業図
  6
CONTINUOUS
 62
    54
100
AcDbLine
 10
465.5353535348887
 20
19.60179572938492
 30
0.0
 11
466.9494949490278
 21
21.01593714352404
 31
0.0
  0
LINE
  5
367
330
1F
100
AcDbEntity
  8
営業図
  6
CONTINUOUS
 62
    54
100
AcDbLine
 10
465.535353534888
 20
19.20181613598617
 30
0.0
 11
466.9494949490278
 21
20.61595755012596
 31
0.0
  0
LINE
  5
368
330
1F
100
AcDbEntity
  8
営業図
  6
CONTINUOUS
 62
    54
100
AcDbLine
 10
465.535353534889
 20
18.80183654258919
 30
0.0
 11
466.9494949490278
 21
20.21597795672795
 31
0.0
  0
LINE
  5
369
330
1F
100
AcDbEntity
  8
営業図
  6
CONTINUOUS
 62
    54
100
AcDbLine
 10
465.5353535348884
 20
18.40185694919047
 30
0.0
 11
466.9494949490278
 21
19.81599836332993
 31
0.0
  0
LINE
  5
36A
330
1F
100
AcDbEntity
  8
営業図
  6
CONTINUOUS
 62
    54
100
AcDbLine
 10
465.5353535348894
 20
18.00187735579349
 30
0.0
 11
466.9494949490278
 21
19.41601876993188
 31
0.0
  0
LINE
  5
36B
330
1F
100
AcDbEntity
  8
営業図
  6
CONTINUOUS
 62
    54
100
AcDbLine
 10
465.5353535348869
 20
17.60189776239292
 30
0.0
 11
466.9494949490278
 21
19.01603917653383
 31
0.0
  0
LINE
  5
36C
330
1F
100
AcDbEntity
  8
営業図
  6
CONTINUOUS
 62
    54
100
AcDbLine
 10
465.5353535348879
 20
17.20191816899594
 30
0.0
 11
467.0708091032486
 21
18.73737373735661
 31
0.0
  0
LINE
  5
36D
330
1F
100
AcDbEntity
  8
営業図
  6
CONTINUOUS
 62
    54
100
AcDbLine
 10
465.535353534889
 20
16.80193857559903
 30
0.0
 11
467.4707886966466
 21
18.73737373735661
 31
0.0
  0
LINE
  5
36E
330
1F
100
AcDbEntity
  8
営業図
  6
CONTINUOUS
 62
    54
100
AcDbLine
 10
465.5353535348901
 20
16.40195898220205
 30
0.0
 11
469.0707070702371
 21
19.937312517549
 31
0.0
  0
LINE
  5
36F
330
1F
100
AcDbEntity
  8
営業図
  6
CONTINUOUS
 62
    54
100
AcDbLine
 10
465.5353535348893
 20
16.0019793888033
 30
0.0
 11
469.0707070702381
 21
19.53733292415209
 31
0.0
  0
LINE
  5
370
330
1F
100
AcDbEntity
  8
営業図
  6
CONTINUOUS
 62
    54
100
AcDbLine
 10
465.5353535348905
 20
15.60199979540635
 30
0.0
 11
466.9494949490289
 21
17.01614120954474
 31
0.0
  0
LINE
  5
371
330
1F
100
AcDbEntity
  8
営業図
  6
CONTINUOUS
 62
    54
100
AcDbLine
 10
467.2565860626995
 20
17.32323232321539
 30
0.0
 11
469.0707070702374
 21
19.1373533307533
 31
0.0
  0
LINE
  5
372
330
1F
100
AcDbEntity
  8
営業図
  6
CONTINUOUS
 62
    54
100
AcDbLine
 10
465.5353535348879
 20
15.20202020200575
 30
0.0
 11
466.94949494903
 21
16.61616161614784
 31
0.0
  0
LINE
  5
373
330
1F
100
AcDbEntity
  8
営業図
  6
CONTINUOUS
 62
    54
100
AcDbLine
 10
467.6565656560965
 20
17.3232323232143
 30
0.0
 11
469.0707070702366
 21
18.73737373735454
 31
0.0
  0
LINE
  5
374
330
1F
100
AcDbEntity
  8
営業図
  6
CONTINUOUS
 62
    54
100
AcDbLine
 10
465.9353331282848
 20
15.20202020200466
 30
0.0
 11
466.9494949490274
 21
16.21618202274724
 31
0.0
  0
LINE
  5
375
330
1F
100
AcDbEntity
  8
営業図
  6
CONTINUOUS
 62
    54
100
AcDbLine
 10
467.6565656560975
 20
16.92325272981736
 30
0.0
 11
469.070707070236
 21
18.33739414395575
 31
0.0
  0
LINE
  5
376
330
1F
100
AcDbEntity
  8
営業図
  6
CONTINUOUS
 62
    54
100
AcDbLine
 10
466.3353127216854
 20
15.20202020200724
 30
0.0
 11
466.9494949490285
 21
15.81620242935029
 31
0.0
  0
LINE
  5
377
330
1F
100
AcDbEntity
  8
営業図
  6
CONTINUOUS
 62
    54
100
AcDbLine
 10
467.6565656560967
 20
16.5232731364186
 30
0.0
 11
469.070707070237
 21
17.93741455055884
 31
0.0
  0
LINE
  5
378
330
1F
100
AcDbEntity
  8
営業図
  6
CONTINUOUS
 62
    54
100
AcDbLine
 10
466.7352923150823
 20
15.20202020200615
 30
0.0
 11
466.9494949490295
 21
15.4162228359533
 31
0.0
  0
LINE
  5
379
330
1F
100
AcDbEntity
  8
営業図
  6
CONTINUOUS
 62
    54
100
AcDbLine
 10
467.6565656560961
 20
16.12329354301981
 30
0.0
 11
469.070707070238
 21
17.53743495716186
 31
0.0
  0
LINE
  5
37A
330
1F
100
AcDbEntity
  8
営業図
  6
CONTINUOUS
 62
    54
100
AcDbLine
 10
467.6565656560971
 20
15.72331394962286
 30
0.0
 11
469.0707070702373
 21
17.13745536376311
 31
0.0
  0
LINE
  5
37B
330
1F
100
AcDbEntity
  8
営業図
  6
CONTINUOUS
 62
    54
100
AcDbLine
 10
467.6565656560963
 20
15.32333435622407
 30
0.0
 11
469.0707070702366
 21
16.73747577036431
 31
0.0
  0
LINE
  5
37C
330
1F
100
AcDbEntity
  8
営業図
  6
CONTINUOUS
 62
    54
100
AcDbLine
 10
467.9352310952733
 20
15.20202020200293
 30
0.0
 11
469.0707070702358
 21
16.33749617696556
 31
0.0
  0
LINE
  5
37D
330
1F
100
AcDbEntity
  8
営業図
  6
CONTINUOUS
 62
    54
100
AcDbLine
 10
468.335210688672
 20
15.20202020200366
 30
0.0
 11
469.0707070702369
 21
15.93751658356865
 31
0.0
  0
LINE
  5
37E
330
1F
100
AcDbEntity
  8
営業図
  6
CONTINUOUS
 62
    54
100
AcDbLine
 10
468.7351902820707
 20
15.20202020200438
 30
0.0
 11
469.0707070702362
 21
15.53753699016986
 31
0.0
  0
LINE
  5
37F
330
1F
100
AcDbEntity
  8
営業図
  6
CONTINUOUS
 62
    54
100
AcDbLine
 10
465.9353331282837
 20
15.20202020200708
 30
0.0
 11
465.5353535348879
 21
15.60199979540293
 31
0.0
  0
LINE
  5
380
330
1F
100
AcDbEntity
  8
営業図
  6
CONTINUOUS
 62
    54
100
AcDbLine
 10
466.3353127216825
 20
15.20202020200635
 30
0.0
 11
465.5353535348889
 21
16.00197938879992
 31
0.0
  0
LINE
  5
381
330
1F
100
AcDbEntity
  8
営業図
  6
CONTINUOUS
 62
    54
100
AcDbLine
 10
466.7352923150794
 20
15.20202020200744
 30
0.0
 11
465.5353535348882
 21
16.40195898219867
 31
0.0
  0
LINE
  5
382
330
1F
100
AcDbEntity
  8
営業図
  6
CONTINUOUS
 62
    54
100
AcDbLine
 10
466.9494949490277
 20
15.38779716145723
 30
0.0
 11
465.5353535348893
 21
16.80193857559566
 31
0.0
  0
LINE
  5
383
330
1F
100
AcDbEntity
  8
営業図
  6
CONTINUOUS
 62
    54
100
AcDbLine
 10
466.9494949490287
 20
15.78777675485413
 30
0.0
 11
465.5353535348885
 21
17.20191816899437
 31
0.0
  0
LINE
  5
384
330
1F
100
AcDbEntity
  8
営業図
  6
CONTINUOUS
 62
    54
100
AcDbLine
 10
467.9352310952758
 20
15.20202020200523
 30
0.0
 11
467.6565656560982
 21
15.4806856411828
 31
0.0
  0
LINE
  5
385
330
1F
100
AcDbEntity
  8
営業図
  6
CONTINUOUS
 62
    54
100
AcDbLine
 10
466.9494949490281
 20
16.18775634825293
 30
0.0
 11
465.5353535348878
 21
17.60189776239316
 31
0.0
  0
LINE
  5
386
330
1F
100
AcDbEntity
  8
営業図
  6
CONTINUOUS
 62
    54
100
AcDbLine
 10
468.3352106886727
 20
15.20202020200631
 30
0.0
 11
467.6565656560956
 21
15.88066523458337
 31
0.0
  0
LINE
  5
387
330
1F
100
AcDbEntity
  8
営業図
  6
CONTINUOUS
 62
    54
100
AcDbLine
 10
466.9494949490273
 20
16.58773594165168
 30
0.0
 11
465.5353535348888
 21
18.00187735579011
 31
0.0
  0
LINE
  5
388
330
1F
100
AcDbEntity
  8
営業図
  6
CONTINUOUS
 62
    54
100
AcDbLine
 10
468.7351902820715
 20
15.20202020200559
 30
0.0
 11
467.6565656560967
 21
16.28064482798035
 31
0.0
  0
LINE
  5
389
330
1F
100
AcDbEntity
  8
営業図
  6
CONTINUOUS
 62
    54
100
AcDbLine
 10
466.9494949490266
 20
16.98771553505047
 30
0.0
 11
465.5353535348882
 21
18.4018569491889
 31
0.0
  0
LINE
  5
38A
330
1F
100
AcDbEntity
  8
営業図
  6
CONTINUOUS
 62
    54
100
AcDbLine
 10
469.0707070702361
 20
15.26648300723886
 30
0.0
 11
467.6565656560977
 21
16.6806244213773
 31
0.0
  0
LINE
  5
38B
330
1F
100
AcDbEntity
  8
営業図
  6
CONTINUOUS
 62
    54
100
AcDbLine
 10
467.0139577542617
 20
17.32323232321338
 30
0.0
 11
465.5353535348874
 21
18.80183654258766
 31
0.0
  0
LINE
  5
38C
330
1F
100
AcDbEntity
  8
営業図
  6
CONTINUOUS
 62
    54
100
AcDbLine
 10
469.0707070702372
 20
15.66646260063585
 30
0.0
 11
467.6565656560971
 21
17.08060401477609
 31
0.0
  0
LINE
  5
38D
330
1F
100
AcDbEntity
  8
営業図
  6
CONTINUOUS
 62
    54
100
AcDbLine
 10
467.4139373476586
 20
17.32323232321446
 30
0.0
 11
465.5353535348903
 21
19.2018161359828
 31
0.0
  0
LINE
  5
38E
330
1F
100
AcDbEntity
  8
営業図
  6
CONTINUOUS
 62
    54
100
AcDbLine
 10
469.0707070702365
 20
16.06644219403456
 30
0.0
 11
465.5353535348895
 21
19.60179572938155
 31
0.0
  0
LINE
  5
38F
330
1F
100
AcDbEntity
  8
営業図
  6
CONTINUOUS
 62
    54
100
AcDbLine
 10
469.0707070702376
 20
16.46642178743155
 30
0.0
 11
465.5353535348888
 21
20.00177532278034
 31
0.0
  0
LINE
  5
390
330
1F
100
AcDbEntity
  8
営業図
  6
CONTINUOUS
 62
    54
100
AcDbLine
 10
469.0707070702368
 20
16.8664013808303
 30
0.0
 11
467.1997347137105
 21
18.73737373735661
 31
0.0
  0
LINE
  5
391
330
1F
100
AcDbEntity
  8
営業図
  6
CONTINUOUS
 62
    54
100
AcDbLine
 10
469.0707070702361
 20
17.2663809742291
 30
0.0
 11
467.5997143071086
 21
18.73737373735661
 31
0.0
  0
LINE
  5
392
330
1F
100
AcDbEntity
  8
営業図
  6
CONTINUOUS
 62
    54
100
AcDbLine
 10
469.0707070702372
 20
17.666360567626
 30
0.0
 11
467.6565656560978
 21
19.08050198176538
 31
0.0
  0
LINE
  5
393
330
1F
100
AcDbEntity
  8
営業図
  6
CONTINUOUS
 62
    54
100
AcDbLine
 10
469.0707070702382
 20
18.06634016102295
 30
0.0
 11
467.6565656560978
 21
19.48048157516337
 31
0.0
  0
LINE
  5
394
330
1F
100
AcDbEntity
  8
営業図
  6
CONTINUOUS
 62
    54
100
AcDbLine
 10
469.0707070702376
 20
18.46631975442178
 30
0.0
 11
467.6565656560978
 21
19.88046116856155
 31
0.0
  0
LINE
  5
395
330
1F
100
AcDbEntity
  8
営業図
  6
CONTINUOUS
 62
    54
100
AcDbLine
 10
469.0707070702368
 20
18.86629934782053
 30
0.0
 11
467.6565656560978
 21
20.28044076195956
 31
0.0
  0
LINE
  5
396
330
1F
100
AcDbEntity
  8
営業図
  6
CONTINUOUS
 62
    54
100
AcDbLine
 10
469.0707070702361
 20
19.26627894121933
 30
0.0
 11
467.6565656560978
 21
20.68042035535764
 31
0.0
  0
LINE
  5
397
330
1F
100
AcDbEntity
  8
営業図
  6
CONTINUOUS
 62
    54
100
AcDbLine
 10
469.0707070702372
 20
19.66625853461623
 30
0.0
 11
467.6565656560978
 21
21.08039994875561
 31
0.0
  0
LINE
  5
398
330
1F
100
AcDbEntity
  8
営業図
  6
CONTINUOUS
 62
    54
100
AcDbLine
 10
469.0707070702364
 20
20.06623812801503
 30
0.0
 11
467.6565656560978
 21
21.48037954215367
 31
0.0
  0
LINE
  5
399
330
1F
100
AcDbEntity
  8
営業図
  6
CONTINUOUS
 62
    54
100
AcDbLine
 10
469.0707070702356
 20
20.46621772141378
 30
0.0
 11
467.6565656560978
 21
21.88035913555164
 31
0.0
  0
LINE
  5
39A
330
1F
100
AcDbEntity
  8
営業図
  6
CONTINUOUS
 62
    54
100
AcDbLine
 10
469.0707070702386
 20
20.86619731480892
 30
0.0
 11
467.6565656560978
 21
22.28033872894973
 31
0.0
  0
LINE
  5
39B
330
1F
100
AcDbEntity
  8
営業図
  6
CONTINUOUS
 62
    54
100
AcDbLine
 10
469.0707070702379
 20
21.26617690820767
 30
0.0
 11
467.6565656560978
 21
22.68031832234774
 31
0.0
  0
LINE
  5
39C
330
1F
100
AcDbEntity
  8
営業図
  6
CONTINUOUS
 62
    54
100
AcDbLine
 10
469.0707070702371
 20
21.66615650160642
 30
0.0
 11
467.6565656560978
 21
23.08029791574575
 31
0.0
  0
LINE
  5
39D
330
1F
100
AcDbEntity
  8
営業図
  6
CONTINUOUS
 62
    54
100
AcDbLine
 10
469.0707070702382
 20
22.06613609500341
 30
0.0
 11
467.6565656560978
 21
23.48027750914379
 31
0.0
  0
LINE
  5
39E
330
1F
100
AcDbEntity
  8
営業図
  6
CONTINUOUS
 62
    54
100
AcDbLine
 10
469.0707070702374
 20
22.46611568840212
 30
0.0
 11
467.6565656560978
 21
23.88025710254178
 31
0.0
  0
LINE
  5
39F
330
1F
100
AcDbEntity
  8
営業図
  6
CONTINUOUS
 62
    54
100
AcDbLine
 10
469.0707070702368
 20
22.86609528180092
 30
0.0
 11
467.6565656560978
 21
24.28023669593986
 31
0.0
  0
LINE
  5
3A0
330
1F
100
AcDbEntity
  8
営業図
  6
CONTINUOUS
 62
    54
100
AcDbLine
 10
469.0707070702377
 20
23.26607487519786
 30
0.0
 11
467.6565656560978
 21
24.6802162893378
 31
0.0
  0
LINE
  5
3A1
330
1F
100
AcDbEntity
  8
営業図
  6
CONTINUOUS
 62
    54
100
AcDbLine
 10
469.0707070702371
 20
23.66605446859666
 30
0.0
 11
467.6565656560978
 21
25.08019588273591
 31
0.0
  0
LINE
  5
3A2
330
1F
100
AcDbEntity
  8
営業図
  6
CONTINUOUS
 62
    54
100
AcDbLine
 10
469.0707070702381
 20
24.06603406199356
 30
0.0
 11
467.6555609194633
 21
25.48118021276841
 31
0.0
  0
LINE
  5
3A3
330
1F
100
AcDbEntity
  8
営業図
  6
CONTINUOUS
 62
    54
100
AcDbLine
 10
469.0707070702374
 20
24.46601365539236
 30
0.0
 11
466.4181270176992
 21
27.11859370793059
 31
0.0
  0
LINE
  5
3A4
330
1F
100
AcDbEntity
  8
営業図
  6
CONTINUOUS
 62
    54
100
AcDbLine
 10
469.0707070702366
 20
24.86599324879111
 30
0.0
 11
466.7313974709153
 21
27.2053028481124
 31
0.0
  0
LINE
  5
3A5
330
1F
100
AcDbEntity
  8
営業図
  6
CONTINUOUS
 62
    54
100
AcDbLine
 10
469.0707070702377
 20
25.26597284218809
 30
0.0
 11
467.1144576902292
 21
27.22222222219659
 31
0.0
  0
LINE
  5
3A6
330
1F
100
AcDbEntity
  8
営業図
  6
CONTINUOUS
 62
    54
100
AcDbLine
 10
469.070707070237
 20
25.66595243558685
 30
0.0
 11
467.514437283628
 21
27.22222222219583
 31
0.0
  0
LINE
  5
3A7
330
1F
100
AcDbEntity
  8
営業図
  6
CONTINUOUS
 62
    54
100
AcDbLine
 10
469.0412040488165
 20
26.09543505040532
 30
0.0
 11
467.9439198984483
 21
27.19271920077362
 31
0.0
  0
LINE
  5
3A8
330
1F
100
AcDbEntity
  8
営業図
  6
CONTINUOUS
 62
    54
100
AcDbLine
 10
467.3352617051786
 20
25.80147942705309
 30
0.0
 11
468.4867054053831
 21
26.95292312725753
 31
0.0
  0
LINE
  5
3A9
330
1F
100
AcDbEntity
  8
営業図
  6
CONTINUOUS
 62
    54
100
AcDbLine
 10
467.3352617051786
 20
25.80147942705309
 30
0.0
 11
466.1572648366418
 21
26.97947629558992
 31
0.0
  0
LINE
  5
3AA
330
1F
100
AcDbEntity
  8
営業図
  6
CONTINUOUS
 62
    54
100
AcDbLine
 10
467.5919929511962
 20
25.65823107967273
 30
0.0
 11
468.6982436700138
 21
26.7644817984903
 31
0.0
  0
LINE
  5
3AB
330
1F
100
AcDbEntity
  8
営業図
  6
CONTINUOUS
 62
    54
100
AcDbLine
 10
467.6565656560978
 20
25.32282419117626
 30
0.0
 11
468.8692607011776
 21
26.53551923625605
 31
0.0
  0
LINE
  5
3AC
330
1F
100
AcDbEntity
  8
営業図
  6
CONTINUOUS
 62
    54
100
AcDbLine
 10
467.6565656560978
 20
24.92284459777824
 30
0.0
 11
468.9958370847662
 21
26.26211602644658
 31
0.0
  0
LINE
  5
3AD
330
1F
100
AcDbEntity
  8
営業図
  6
CONTINUOUS
 62
    54
100
AcDbLine
 10
467.0428526683972
 20
25.69390887043646
 30
0.0
 11
465.9391930145975
 21
26.79756852423621
 31
0.0
  0
LINE
  5
3AE
330
1F
100
AcDbEntity
  8
営業図
  6
CONTINUOUS
 62
    54
100
AcDbLine
 10
466.9494949490278
 20
25.38728699640781
 30
0.0
 11
465.7615341774572
 21
26.57524776797843
 31
0.0
  0
LINE
  5
3AF
330
1F
100
AcDbEntity
  8
営業図
  6
CONTINUOUS
 62
    54
100
AcDbLine
 10
466.9494949490278
 20
24.98730740300985
 30
0.0
 11
465.6272525978484
 21
26.30954975418922
 31
0.0
  0
LINE
  5
3B0
330
1F
100
AcDbEntity
  8
営業図
  6
CONTINUOUS
 62
    54
100
AcDbLine
 10
466.9494949490278
 20
24.58732780961177
 30
0.0
 11
465.5470714191374
 21
25.98975133950221
 31
0.0
  0
LINE
  5
3B1
330
1F
100
AcDbEntity
  8
営業図
  6
CONTINUOUS
 62
    54
100
AcDbLine
 10
466.9494949490278
 20
24.18734821621379
 30
0.0
 11
465.5353535348894
 21
25.60148963035216
 31
0.0
  0
LINE
  5
3B2
330
1F
100
AcDbEntity
  8
営業図
  6
CONTINUOUS
 62
    54
100
AcDbLine
 10
466.9494949490278
 20
23.78736862281575
 30
0.0
 11
465.5353535348884
 21
25.20151003695522
 31
0.0
  0
LINE
  5
3B3
330
1F
100
AcDbEntity
  8
営業図
  6
CONTINUOUS
 62
    54
100
AcDbLine
 10
466.9494949490278
 20
23.38738902941775
 30
0.0
 11
465.5353535348891
 21
24.80153044355647
 31
0.0
  0
LINE
  5
3B4
330
1F
100
AcDbEntity
  8
営業図
  6
CONTINUOUS
 62
    54
100
AcDbLine
 10
466.9494949490278
 20
22.98740943601972
 30
0.0
 11
465.5353535348898
 21
24.40155085015771
 31
0.0
  0
LINE
  5
3B5
330
1F
100
AcDbEntity
  8
営業図
  6
CONTINUOUS
 62
    54
100
AcDbLine
 10
466.9494949490278
 20
22.58742984262161
 30
0.0
 11
465.5353535348887
 21
24.00157125676073
 31
0.0
  0
LINE
  5
3B6
330
1F
100
AcDbEntity
  8
営業図
  6
CONTINUOUS
 62
    54
100
AcDbLine
 10
466.9494949490278
 20
22.18745024922371
 30
0.0
 11
465.5353535348877
 21
23.60159166336382
 31
0.0
  0
LINE
  5
3B7
330
1F
100
AcDbEntity
  8
営業図
  6
CONTINUOUS
 62
    54
100
AcDbLine
 10
466.9494949490278
 20
21.78747065582559
 30
0.0
 11
465.5353535348884
 21
23.20161206996503
 31
0.0
  0
LINE
  5
3B8
330
1F
100
AcDbEntity
  8
営業図
  6
CONTINUOUS
 62
    54
100
AcDbLine
 10
466.9494949490278
 20
21.38749106242764
 30
0.0
 11
465.5353535348892
 21
22.80163247656627
 31
0.0
  0
LINE
  5
3B9
330
1F
100
AcDbEntity
  8
営業図
  6
CONTINUOUS
 62
    54
100
AcDbLine
 10
466.9494949490278
 20
20.98751146902952
 30
0.0
 11
465.5353535348898
 21
22.40165288316748
 31
0.0
  0
LINE
  5
3BA
330
1F
100
AcDbEntity
  8
営業図
  6
CONTINUOUS
 62
    54
100
AcDbLine
 10
466.9494949490278
 20
20.58753187563156
 30
0.0
 11
465.5353535348888
 21
22.00167328977053
 31
0.0
  0
LINE
  5
3BB
330
1F
100
AcDbEntity
  8
営業図
  6
CONTINUOUS
 62
    54
100
AcDbLine
 10
466.9494949490278
 20
20.1875522822334
 30
0.0
 11
465.5353535348895
 21
21.60169369637174
 31
0.0
  0
LINE
  5
3BC
330
1F
100
AcDbEntity
  8
営業図
  6
CONTINUOUS
 62
    54
100
AcDbLine
 10
466.9494949490278
 20
19.78757268883539
 30
0.0
 11
465.5353535348884
 21
21.20171410297479
 31
0.0
  0
LINE
  5
3BD
330
1F
100
AcDbEntity
  8
営業図
  6
CONTINUOUS
 62
    54
100
AcDbLine
 10
466.9494949490278
 20
19.38759309543741
 30
0.0
 11
465.5353535348892
 21
20.80173450957604
 31
0.0
  0
LINE
  5
3BE
330
1F
100
AcDbEntity
  8
営業図
  6
CONTINUOUS
 62
    54
100
AcDbLine
 10
466.9494949490278
 20
18.98761350203934
 30
0.0
 11
465.5353535348899
 21
20.40175491617725
 31
0.0
  0
LINE
  5
3BF
330
1F
100
AcDbEntity
  8
営業図
  6
CONTINUOUS
 62
    54
100
AcDbLine
 10
467.6565656560978
 20
18.92315069680785
 30
0.0
 11
469.0707070702377
 21
20.33729211094779
 31
0.0
  0
LINE
  5
3C0
330
1F
100
AcDbEntity
  8
営業図
  6
CONTINUOUS
 62
    54
100
AcDbLine
 10
467.6565656560978
 20
19.32313029020582
 30
0.0
 11
469.0707070702368
 21
20.73727170434474
 31
0.0
  0
LINE
  5
3C1
330
1F
100
AcDbEntity
  8
営業図
  6
CONTINUOUS
 62
    54
100
AcDbLine
 10
467.6565656560978
 20
19.72310988360383
 30
0.0
 11
469.0707070702356
 21
21.13725129774168
 31
0.0
  0
LINE
  5
3C2
330
1F
100
AcDbEntity
  8
営業図
  6
CONTINUOUS
 62
    54
100
AcDbLine
 10
467.6565656560978
 20
20.12308947700189
 30
0.0
 11
469.0707070702382
 21
21.53723089114228
 31
0.0
  0
LINE
  5
3C3
330
1F
100
AcDbEntity
  8
営業図
  6
CONTINUOUS
 62
    54
100
AcDbLine
 10
467.6565656560978
 20
20.52306907039994
 30
0.0
 11
469.0707070702371
 21
21.93721048453923
 31
0.0
  0
LINE
  5
3C4
330
1F
100
AcDbEntity
  8
営業図
  6
CONTINUOUS
 62
    54
100
AcDbLine
 10
467.6565656560978
 20
20.92304866379794
 30
0.0
 11
469.0707070702379
 21
22.33719007793798
 31
0.0
  0
LINE
  5
3C5
330
1F
100
AcDbEntity
  8
営業図
  6
CONTINUOUS
 62
    54
100
AcDbLine
 10
467.6565656560978
 20
21.32302825719597
 30
0.0
 11
469.0707070702368
 21
22.73716967133496
 31
0.0
  0
LINE
  5
3C6
330
1F
100
AcDbEntity
  8
営業図
  6
CONTINUOUS
 62
    54
100
AcDbLine
 10
467.6565656560978
 20
21.72300785059404
 30
0.0
 11
469.0707070702356
 21
23.13714926473187
 31
0.0
  0
LINE
  5
3C7
330
1F
100
AcDbEntity
  8
営業図
  6
CONTINUOUS
 62
    54
100
AcDbLine
 10
467.6565656560978
 20
22.12298744399204
 30
0.0
 11
469.0707070702382
 21
23.53712885813247
 31
0.0
  0
LINE
  5
3C8
330
1F
100
AcDbEntity
  8
営業図
  6
CONTINUOUS
 62
    54
100
AcDbLine
 10
467.6565656560978
 20
22.52296703739007
 30
0.0
 11
469.0707070702372
 21
23.93710845152942
 31
0.0
  0
LINE
  5
3C9
330
1F
100
AcDbEntity
  8
営業図
  6
CONTINUOUS
 62
    54
100
AcDbLine
 10
467.6565656560978
 20
22.92294663078809
 30
0.0
 11
469.0707070702379
 21
24.33708804492821
 31
0.0
  0
LINE
  5
3CA
330
1F
100
AcDbEntity
  8
営業図
  6
CONTINUOUS
 62
    54
100
AcDbLine
 10
467.6565656560978
 20
23.32292622418614
 30
0.0
 11
469.0707070702368
 21
24.73706763832512
 31
0.0
  0
LINE
  5
3CB
330
1F
100
AcDbEntity
  8
営業図
  6
CONTINUOUS
 62
    54
100
AcDbLine
 10
467.6565656560978
 20
23.72290581758414
 30
0.0
 11
469.0707070702394
 21
25.13704723172576
 31
0.0
  0
LINE
  5
3CC
330
1F
100
AcDbEntity
  8
営業図
  6
CONTINUOUS
 62
    54
100
AcDbLine
 10
467.6565656560978
 20
24.12288541098219
 30
0.0
 11
469.0707070702383
 21
25.53702682512266
 31
0.0
  0
LINE
  5
3CD
330
1F
100
AcDbEntity
  8
営業図
  6
CONTINUOUS
 62
    54
100
AcDbLine
 10
467.6565656560978
 20
24.52286500438017
 30
0.0
 11
469.0653021725207
 21
25.93160152080302
 31
0.0
  0
LINE
  5
3CE
330
1F
100
AcDbEntity
  8
営業図
  6
CONTINUOUS
 62
   134
100
AcDbLine
 10
16.96969696968
 20
28.2828282828
 30
0.0
 11
823.0303030294799
 21
28.2828282828
 31
0.0
  0
LINE
  5
3CF
330
1F
100
AcDbEntity
  8
営業図
  6
CONTINUOUS
 62
    94
100
AcDbLine
 10
16.96969696968
 20
14.1414141414
 30
0.0
 11
823.0303030294799
 21
14.1414141414
 31
0.0
  0
LINE
  5
3D0
330
1F
100
AcDbEntity
  8
営業図
  6
CONTINUOUS
 62
   134
100
AcDbLine
 10
16.96969696968
 20
579.7979797974
 30
0.0
 11
16.96969696968
 21
14.1414141414
 31
0.0
  0
LINE
  5
3D1
330
1F
100
AcDbEntity
  8
営業図
  6
CONTINUOUS
 62
   134
100
AcDbLine
 10
823.0303030294799
 20
14.1414141414
 30
0.0
 11
823.0303030294799
 21
579.7979797974
 31
0.0
  0
LINE
  5
3D2
330
1F
100
AcDbEntity
  8
営業図
  6
CONTINUOUS
 62
   134
100
AcDbLine
 10
823.0303030294799
 20
579.7979797974
 30
0.0
 11
16.96969696968
 21
579.7979797974
 31
0.0
  0
LINE
  5
3D3
330
1F
100
AcDbEntity
  8
営業図
  6
CONTINUOUS
 62
    54
100
AcDbLine
 10
793.33333333254
 20
28.2828282828
 30
0.0
 11
793.33333333254
 21
14.1414141414
 31
0.0
  0
LINE
  5
3D4
330
1F
100
AcDbEntity
  8
営業図
  6
CONTINUOUS
 62
    54
100
AcDbLine
 10
786.2626262618398
 20
28.2828282828
 30
0.0
 11
786.2626262618398
 21
14.1414141414
 31
0.0
  0
LINE
  5
3D5
330
1F
100
AcDbEntity
  8
営業図
  6
CONTINUOUS
 62
    54
100
AcDbLine
 10
757.9797979790399
 20
28.2828282828
 30
0.0
 11
757.9797979790399
 21
14.1414141414
 31
0.0
  0
LINE
  5
3D6
330
1F
100
AcDbEntity
  8
営業図
  6
CONTINUOUS
 62
    54
100
AcDbLine
 10
750.90909090834
 20
28.2828282828
 30
0.0
 11
750.90909090834
 21
14.1414141414
 31
0.0
  0
LINE
  5
3D7
330
1F
100
AcDbEntity
  8
営業図
  6
CONTINUOUS
 62
    54
100
AcDbLine
 10
637.7777777771398
 20
28.2828282828
 30
0.0
 11
637.7777777771398
 21
14.1414141414
 31
0.0
  0
LINE
  5
3D8
330
1F
100
AcDbEntity
  8
営業図
  6
CONTINUOUS
 62
    54
100
AcDbLine
 10
630.7070707064399
 20
28.2828282828
 30
0.0
 11
630.7070707064399
 21
14.1414141414
 31
0.0
  0
LINE
  5
3D9
330
1F
100
AcDbEntity
  8
営業図
  6
CONTINUOUS
 62
   134
100
AcDbLine
 10
567.0707070701399
 20
28.2828282828
 30
0.0
 11
567.0707070701399
 21
14.1414141414
 31
0.0
  0
LINE
  5
3DA
330
1F
100
AcDbEntity
  8
営業図
  6
CONTINUOUS
 62
   134
100
AcDbLine
 10
439.79797979754
 20
28.2828282828
 30
0.0
 11
439.79797979754
 21
14.1414141414
 31
0.0
  0
LINE
  5
3DB
330
1F
100
AcDbEntity
  8
営業図
  6
CONTINUOUS
 62
    54
100
AcDbLine
 10
448.565656565208
 20
27.222222222195
 30
0.0
 11
450.6868686864175
 21
27.222222222195
 31
0.0
  0
LINE
  5
3DC
330
1F
100
AcDbEntity
  8
営業図
  6
CONTINUOUS
 62
    54
100
AcDbLine
 10
448.565656565208
 20
15.202020202005
 30
0.0
 11
450.6868686864175
 21
15.202020202005
 31
0.0
  0
LINE
  5
3DD
330
1F
100
AcDbEntity
  8
営業図
  6
CONTINUOUS
 62
    54
100
AcDbLine
 10
448.565656565208
 20
15.202020202005
 30
0.0
 11
448.565656565208
 21
27.222222222195
 31
0.0
  0
LINE
  5
3DE
330
1F
100
AcDbEntity
  8
営業図
  6
CONTINUOUS
 62
    54
100
AcDbLine
 10
449.9797979793481
 20
25.80808080805499
 30
0.0
 11
449.9797979793481
 21
16.61616161614502
 31
0.0
  0
LINE
  5
3DF
330
1F
100
AcDbEntity
  8
営業図
  6
CONTINUOUS
 62
    54
100
AcDbLine
 10
452.1010101005578
 20
25.80808080805499
 30
0.0
 11
452.1010101005578
 21
16.61616161614502
 31
0.0
  0
LINE
  5
3E0
330
1F
100
AcDbEntity
  8
営業図
  6
CONTINUOUS
 62
    54
100
AcDbLine
 10
450.6868686864175
 20
25.10101010098499
 30
0.0
 11
450.6868686864175
 21
17.32323232321502
 31
0.0
  0
LINE
  5
3E1
330
1F
100
AcDbEntity
  8
営業図
  6
CONTINUOUS
 62
    54
100
AcDbLine
 10
452.8080808076278
 20
25.80808080805499
 30
0.0
 11
452.8080808076278
 21
15.202020202005
 31
0.0
  0
LINE
  5
3E2
330
1F
100
AcDbEntity
  8
営業図
  6
CONTINUOUS
 62
    54
100
AcDbLine
 10
456.3434343429778
 20
25.80808080805499
 30
0.0
 11
456.3434343429778
 21
15.202020202005
 31
0.0
  0
LINE
  5
3E3
330
1F
100
AcDbEntity
  8
営業図
  6
CONTINUOUS
 62
    54
100
AcDbLine
 10
454.2222222217675
 20
25.45454545451983
 30
0.0
 11
454.2222222217675
 21
18.73737373735661
 31
0.0
  0
LINE
  5
3E4
330
1F
100
AcDbEntity
  8
営業図
  6
CONTINUOUS
 62
    54
100
AcDbLine
 10
454.9292929288378
 20
25.45454545451983
 30
0.0
 11
454.9292929288378
 21
18.73737373735661
 31
0.0
  0
LINE
  5
3E5
330
1F
100
AcDbEntity
  8
営業図
  6
CONTINUOUS
 62
    54
100
AcDbLine
 10
457.0505050500478
 20
27.222222222195
 30
0.0
 11
457.0505050500478
 21
15.202020202005
 31
0.0
  0
LINE
  5
3E6
330
1F
100
AcDbEntity
  8
営業図
  6
CONTINUOUS
 62
    54
100
AcDbLine
 10
458.4646464641878
 20
27.222222222195
 30
0.0
 11
458.4646464641878
 21
15.202020202005
 31
0.0
  0
LINE
  5
3E7
330
1F
100
AcDbEntity
  8
営業図
  6
CONTINUOUS
 62
    54
100
AcDbLine
 10
459.1717171712578
 20
27.222222222195
 30
0.0
 11
459.1717171712578
 21
16.61616161614502
 31
0.0
  0
LINE
  5
3E8
330
1F
100
AcDbEntity
  8
営業図
  6
CONTINUOUS
 62
    54
100
AcDbLine
 10
460.5858585853978
 20
27.222222222195
 30
0.0
 11
460.5858585853978
 21
16.96969696968002
 31
0.0
  0
LINE
  5
3E9
330
1F
100
AcDbEntity
  8
営業図
  6
CONTINUOUS
 62
    54
100
AcDbLine
 10
461.2929292924678
 20
27.222222222195
 30
0.0
 11
461.2929292924678
 21
16.96969696968002
 31
0.0
  0
LINE
  5
3EA
330
1F
100
AcDbEntity
  8
営業図
  6
CONTINUOUS
 62
    54
100
AcDbLine
 10
462.7070707066078
 20
27.222222222195
 30
0.0
 11
462.7070707066078
 21
16.96969696968002
 31
0.0
  0
LINE
  5
3EB
330
1F
100
AcDbEntity
  8
営業図
  6
CONTINUOUS
 62
    54
100
AcDbLine
 10
463.4141414136778
 20
27.222222222195
 30
0.0
 11
463.4141414136778
 21
16.96969696968002
 31
0.0
  0
LINE
  5
3EC
330
1F
100
AcDbEntity
  8
営業図
  6
CONTINUOUS
 62
    54
100
AcDbLine
 10
464.8282828278178
 20
27.222222222195
 30
0.0
 11
464.8282828278178
 21
16.61616161614501
 31
0.0
  0
LINE
  5
3ED
330
1F
100
AcDbEntity
  8
営業図
  6
CONTINUOUS
 62
    54
100
AcDbLine
 10
465.5353535348878
 20
25.80808080805499
 30
0.0
 11
465.5353535348878
 21
15.202020202005
 31
0.0
  0
LINE
  5
3EE
330
1F
100
AcDbEntity
  8
営業図
  6
CONTINUOUS
 62
    54
100
AcDbLine
 10
466.9494949490278
 20
25.45454545451983
 30
0.0
 11
466.9494949490278
 21
18.73737373735661
 31
0.0
  0
LINE
  5
3EF
330
1F
100
AcDbEntity
  8
営業図
  6
CONTINUOUS
 62
    54
100
AcDbLine
 10
467.6565656560978
 20
25.45454545451983
 30
0.0
 11
467.6565656560978
 21
18.73737373735661
 31
0.0
  0
LINE
  5
3F0
330
1F
100
AcDbEntity
  8
営業図
  6
CONTINUOUS
 62
    54
100
AcDbLine
 10
469.0707070702378
 20
25.80808080805499
 30
0.0
 11
469.0707070702378
 21
15.202020202005
 31
0.0
  0
ARC
  5
3F1
330
1F
100
AcDbEntity
  8
営業図
  6
CONTINUOUS
 62
    54
100
AcDbCircle
 10
450.6868686864175
 20
25.80808080805499
 30
0.0
 40
1.414141414140242
100
AcDbArc
 50
0.0
 51
90.00000000000001
  0
ARC
  5
3F2
330
1F
100
AcDbEntity
  8
営業図
  6
CONTINUOUS
 62
    54
100
AcDbCircle
 10
449.9797979793476
 20
25.10101010098499
 30
0.0
 40
0.70707070707
100
AcDbArc
 50
0.0
 51
90.00000000000001
  0
ARC
  5
3F3
330
1F
100
AcDbEntity
  8
営業図
  6
CONTINUOUS
 62
    54
100
AcDbCircle
 10
454.2222222217675
 20
25.80808080805499
 30
0.0
 40
1.41414141414001
100
AcDbArc
 50
90.00000000000001
 51
180.0
  0
ARC
  5
3F4
330
1F
100
AcDbEntity
  8
営業図
  6
CONTINUOUS
 62
    54
100
AcDbCircle
 10
454.9292929288378
 20
25.80808080805499
 30
0.0
 40
1.41414141414
100
AcDbArc
 50
0.0
 51
90.00000000000001
  0
ARC
  5
3F5
330
1F
100
AcDbEntity
  8
営業図
  6
CONTINUOUS
 62
    54
100
AcDbCircle
 10
454.5757575753027
 20
25.45454545451983
 30
0.0
 40
0.353535353535162
100
AcDbArc
 50
0.0
 51
180.0
  0
LINE
  5
3F6
330
1F
100
AcDbEntity
  8
営業図
  6
CONTINUOUS
 62
    54
100
AcDbLine
 10
454.2222222217675
 20
17.32323232321502
 30
0.0
 11
454.9292929288378
 21
17.32323232321502
 31
0.0
  0
LINE
  5
3F7
330
1F
100
AcDbEntity
  8
営業図
  6
CONTINUOUS
 62
    54
100
AcDbLine
 10
454.2222222217675
 20
18.73737373735661
 30
0.0
 11
454.9292929288378
 21
18.73737373735661
 31
0.0
  0
ARC
  5
3F8
330
1F
100
AcDbEntity
  8
営業図
  6
CONTINUOUS
 62
    54
100
AcDbCircle
 10
460.5858585853978
 20
16.61616161614502
 30
0.0
 40
1.41414141414
100
AcDbArc
 50
180.0
 51
270.0000000000002
  0
ARC
  5
3F9
330
1F
100
AcDbEntity
  8
営業図
  6
CONTINUOUS
 62
    54
100
AcDbCircle
 10
463.4141414136778
 20
16.61616161614502
 30
0.0
 40
1.41414141414002
100
AcDbArc
 50
270.0000000000002
 51
0.0
  0
ARC
  5
3FA
330
1F
100
AcDbEntity
  8
営業図
  6
CONTINUOUS
 62
    54
100
AcDbCircle
 10
463.0606060601428
 20
16.96969696968002
 30
0.0
 40
0.353535353535
100
AcDbArc
 50
180.0
 51
0.0
  0
ARC
  5
3FB
330
1F
100
AcDbEntity
  8
営業図
  6
CONTINUOUS
 62
    54
100
AcDbCircle
 10
460.9393939389328
 20
16.96969696968002
 30
0.0
 40
0.353535353535
100
AcDbArc
 50
180.0
 51
0.0
  0
ARC
  5
3FC
330
1F
100
AcDbEntity
  8
営業図
  6
CONTINUOUS
 62
    54
100
AcDbCircle
 10
463.0606060601428
 20
16.61616161614502
 30
0.0
 40
1.41414141414002
100
AcDbArc
 50
221.4096221092724
 51
270.0000000000002
  0
ARC
  5
3FD
330
1F
100
AcDbEntity
  8
営業図
  6
CONTINUOUS
 62
    54
100
AcDbCircle
 10
460.9393939389328
 20
16.61616161614502
 30
0.0
 40
1.41414141414002
100
AcDbArc
 50
270.0000000000002
 51
318.5903778907276
  0
ARC
  5
3FE
330
1F
100
AcDbEntity
  8
営業図
  6
CONTINUOUS
 62
    54
100
AcDbCircle
 10
449.9797979793476
 20
17.32323232321501
 30
0.0
 40
0.70707070707
100
AcDbArc
 50
270.0000000000002
 51
0.0
  0
ARC
  5
3FF
330
1F
100
AcDbEntity
  8
営業図
  6
CONTINUOUS
 62
    54
100
AcDbCircle
 10
450.6868686864175
 20
16.61616161614501
 30
0.0
 40
1.414141414140242
100
AcDbArc
 50
270.0000000000002
 51
0.0
  0
ARC
  5
400
330
1F
100
AcDbEntity
  8
営業図
  6
CONTINUOUS
 62
    54
100
AcDbCircle
 10
466.9494949490276
 20
25.80808080805499
 30
0.0
 40
1.41414141414001
100
AcDbArc
 50
90.00000000000001
 51
180.0
  0
ARC
  5
401
330
1F
100
AcDbEntity
  8
営業図
  6
CONTINUOUS
 62
    54
100
AcDbCircle
 10
467.6565656560978
 20
25.80808080805499
 30
0.0
 40
1.41414141414
100
AcDbArc
 50
0.0
 51
90.00000000000001
  0
ARC
  5
402
330
1F
100
AcDbEntity
  8
営業図
  6
CONTINUOUS
 62
    54
100
AcDbCircle
 10
467.3030303025627
 20
25.45454545451983
 30
0.0
 40
0.353535353535162
100
AcDbArc
 50
0.0
 51
180.0
  0
LINE
  5
403
330
1F
100
AcDbEntity
  8
営業図
  6
CONTINUOUS
 62
    54
100
AcDbLine
 10
466.9494949490276
 20
17.32323232321502
 30
0.0
 11
467.6565656560978
 21
17.32323232321502
 31
0.0
  0
LINE
  5
404
330
1F
100
AcDbEntity
  8
営業図
  6
CONTINUOUS
 62
    54
100
AcDbLine
 10
466.9494949490276
 20
18.73737373735661
 30
0.0
 11
467.6565656560978
 21
18.73737373735661
 31
0.0
  0
LINE
  5
405
330
1F
100
AcDbEntity
  8
営業図
  6
CONTINUOUS
 62
    54
100
AcDbLine
 10
454.2222222217675
 20
27.222222222195
 30
0.0
 11
454.9292929288378
 21
27.222222222195
 31
0.0
  0
LINE
  5
406
330
1F
100
AcDbEntity
  8
営業図
  6
CONTINUOUS
 62
    54
100
AcDbLine
 10
454.2222222217675
 20
17.32323232321502
 30
0.0
 11
454.2222222217675
 21
15.202020202005
 31
0.0
  0
LINE
  5
407
330
1F
100
AcDbEntity
  8
営業図
  6
CONTINUOUS
 62
    54
100
AcDbLine
 10
454.9292929288378
 20
17.32323232321502
 30
0.0
 11
454.9292929288378
 21
15.202020202005
 31
0.0
  0
LINE
  5
408
330
1F
100
AcDbEntity
  8
営業図
  6
CONTINUOUS
 62
    54
100
AcDbLine
 10
452.8080808076278
 20
15.202020202005
 30
0.0
 11
454.2222222217675
 21
15.202020202005
 31
0.0
  0
LINE
  5
409
330
1F
100
AcDbEntity
  8
営業図
  6
CONTINUOUS
 62
    54
100
AcDbLine
 10
454.9292929288378
 20
15.202020202005
 30
0.0
 11
456.3434343429778
 21
15.202020202005
 31
0.0
  0
LINE
  5
40A
330
1F
100
AcDbEntity
  8
営業図
  6
CONTINUOUS
 62
    54
100
AcDbLine
 10
457.0505050500478
 20
15.202020202005
 30
0.0
 11
458.4646464641878
 21
15.202020202005
 31
0.0
  0
LINE
  5
40B
330
1F
100
AcDbEntity
  8
営業図
  6
CONTINUOUS
 62
    54
100
AcDbLine
 10
457.0505050500478
 20
27.222222222195
 30
0.0
 11
458.4646464641878
 21
27.222222222195
 31
0.0
  0
LINE
  5
40C
330
1F
100
AcDbEntity
  8
営業図
  6
CONTINUOUS
 62
    54
100
AcDbLine
 10
459.1717171712578
 20
27.222222222195
 30
0.0
 11
460.5858585853978
 21
27.222222222195
 31
0.0
  0
LINE
  5
40D
330
1F
100
AcDbEntity
  8
営業図
  6
CONTINUOUS
 62
    54
100
AcDbLine
 10
461.2929292924678
 20
27.222222222195
 30
0.0
 11
462.7070707066078
 21
27.222222222195
 31
0.0
  0
LINE
  5
40E
330
1F
100
AcDbEntity
  8
営業図
  6
CONTINUOUS
 62
    54
100
AcDbLine
 10
463.4141414136778
 20
27.222222222195
 30
0.0
 11
464.8282828278178
 21
27.222222222195
 31
0.0
  0
LINE
  5
40F
330
1F
100
AcDbEntity
  8
営業図
  6
CONTINUOUS
 62
    54
100
AcDbLine
 10
466.9494949490276
 20
27.222222222195
 30
0.0
 11
467.6565656560978
 21
27.222222222195
 31
0.0
  0
LINE
  5
410
330
1F
100
AcDbEntity
  8
営業図
  6
CONTINUOUS
 62
    54
100
AcDbLine
 10
460.5858585853978
 20
15.202020202005
 30
0.0
 11
460.9393939389328
 21
15.202020202005
 31
0.0
  0
LINE
  5
411
330
1F
100
AcDbEntity
  8
営業図
  6
CONTINUOUS
 62
    54
100
AcDbLine
 10
463.0606060601428
 20
15.202020202005
 30
0.0
 11
463.4141414136778
 21
15.202020202005
 31
0.0
  0
LINE
  5
412
330
1F
100
AcDbEntity
  8
営業図
  6
CONTINUOUS
 62
    54
100
AcDbLine
 10
465.5353535348878
 20
15.202020202005
 30
0.0
 11
466.9494949490278
 21
15.202020202005
 31
0.0
  0
LINE
  5
413
330
1F
100
AcDbEntity
  8
営業図
  6
CONTINUOUS
 62
    54
100
AcDbLine
 10
467.6565656560978
 20
15.202020202005
 30
0.0
 11
469.0707070702378
 21
15.202020202005
 31
0.0
  0
LINE
  5
414
330
1F
100
AcDbEntity
  8
営業図
  6
CONTINUOUS
 62
    54
100
AcDbLine
 10
466.9494949490278
 20
17.32323232321502
 30
0.0
 11
466.9494949490278
 21
15.202020202005
 31
0.0
  0
LINE
  5
415
330
1F
100
AcDbEntity
  8
営業図
  6
CONTINUOUS
 62
    54
100
AcDbLine
 10
467.6565656560978
 20
17.32323232321502
 30
0.0
 11
467.6565656560978
 21
15.202020202005
 31
0.0
  0
TEXT
  5
416
330
1F
100
AcDbEntity
  8
営業図
  6
CONTINUOUS
 62
    54
100
AcDbText
 10
477.8914141408961
 20
18.6491293121
 30
0.0
 40
5.4566932
  1
大 和 建 工 株 式 会 社
 41
0.6977778186480043
  7
EXCADSTD
 72
     5
 11
557.2714141408961
 21
18.6491293121
 31
0.0
100
AcDbText
  0
TEXT
  5
417
330
1F
100
AcDbEntity
  8
営業図
  6
CONTINUOUS
 62
    54
100
AcDbText
 10
608.0808080802001
 20
24.7121212121
 30
0.0
 40
4.745762711864407
  1
月
  7
EXCADVERT
 72
     3
 11
608.0808080802001
 21
17.7121212121
 31
0.0
100
AcDbText
  0
TEXT
  5
418
330
1F
100
AcDbEntity
  8
営業図
  6
CONTINUOUS
 62
    54
100
AcDbText
 10
588.424242423654
 20
24.7121212121
 30
0.0
 40
4.581151832460733
  1
年
  7
EXCADVERT
 72
     3
 11
588.424242423654
 21
17.7121212121
 31
0.0
100
AcDbText
  0
TEXT
  5
419
330
1F
100
AcDbEntity
  8
営業図
  6
CONTINUOUS
 62
    54
100
AcDbText
 10
627.87878787816
 20
24.7121212121
 30
0.0
 40
5.384615384615384
  1
日
  7
EXCADVERT
 72
     3
 11
627.87878787816
 21
17.7121212121
 31
0.0
100
AcDbText
  0
TEXT
  5
41A
330
1F
100
AcDbEntity
  8
営業図
  6
CONTINUOUS
 62
    54
100
AcDbText
 10
790.4696969689098
 20
28.2121212121
 30
0.0
 40
9.668508287292818
  1
図面
  7
EXCADVERT
 72
     3
 11
790.4696969689098
 21
14.2121212121
 31
0.0
100
AcDbText
  0
TEXT
  5
41B
330
1F
100
AcDbEntity
  8
営業図
  6
CONTINUOUS
 62
    54
100
AcDbText
 10
755.257575756824
 20
28.2121212121
 30
0.0
 40
8.997429305912597
  1
尺度
  7
EXCADVERT
 72
     3
 11
755.257575756824
 21
14.2121212121
 31
0.0
100
AcDbText
  0
TEXT
  5
41C
330
1F
100
AcDbEntity
  8
営業図
  6
CONTINUOUS
 62
    54
100
AcDbText
 10
634.1010101003758
 20
28.2121212121
 30
0.0
 40
9.038089089735312
  1
名称
  7
EXCADVERT
 72
     3
 11
634.1010101003758
 21
14.2121212121
 31
0.0
100
AcDbText
  0
ENDSEC
  0
SECTION
  2
OBJECTS
  0
DICTIONARY
  5
C
330
0
100
AcDbDictionary
  3
ACAD_GROUP
350
D
  3
ACAD_LAYOUT
350
1A
  3
ACAD_MATERIAL
350
43
  3
ACAD_MLEADERSTYLE
350
6B
  3
ACAD_MLINESTYLE
350
17
  3
ACAD_PLOTSETTINGS
350
19
  3
ACAD_SCALELIST
350
47
  3
ACAD_VISUALSTYLE
350
2A
  3
ACDBHEADERROUNDTRIPXREC
350
41D
  3
ACDBVARIABLEDICTIONARY
350
43E
  0
DICTIONARY
  5
447
330
8
100
AcDbDictionary
280
     1
  3
ACAD_XREC_ROUNDTRIP
360
448
  0
DICTIONARY
  5
D
102
{ACAD_REACTORS
330
C
102
}
330
C
100
AcDbDictionary
  0
DICTIONARY
  5
1A
102
{ACAD_REACTORS
330
C
102
}
330
C
100
AcDbDictionary
  0
DICTIONARY
  5
43
102
{ACAD_REACTORS
330
C
102
}
330
C
100
AcDbDictionary
  3
BYBLOCK
350
45
  3
BYLAYER
350
44
  3
GLOBAL
350
46
  0
DICTIONARY
  5
6B
102
{ACAD_REACTORS
330
C
102
}
330
C
100
AcDbDictionary
  3
STANDARD
350
6C
  0
DICTIONARY
  5
17
102
{ACAD_REACTORS
330
C
102
}
330
C
100
AcDbDictionary
  3
STANDARD
350
18
  0
DICTIONARY
  5
19
102
{ACAD_REACTORS
330
C
102
}
330
C
100
AcDbDictionary
  0
DICTIONARY
  5
47
102
{ACAD_REACTORS
330
C
102
}
330
C
100
AcDbDictionary
  3
A0
350
48
  3
A1
350
49
  3
A2
350
4A
  3
A3
350
4B
  3
A4
350
4C
  3
A5
350
4D
  3
A6
350
4E
  3
A7
350
4F
  3
A8
350
50
  3
A9
350
51
  3
B0
350
52
  3
B1
350
53
  3
B2
350
54
  3
B3
350
55
  3
B4
350
56
  3
B5
350
57
  3
B6
350
58
  3
B7
350
59
  3
B8
350
5A
  3
B9
350
5B
  3
C0
350
5C
  3
C1
350
5D
  3
C2
350
5E
  3
C3
350
5F
  3
C4
350
60
  3
C5
350
61
  3
C6
350
62
  3
C7
350
63
  3
C8
350
64
  3
C9
350
65
  3
D0
350
66
  3
D1
350
67
  3
D2
350
68
  0
DICTIONARY
  5
2A
102
{ACAD_REACTORS
330
C
102
}
330
C
100
AcDbDictionary
  3
2DWIREFRAME
350
2F
  3
BASIC
350
32
  3
BRIGHTEN
350
36
  3
COLORCHANGE
350
3A
  3
CONCEPTUAL
350
34
  3
DIM
350
35
  3
EDGECOLOROFF
350
3D
  3
FACEPATTERN
350
39
  3
FLAT
350
2B
  3
FLATWITHEDGES
350
2C
  3
GOURAUD
350
2D
  3
GOURAUDWITHEDGES
350
2E
  3
HIDDEN
350
31
  3
JITTEROFF
350
3B
  3
LINEPATTERN
350
38
  3
OVERHANGOFF
350
3C
  3
REALISTIC
350
33
  3
SHADED
350
42
  3
SHADED_WITH_EDGES
350
41
  3
SHADES_OF_GRAY
350
3E
  3
SKETCHY
350
3F
  3
THICKEN
350
37
  3
WIREFRAME
350
30
  3
X-RAY
350
40
  0
DICTIONARY
  5
41D
102
{ACAD_REACTORS
330
C
102
}
330
C
100
AcDbDictionary
  3
CEPSNID
350
427
  3
CEPSNTYPE
350
426
  3
DIMSTYLEDATA
350
43D
  3
FINGERPRINTGUID
350
428
  3
HYPERLINKBASE
350
420
  3
INSUNITS
350
425
  3
LAYOUTDICT
350
422
  3
LWETCUNION
350
424
  3
PLOTSETDICT
350
423
  3
PSVPSCALE
350
42A
  3
PUCSBASE
350
42D
  3
PUCSORGBACK
350
433
  3
PUCSORGBOTTOM
350
42F
  3
PUCSORGFRONT
350
432
  3
PUCSORGLEFT
350
430
  3
PUCSORGRIGHT
350
431
  3
PUCSORGTOP
350
42E
  3
PUCSORTHOREF
350
42B
  3
PUCSORTHOVIEW
350
42C
  3
STYLESHEET
350
421
  3
TSTACKALIGN
350
41E
  3
TSTACKSIZE
350
41F
  3
UCSBASE
350
436
  3
UCSORGBACK
350
43C
  3
UCSORGBOTTOM
350
438
  3
UCSORGFRONT
350
43B
  3
UCSORGLEFT
350
439
  3
UCSORGRIGHT
350
43A
  3
UCSORGTOP
350
437
  3
UCSORTHOREF
350
434
  3
UCSORTHOVIEW
350
435
  3
VERSIONGUID
350
429
  0
DICTIONARY
  5
43E
102
{ACAD_REACTORS
330
C
102
}
330
C
100
AcDbDictionary
  3
CANNOSCALE
350
449
  3
CMLEADERSTYLE
350
440
  3
CTABLESTYLE
350
43F
  3
DIMASSOC
350
445
  3
HIDETEXT
350
446
  3
MSLTSCALE
350
44A
  3
PSOLHEIGHT
350
442
  3
PSOLWIDTH
350
441
  0
XRECORD
  5
448
102
{ACAD_REACTORS
330
447
102
}
330
447
100
AcDbXrecord
102
VTR_0.000_0.000_1.000_1.000_VISUALSTYLE
340
2F
102
VTR_0.000_0.000_1.000_1.000_GRIDDISPLAY
 70
     3
102
VTR_0.000_0.000_1.000_1.000_GRIDMAJOR
 70
     5
102
VTR_0.000_0.000_1.000_1.000_DEFAULTLIGHTING
280
     1
102
VTR_0.000_0.000_1.000_1.000_DEFAULTLIGHTINGTYPE
 70
     1
102
VTR_0.000_0.000_1.000_1.000_BRIGHTNESS
141
0.0
102
VTR_0.000_0.000_1.000_1.000_CONTRAST
142
0.0
  0
MATERIAL
  5
45
102
{ACAD_REACTORS
330
43
102
}
102
{ACAD_XDICTIONARY
360
44D
102
}
330
43
100
AcDbMaterial
  1
BYBLOCK
  0
MATERIAL
  5
44
102
{ACAD_REACTORS
330
43
102
}
102
{ACAD_XDICTIONARY
360
44B
102
}
330
43
100
AcDbMaterial
  1
BYLAYER
  0
MATERIAL
  5
46
102
{ACAD_REACTORS
330
43
102
}
102
{ACAD_XDICTIONARY
360
44F
102
}
330
43
100
AcDbMaterial
  1
GLOBAL
  0
ACAD_PROXY_OBJECT
  5
6C
102
{ACAD_REACTORS
330
6B
102
}
330
6B
100
AcDbProxyObject
 90
      499
 91
      505
 93
      610
310
40901902A4063FBFFFFFE0000000000000020400000000000020404214DD185B99185C990000000000000104090141901A00000000000004100000000000000041025764000000000000039000
340
14
340
0
340
11
340
0
 94
        0
1001
ACAD_MLEADERVER
1070
     2
  0
MLINESTYLE
  5
18
102
{ACAD_REACTORS
330
17
102
}
330
17
100
AcDbMlineStyle
  2
Standard
 70
     0
  3

 62
   256
 51
90.0
 52
90.0
 71
     2
 49
0.5
 62
   256
  6
BYLAYER
 49
-0.5
 62
   256
  6
BYLAYER
  0
ACAD_PROXY_OBJECT
  5
48
102
{ACAD_REACTORS
330
47
102
}
330
47
100
AcDbProxyObject
 90
      499
 91
      503
 93
       41
310
903313A31580
  0
ACAD_PROXY_OBJECT
  5
49
102
{ACAD_REACTORS
330
47
102
}
330
47
100
AcDbProxyObject
 90
      499
 91
      503
 93
      105
310
903313A324000000000000004000
  0
ACAD_PROXY_OBJECT
  5
4A
102
{ACAD_REACTORS
330
47
102
}
330
47
100
AcDbProxyObject
 90
      499
 91
      503
 93
      105
310
903313A344000000000000104000
  0
ACAD_PROXY_OBJECT
  5
4B
102
{ACAD_REACTORS
330
47
102
}
330
47
100
AcDbProxyObject
 90
      499
 91
      503
 93
      105
310
903313A354000000000000144000
  0
ACAD_PROXY_OBJECT
  5
4C
102
{ACAD_REACTORS
330
47
102
}
330
47
100
AcDbProxyObject
 90
      499
 91
      503
 93
      105
310
903313A384000000000000204000
  0
ACAD_PROXY_OBJECT
  5
4D
102
{ACAD_REACTORS
330
47
102
}
330
47
100
AcDbProxyObject
 90
      499
 91
      503
 93
      113
310
904313A31304000000000000244000
  0
ACAD_PROXY_OBJECT
  5
4E
102
{ACAD_REACTORS
330
47
102
}
330
47
100
AcDbProxyObject
 90
      499
 91
      503
 93
      113
310
904313A31364000000000000304000
  0
ACAD_PROXY_OBJECT
  5
4F
102
{ACAD_REACTORS
330
47
102
}
330
47
100
AcDbProxyObject
 90
      499
 91
      503
 93
      113
310
904313A32304000000000000344000
  0
ACAD_PROXY_OBJECT
  5
50
102
{ACAD_REACTORS
330
47
102
}
330
47
100
AcDbProxyObject
 90
      499
 91
      503
 93
      113
310
904313A333040000000000003E4000
  0
ACAD_PROXY_OBJECT
  5
51
102
{ACAD_REACTORS
330
47
102
}
330
47
100
AcDbProxyObject
 90
      499
 91
      503
 93
      113
310
904313A34304000000000000444000
  0
ACAD_PROXY_OBJECT
  5
52
102
{ACAD_REACTORS
330
47
102
}
330
47
100
AcDbProxyObject
 90
      499
 91
      503
 93
      113
310
904313A35304000000000000494000
  0
ACAD_PROXY_OBJECT
  5
53
102
{ACAD_REACTORS
330
47
102
}
330
47
100
AcDbProxyObject
 90
      499
 91
      503
 93
      121
310
905313A3130304000000000000594000
  0
ACAD_PROXY_OBJECT
  5
54
102
{ACAD_REACTORS
330
47
102
}
330
47
100
AcDbProxyObject
 90
      499
 91
      503
 93
      105
310
903323A310000000000000010100
  0
ACAD_PROXY_OBJECT
  5
55
102
{ACAD_REACTORS
330
47
102
}
330
47
100
AcDbProxyObject
 90
      499
 91
      503
 93
      105
310
903343A310000000000000410100
  0
ACAD_PROXY_OBJECT
  5
56
102
{ACAD_REACTORS
330
47
102
}
330
47
100
AcDbProxyObject
 90
      499
 91
      503
 93
      105
310
903383A310000000000000810100
  0
ACAD_PROXY_OBJECT
  5
57
102
{ACAD_REACTORS
330
47
102
}
330
47
100
AcDbProxyObject
 90
      499
 91
      503
 93
      113
310
90431303A310000000000000910100
  0
ACAD_PROXY_OBJECT
  5
58
102
{ACAD_REACTORS
330
47
102
}
330
47
100
AcDbProxyObject
 90
      499
 91
      503
 93
      121
310
9053130303A310000000000001650100
  0
ACAD_PROXY_OBJECT
  5
59
102
{ACAD_REACTORS
330
47
102
}
330
47
100
AcDbProxyObject
 90
      499
 91
      503
 93
      257
310
90E312F31323822203D2031272D3022000000000000200FC000000000000284000
  0
ACAD_PROXY_OBJECT
  5
5A
102
{ACAD_REACTORS
330
47
102
}
330
47
100
AcDbProxyObject
 90
      499
 91
      503
 93
      249
310
90D312F363422203D2031272D3022000000000000240FC000000000000284000
  0
ACAD_PROXY_OBJECT
  5
5B
102
{ACAD_REACTORS
330
47
102
}
330
47
100
AcDbProxyObject
 90
      499
 91
      503
 93
      249
310
90D312F333222203D2031272D3022000000000000280FC000000000000284000
  0
ACAD_PROXY_OBJECT
  5
5C
102
{ACAD_REACTORS
330
47
102
}
330
47
100
AcDbProxyObject
 90
      499
 91
      503
 93
      249
310
90D312F313622203D2031272D30220000000000002C0FC000000000000284000
  0
ACAD_PROXY_OBJECT
  5
5D
102
{ACAD_REACTORS
330
47
102
}
330
47
100
AcDbProxyObject
 90
      499
 91
      503
 93
      249
310
90D332F333222203D2031272D30220000000000002E0FC000000000000284000
  0
ACAD_PROXY_OBJECT
  5
5E
102
{ACAD_REACTORS
330
47
102
}
330
47
100
AcDbProxyObject
 90
      499
 91
      503
 93
      241
310
90C312F3822203D2031272D3022000000000000300FC000000000000284000
  0
ACAD_PROXY_OBJECT
  5
5F
102
{ACAD_REACTORS
330
47
102
}
330
47
100
AcDbProxyObject
 90
      499
 91
      503
 93
      249
310
90D332F313622203D2031272D3022000000000000320FC000000000000284000
  0
ACAD_PROXY_OBJECT
  5
60
102
{ACAD_REACTORS
330
47
102
}
330
47
100
AcDbProxyObject
 90
      499
 91
      503
 93
      241
310
90C312F3422203D2031272D3022000000000000340FC000000000000284000
  0
ACAD_PROXY_OBJECT
  5
61
102
{ACAD_REACTORS
330
47
102
}
330
47
100
AcDbProxyObject
 90
      499
 91
      503
 93
      241
310
90C332F3822203D2031272D3022000000000000360FC000000000000284000
  0
ACAD_PROXY_OBJECT
  5
62
102
{ACAD_REACTORS
330
47
102
}
330
47
100
AcDbProxyObject
 90
      499
 91
      503
 93
      241
310
90C312F3222203D2031272D3022000000000000380FC000000000000284000
  0
ACAD_PROXY_OBJECT
  5
63
102
{ACAD_REACTORS
330
47
102
}
330
47
100
AcDbProxyObject
 90
      499
 91
      503
 93
      241
310
90C332F3422203D2031272D30220000000000003A0FC000000000000284000
  0
ACAD_PROXY_OBJECT
  5
64
102
{ACAD_REACTORS
330
47
102
}
330
47
100
AcDbProxyObject
 90
      499
 91
      503
 93
      161
310
90A3122203D2031272D30224000000000000284000
  0
ACAD_PROXY_OBJECT
  5
65
102
{ACAD_REACTORS
330
47
102
}
330
47
100
AcDbProxyObject
 90
      499
 91
      503
 93
      257
310
90E312D312F3222203D2031272D30220000000000003E0FC000000000000284000
  0
ACAD_PROXY_OBJECT
  5
66
102
{ACAD_REACTORS
330
47
102
}
330
47
100
AcDbProxyObject
 90
      499
 91
      503
 93
      225
310
90A3322203D2031272D302200000000000002100000000000000284000
  0
ACAD_PROXY_OBJECT
  5
67
102
{ACAD_REACTORS
330
47
102
}
330
47
100
AcDbProxyObject
 90
      499
 91
      503
 93
      225
310
90A3622203D2031272D302200000000000006100000000000000284000
  0
ACAD_PROXY_OBJECT
  5
68
102
{ACAD_REACTORS
330
47
102
}
330
47
100
AcDbProxyObject
 90
      499
 91
      503
 93
      249
310
90D31272D3022203D2031272D30220000000000000A100000000000000284000
  0
ACAD_PROXY_OBJECT
  5
2F
102
{ACAD_REACTORS
330
2A
102
}
330
2A
100
AcDbProxyObject
 90
      499
 91
      501
 93
      436
310
42CC9915DA5C99599C985B595049028333333333333E33F0000000000000F90107901411070040501600405405064090741402480A0340
1001
ACAD
1000
AcDbSavedByObjectVersion
1070
     0
  0
ACAD_PROXY_OBJECT
  5
32
102
{ACAD_REACTORS
330
2A
102
}
330
2A
100
AcDbProxyObject
 90
      499
 91
      501
 93
      388
310
4150985CDA58D07406404333333333333E33F0000000000000F90107A41107004050150841D405064090741402480A0350
1001
ACAD
1000
AcDbSavedByObjectVersion
1070
     0
  0
ACAD_PROXY_OBJECT
  5
36
102
{ACAD_REACTORS
330
2A
102
}
330
2A
100
AcDbProxyObject
 90
      499
 91
      501
 93
      428
310
42109C9A59DA1D195B90C409028333333333333E33F0000000000000F9010790141107004050150841D405064090741402480A029950
1001
ACAD
1000
AcDbSavedByObjectVersion
1070
     0
  0
ACAD_PROXY_OBJECT
  5
3A
102
{ACAD_REACTORS
330
2A
102
}
330
2A
100
AcDbProxyObject
 90
      499
 91
      501
 93
      452
310
42D0DBDB1BDC90DA185B99D95104090240C333333333333E33F0000000000000F90108901411070040501508421405064090741402480A0350
1001
ACAD
1000
AcDbSavedByObjectVersion
1070
     0
  0
ACAD_PROXY_OBJECT
  5
34
102
{ACAD_REACTORS
330
2A
102
}
330
2A
100
AcDbProxyObject
 90
      499
 91
      501
 93
      500
310
4290DBDB98D95C1D1D585B10940D028333333333333E33F0000000000000F90107902409070040501000000000018199010841D405064090740C02480A0340
1001
ACAD
1000
AcDbSavedByObjectVersion
1070
     0
  0
ACAD_PROXY_OBJECT
  5
35
102
{ACAD_REACTORS
330
2A
102
}
330
2A
100
AcDbProxyObject
 90
      499
 91
      501
 93
      412
310
40D11A5B50B409028333333333333E33F0000000000000F9010790141107004050150841D405064090741402480A02677FFFFFD0
1001
ACAD
1000
AcDbSavedByObjectVersion
1070
     0
  0
ACAD_PROXY_OBJECT
  5
3D
102
{ACAD_REACTORS
330
2A
102
}
330
2A
100
AcDbProxyObject
 90
      499
 91
      501
 93
      452
310
43115919D950DBDB1BDC93D999916409028333333333333E33F0000000000000F9010790141107004050150841D405064090741402480A0350
1001
ACAD
1000
AcDbSavedByObjectVersion
1070
     0
  0
ACAD_PROXY_OBJECT
  5
39
102
{ACAD_REACTORS
330
2A
102
}
330
2A
100
AcDbProxyObject
 90
      499
 91
      501
 93
      444
310
42D19858D95C185D1D195C9B90F409028333333333333E33F0000000000000F9010790141107004050150841D405064090741402480A0350
1001
ACAD
1000
AcDbSavedByObjectVersion
1070
     0
  0
ACAD_PROXY_OBJECT
  5
2B
102
{ACAD_REACTORS
330
2A
102
}
330
2A
100
AcDbProxyObject
 90
      499
 91
      501
 93
      380
310
41119B185D240901404333333333333E33F0000000000000F9010740A907004050150841D405064090741402480A1B50
1001
ACAD
1000
AcDbSavedByObjectVersion
1070
     0
  0
ACAD_PROXY_OBJECT
  5
2C
102
{ACAD_REACTORS
330
2A
102
}
330
2A
100
AcDbProxyObject
 90
      499
 91
      501
 93
      468
310
43519B185D15DA5D1A115919D95CD0140901404333333333333E33F0000000000000F90107409019070040501600405405064090741402480A1B50
1001
ACAD
1000
AcDbSavedByObjectVersion
1070
     0
  0
ACAD_PROXY_OBJECT
  5
2D
102
{ACAD_REACTORS
330
2A
102
}
330
2A
100
AcDbProxyObject
 90
      499
 91
      501
 93
      404
310
41D1DBDD5C985D5910240902404333333333333E33F0000000000000F9010740A9070040501641D405064090741402480A1B50
1001
ACAD
1000
AcDbSavedByObjectVersion
1070
     0
  0
ACAD_PROXY_OBJECT
  5
2E
102
{ACAD_REACTORS
330
2A
102
}
330
2A
100
AcDbProxyObject
 90
      499
 91
      501
 93
      492
310
4411DBDD5C985D5915DA5D1A115919D95CD0340902404333333333333E33F0000000000000F90107409019070040501600405405064090741402480A1B50
1001
ACAD
1000
AcDbSavedByObjectVersion
1070
     0
  0
ACAD_PROXY_OBJECT
  5
31
102
{ACAD_REACTORS
330
2A
102
}
330
2A
100
AcDbProxyObject
 90
      499
 91
      501
 93
      476
310
41921A5919195B90640502408333333333333E33F0000000000000F901079024090700405020000000000001110200405405064090740C02480A0340
1001
ACAD
1000
AcDbSavedByObjectVersion
1070
     0
  0
ACAD_PROXY_OBJECT
  5
3B
102
{ACAD_REACTORS
330
2A
102
}
330
2A
100
AcDbProxyObject
 90
      499
 91
      501
 93
      428
310
42529A5D1D195C93D999914409028333333333333E33F0000000000000F9010790141107004050150A41D405064090741402480A0350
1001
ACAD
1000
AcDbSavedByObjectVersion
1070
     0
  0
ACAD_PROXY_OBJECT
  5
38
102
{ACAD_REACTORS
330
2A
102
}
330
2A
100
AcDbProxyObject
 90
      499
 91
      501
 93
      444
310
42D31A5B995C185D1D195C9B90E409028333333333333E33F0000000000000F9010790141107004050750841D405064090741402483A0350
1001
ACAD
1000
AcDbSavedByObjectVersion
1070
     0
  0
ACAD_PROXY_OBJECT
  5
3C
102
{ACAD_REACTORS
330
2A
102
}
330
2A
100
AcDbProxyObject
 90
      499
 91
      501
 93
      444
310
42D3DD995C9A185B99D3D999915409028333333333333E33F0000000000000F9010790141107004050150941D405064090741402480A0350
1001
ACAD
1000
AcDbSavedByObjectVersion
1070
     0
  0
ACAD_PROXY_OBJECT
  5
33
102
{ACAD_REACTORS
330
2A
102
}
330
2A
100
AcDbProxyObject
 90
      499
 91
      501
 93
      428
310
425499585B1A5CDD1A58D08409038333333333333E33F0000000000000F9010740A907004050150800405405064090740C02480A1B40
1001
ACAD
1000
AcDbSavedByObjectVersion
1070
     0
  0
ACAD_PROXY_OBJECT
  5
42
102
{ACAD_REACTORS
330
2A
102
}
330
2A
100
AcDbProxyObject
 90
      499
 91
      501
 93
      420
310
4194DA1859195911B40902404333333333333E33F0000000000000F9010740A41107004050150800405405064090840C02480A0B40
1001
ACAD
1000
AcDbSavedByObjectVersion
1070
     0
  0
ACAD_PROXY_OBJECT
  5
41
102
{ACAD_REACTORS
330
2A
102
}
330
2A
100
AcDbProxyObject
 90
      499
 91
      501
 93
      516
310
4454DA18591959081DDA5D1A08195919D95CD1A40902404333333333333E33F0000000000000F901074090142907004050250800405405064090740C02480A0B40
1001
ACAD
1000
AcDbSavedByObjectVersion
1070
     0
  0
ACAD_PROXY_OBJECT
  5
3E
102
{ACAD_REACTORS
330
2A
102
}
330
2A
100
AcDbProxyObject
 90
      499
 91
      501
 93
      532
310
4394DA1859195CC81BD98811DC985E5174090240C333333333333E33F0000000000000F901079024090741D01000000000000111010841D405064090740C02480A0340
1001
ACAD
1000
AcDbSavedByObjectVersion
1070
     0
  0
ACAD_PROXY_OBJECT
  5
3F
102
{ACAD_REACTORS
330
2A
102
}
330
2A
100
AcDbProxyObject
 90
      499
 91
      501
 93
      476
310
41D4DAD95D18DA1E51840502408333333333333E33F0000000000000F901079024090741D01000000000000111010B41D405064090741802480A0340
1001
ACAD
1000
AcDbSavedByObjectVersion
1070
     0
  0
ACAD_PROXY_OBJECT
  5
37
102
{ACAD_REACTORS
330
2A
102
}
330
2A
100
AcDbProxyObject
 90
      499
 91
      501
 93
      412
310
41D51A1A58DAD95B90D409028333333333333E33F0000000000000F9010790141107004050150C41D405064090741402480A0350
1001
ACAD
1000
AcDbSavedByObjectVersion
1070
     0
  0
ACAD_PROXY_OBJECT
  5
30
102
{ACAD_REACTORS
330
2A
102
}
330
2A
100
AcDbProxyObject
 90
      499
 91
      501
 93
      420
310
4255DA5C99599C985B595059028333333333333E33F0000000000000F90107901411070040501600405405064090740C02480A0340
1001
ACAD
1000
AcDbSavedByObjectVersion
1070
     0
  0
ACAD_PROXY_OBJECT
  5
40
102
{ACAD_REACTORS
330
2A
102
}
330
2A
100
AcDbProxyObject
 90
      499
 91
      501
 93
      404
310
41560B54985E51940902404000000000000E03F0000000000000F9010740501907004050150841D405064090740C02480A1B40
1001
ACAD
1000
AcDbSavedByObjectVersion
1070
     0
  0
XRECORD
  5
427
102
{ACAD_REACTORS
330
41D
102
}
330
41D
100
AcDbXrecord
340
0
  0
XRECORD
  5
426
102
{ACAD_REACTORS
330
41D
102
}
330
41D
100
AcDbXrecord
 90
        0
  0
XRECORD
  5
43D
102
{ACAD_REACTORS
330
41D
102
}
330
41D
100
AcDbXrecord
1000
DSTYLE
1002
{
1070
   340
340
11
1002
}
  0
XRECORD
  5
428
102
{ACAD_REACTORS
330
41D
102
}
330
41D
100
AcDbXrecord
  1
{9D6C005E-4996-4877-91D0-DE282703AF62}
  0
XRECORD
  5
420
102
{ACAD_REACTORS
330
41D
102
}
330
41D
100
AcDbXrecord
  1

  0
XRECORD
  5
425
102
{ACAD_REACTORS
330
41D
102
}
330
41D
100
AcDbXrecord
 90
        4
  0
XRECORD
  5
422
102
{ACAD_REACTORS
330
41D
102
}
330
41D
100
AcDbXrecord
340
1A
  0
XRECORD
  5
424
102
{ACAD_REACTORS
330
41D
102
}
330
41D
100
AcDbXrecord
 90
    10781
  0
XRECORD
  5
423
102
{ACAD_REACTORS
330
41D
102
}
330
41D
100
AcDbXrecord
340
19
  0
XRECORD
  5
42A
102
{ACAD_REACTORS
330
41D
102
}
330
41D
100
AcDbXrecord
 40
0.0
  0
XRECORD
  5
42D
102
{ACAD_REACTORS
330
41D
102
}
330
41D
100
AcDbXrecord
340
0
  0
XRECORD
  5
433
102
{ACAD_REACTORS
330
41D
102
}
330
41D
100
AcDbXrecord
 10
0.0
 20
0.0
 30
0.0
  0
XRECORD
  5
42F
102
{ACAD_REACTORS
330
41D
102
}
330
41D
100
AcDbXrecord
 10
0.0
 20
0.0
 30
0.0
  0
XRECORD
  5
432
102
{ACAD_REACTORS
330
41D
102
}
330
41D
100
AcDbXrecord
 10
0.0
 20
0.0
 30
0.0
  0
XRECORD
  5
430
102
{ACAD_REACTORS
330
41D
102
}
330
41D
100
AcDbXrecord
 10
0.0
 20
0.0
 30
0.0
  0
XRECORD
  5
431
102
{ACAD_REACTORS
330
41D
102
}
330
41D
100
AcDbXrecord
 10
0.0
 20
0.0
 30
0.0
  0
XRECORD
  5
42E
102
{ACAD_REACTORS
330
41D
102
}
330
41D
100
AcDbXrecord
 10
0.0
 20
0.0
 30
0.0
  0
XRECORD
  5
42B
102
{ACAD_REACTORS
330
41D
102
}
330
41D
100
AcDbXrecord
340
0
  0
XRECORD
  5
42C
102
{ACAD_REACTORS
330
41D
102
}
330
41D
100
AcDbXrecord
 70
     0
  0
XRECORD
  5
421
102
{ACAD_REACTORS
330
41D
102
}
330
41D
100
AcDbXrecord
  1

  0
XRECORD
  5
41E
102
{ACAD_REACTORS
330
41D
102
}
330
41D
100
AcDbXrecord
 90
        1
  0
XRECORD
  5
41F
102
{ACAD_REACTORS
330
41D
102
}
330
41D
100
AcDbXrecord
 90
       70
  0
XRECORD
  5
436
102
{ACAD_REACTORS
330
41D
102
}
330
41D
100
AcDbXrecord
340
0
  0
XRECORD
  5
43C
102
{ACAD_REACTORS
330
41D
102
}
330
41D
100
AcDbXrecord
 10
0.0
 20
0.0
 30
0.0
  0
XRECORD
  5
438
102
{ACAD_REACTORS
330
41D
102
}
330
41D
100
AcDbXrecord
 10
0.0
 20
0.0
 30
0.0
  0
XRECORD
  5
43B
102
{ACAD_REACTORS
330
41D
102
}
330
41D
100
AcDbXrecord
 10
0.0
 20
0.0
 30
0.0
  0
XRECORD
  5
439
102
{ACAD_REACTORS
330
41D
102
}
330
41D
100
AcDbXrecord
 10
0.0
 20
0.0
 30
0.0
  0
XRECORD
  5
43A
102
{ACAD_REACTORS
330
41D
102
}
330
41D
100
AcDbXrecord
 10
0.0
 20
0.0
 30
0.0
  0
XRECORD
  5
437
102
{ACAD_REACTORS
330
41D
102
}
330
41D
100
AcDbXrecord
 10
0.0
 20
0.0
 30
0.0
  0
XRECORD
  5
434
102
{ACAD_REACTORS
330
41D
102
}
330
41D
100
AcDbXrecord
340
0
  0
XRECORD
  5
435
102
{ACAD_REACTORS
330
41D
102
}
330
41D
100
AcDbXrecord
 70
     0
  0
XRECORD
  5
429
102
{ACAD_REACTORS
330
41D
102
}
330
41D
100
AcDbXrecord
  1
{FAEB1C32-E019-11D5-929B-00C0DF256EC4}
  0
DICTIONARYVAR
  5
449
102
{ACAD_REACTORS
330
43E
102
}
330
43E
100
DictionaryVariables
280
     0
  1
1:1
  0
DICTIONARYVAR
  5
440
102
{ACAD_REACTORS
330
43E
102
}
330
43E
100
DictionaryVariables
280
     0
  1
Standard
  0
DICTIONARYVAR
  5
43F
102
{ACAD_REACTORS
330
43E
102
}
330
43E
100
DictionaryVariables
280
     0
  1
Standard
  0
DICTIONARYVAR
  5
445
102
{ACAD_REACTORS
330
43E
102
}
330
43E
100
DictionaryVariables
280
     0
  1
2
  0
DICTIONARYVAR
  5
446
102
{ACAD_REACTORS
330
43E
102
}
330
43E
100
DictionaryVariables
280
     0
  1
1
  0
DICTIONARYVAR
  5
44A
102
{ACAD_REACTORS
330
43E
102
}
330
43E
100
DictionaryVariables
280
     0
  1
1
  0
DICTIONARYVAR
  5
442
102
{ACAD_REACTORS
330
43E
102
}
330
43E
100
DictionaryVariables
280
     0
  1
80.000000
  0
DICTIONARYVAR
  5
441
102
{ACAD_REACTORS
330
43E
102
}
330
43E
100
DictionaryVariables
280
     0
  1
5.000000
  0
DICTIONARY
  5
44D
330
45
100
AcDbDictionary
280
     1
  3
ACAD_XREC_ROUNDTRIP
360
44E
  0
DICTIONARY
  5
44B
330
44
100
AcDbDictionary
280
     1
  3
ACAD_XREC_ROUNDTRIP
360
44C
  0
DICTIONARY
  5
44F
330
46
100
AcDbDictionary
280
     1
  3
ACAD_XREC_ROUNDTRIP
360
450
  0
XRECORD
  5
44E
102
{ACAD_REACTORS
330
44D
102
}
330
44D
100
AcDbXrecord
102
MATERIAL
148
0.0
149
0.0
149
0.0
 93
        0
 94
      127
282
     0
 72
     1
 77
     1
171
     1
175
     1
179
     1
273
     0
  0
XRECORD
  5
44C
102
{ACAD_REACTORS
330
44B
102
}
330
44B
100
AcDbXrecord
102
MATERIAL
148
0.0
149
0.0
149
0.0
 93
        0
 94
      127
282
     0
 72
     1
 77
     1
171
     1
175
     1
179
     1
273
     0
  0
XRECORD
  5
450
102
{ACAD_REACTORS
330
44F
102
}
330
44F
100
AcDbXrecord
102
MATERIAL
148
0.0
149
0.0
149
0.0
 93
        0
 94
      127
282
     0
 72
     1
 77
     1
171
     1
175
     1
179
     1
273
     0
  0
ENDSEC
  0
EOF
