  0
SECTION
  2
HEADER
  9
$ACADVER
  1
AC1014
  9
$ACADMAINTVER
 70
     9
  9
$DWGCODEPAGE
  3
ANSI_932
  9
$INSBASE
 10
0.0
 20
0.0
 30
0.0
  9
$EXTMIN
 10
36.0
 20
30.0
 30
0.0
  9
$EXTMAX
 10
1746.0
 20
1230.0
 30
0.0
  9
$LIMMIN
 10
0.0
 20
0.0
  9
$LIMMAX
 10
594.0
 20
420.0
  9
$ORTHOMODE
 70
     0
  9
$REGENMODE
 70
     1
  9
$FILLMODE
 70
     1
  9
$QTEXTMODE
 70
     0
  9
$MIRRTEXT
 70
     1
  9
$DRAGMODE
 70
     2
  9
$LTSCALE
 40
1.0
  9
$OSMODE
 70
    37
  9
$ATTMODE
 70
     1
  9
$TEXTSIZE
 40
2.5
  9
$TRACEWID
 40
1.0
  9
$TEXTSTYLE
  7
STANDARD
  9
$CLAYER
  8
DP-350_0_15_大阪支店
  9
$CELTYPE
  6
BYLAYER
  9
$CECOLOR
 62
   256
  9
$CELTSCALE
 40
1.0
  9
$DELOBJ
 70
     1
  9
$DISPSILH
 70
     0
  9
$DIMSCALE
 40
1.0
  9
$DIMASZ
 40
2.5
  9
$DIMEXO
 40
0.625
  9
$DIMDLI
 40
3.75
  9
$DIMRND
 40
0.0
  9
$DIMDLE
 40
0.0
  9
$DIMEXE
 40
1.25
  9
$DIMTP
 40
0.0
  9
$DIMTM
 40
0.0
  9
$DIMTXT
 40
2.5
  9
$DIMCEN
 40
2.5
  9
$DIMTSZ
 40
0.0
  9
$DIMTOL
 70
     0
  9
$DIMLIM
 70
     0
  9
$DIMTIH
 70
     0
  9
$DIMTOH
 70
     0
  9
$DIMSE1
 70
     0
  9
$DIMSE2
 70
     0
  9
$DIMTAD
 70
     1
  9
$DIMZIN
 70
     8
  9
$DIMBLK
  1

  9
$DIMASO
 70
     1
  9
$DIMSHO
 70
     1
  9
$DIMPOST
  1

  9
$DIMAPOST
  1

  9
$DIMALT
 70
     0
  9
$DIMALTD
 70
     3
  9
$DIMALTF
 40
0.03937007874016
  9
$DIMLFAC
 40
1.0
  9
$DIMTOFL
 70
     1
  9
$DIMTVP
 40
0.0
  9
$DIMTIX
 70
     0
  9
$DIMSOXD
 70
     0
  9
$DIMSAH
 70
     0
  9
$DIMBLK1
  1

  9
$DIMBLK2
  1

  9
$DIMSTYLE
  2
ISO-25
  9
$DIMCLRD
 70
     0
  9
$DIMCLRE
 70
     0
  9
$DIMCLRT
 70
     0
  9
$DIMTFAC
 40
1.0
  9
$DIMGAP
 40
0.625
  9
$DIMJUST
 70
     0
  9
$DIMSD1
 70
     0
  9
$DIMSD2
 70
     0
  9
$DIMTOLJ
 70
     0
  9
$DIMTZIN
 70
     8
  9
$DIMALTZ
 70
     0
  9
$DIMALTTZ
 70
     0
  9
$DIMFIT
 70
     3
  9
$DIMUPT
 70
     0
  9
$DIMUNIT
 70
     2
  9
$DIMDEC
 70
     2
  9
$DIMTDEC
 70
     2
  9
$DIMALTU
 70
     2
  9
$DIMALTTD
 70
     3
  9
$DIMTXSTY
  7
STANDARD
  9
$DIMAUNIT
 70
     0
  9
$LUNITS
 70
     2
  9
$LUPREC
 70
     4
  9
$SKETCHINC
 40
1.0
  9
$FILLETRAD
 40
10.0
  9
$AUNITS
 70
     0
  9
$AUPREC
 70
     0
  9
$MENU
  1
.
  9
$ELEVATION
 40
0.0
  9
$PELEVATION
 40
0.0
  9
$THICKNESS
 40
0.0
  9
$LIMCHECK
 70
     0
  9
$CHAMFERA
 40
0.0
  9
$CHAMFERB
 40
0.0
  9
$CHAMFERC
 40
0.0
  9
$CHAMFERD
 40
0.0
  9
$SKPOLY
 70
     0
  9
$TDCREATE
 40
2457806.6512936
  9
$TDUPDATE
 40
2457806.651293785
  9
$TDINDWG
 40
0.0000000116
  9
$TDUSRTIMER
 40
0.0000000116
  9
$USRTIMER
 70
     1
  9
$ANGBASE
 50
0.0
  9
$ANGDIR
 70
     0
  9
$PDMODE
 70
     0
  9
$PDSIZE
 40
0.0
  9
$PLINEWID
 40
0.0
  9
$COORDS
 70
     1
  9
$SPLFRAME
 70
     0
  9
$SPLINETYPE
 70
     6
  9
$SPLINESEGS
 70
     8
  9
$ATTDIA
 70
     0
  9
$ATTREQ
 70
     1
  9
$HANDLING
 70
     1
  9
$HANDSEED
  5
5D3
  9
$SURFTAB1
 70
     6
  9
$SURFTAB2
 70
     6
  9
$SURFTYPE
 70
     6
  9
$SURFU
 70
     6
  9
$SURFV
 70
     6
  9
$UCSNAME
  2

  9
$UCSORG
 10
0.0
 20
0.0
 30
0.0
  9
$UCSXDIR
 10
1.0
 20
0.0
 30
0.0
  9
$UCSYDIR
 10
0.0
 20
1.0
 30
0.0
  9
$PUCSNAME
  2

  9
$PUCSORG
 10
0.0
 20
0.0
 30
0.0
  9
$PUCSXDIR
 10
1.0
 20
0.0
 30
0.0
  9
$PUCSYDIR
 10
0.0
 20
1.0
 30
0.0
  9
$USERI1
 70
     0
  9
$USERI2
 70
     0
  9
$USERI3
 70
     0
  9
$USERI4
 70
     0
  9
$USERI5
 70
     0
  9
$USERR1
 40
0.0
  9
$USERR2
 40
0.0
  9
$USERR3
 40
0.0
  9
$USERR4
 40
0.0
  9
$USERR5
 40
0.0
  9
$WORLDVIEW
 70
     1
  9
$SHADEDGE
 70
     3
  9
$SHADEDIF
 70
    70
  9
$TILEMODE
 70
     1
  9
$MAXACTVP
 70
    64
  9
$PINSBASE
 10
0.0
 20
0.0
 30
0.0
  9
$PLIMCHECK
 70
     0
  9
$PEXTMIN
 10
1.000000000000000E+20
 20
1.000000000000000E+20
 30
1.000000000000000E+20
  9
$PEXTMAX
 10
-1.000000000000000E+20
 20
-1.000000000000000E+20
 30
-1.000000000000000E+20
  9
$PLIMMIN
 10
0.0
 20
0.0
  9
$PLIMMAX
 10
420.0
 20
297.0
  9
$UNITMODE
 70
     0
  9
$VISRETAIN
 70
     1
  9
$PLINEGEN
 70
     0
  9
$PSLTSCALE
 70
     1
  9
$TREEDEPTH
 70
  3020
  9
$PICKSTYLE
 70
     1
  9
$CMLSTYLE
  2
STANDARD
  9
$CMLJUST
 70
     0
  9
$CMLSCALE
 40
20.0
  9
$PROXYGRAPHICS
 70
     1
  9
$MEASUREMENT
 70
     1
  0
ENDSEC
  0
SECTION
  2
CLASSES
  0
CLASS
  1
ACDBDICTIONARYWDFLT
  2
AcDbDictionaryWithDefault
  3
ObjectDBX Classes
 90
        0
280
     0
281
     0
  0
CLASS
  1
VISUALSTYLE
  2
AcDbVisualStyle
  3
ObjectDBX Classes
 90
     4095
280
     0
281
     0
  0
CLASS
  1
MATERIAL
  2
AcDbMaterial
  3
ObjectDBX Classes
 90
     1153
280
     0
281
     0
  0
CLASS
  1
SCALE
  2
AcDbScale
  3
ObjectDBX Classes
 90
     1153
280
     0
281
     0
  0
CLASS
  1
TABLESTYLE
  2
AcDbTableStyle
  3
ObjectDBX Classes
 90
     4095
280
     0
281
     0
  0
CLASS
  1
MLEADERSTYLE
  2
AcDbMLeaderStyle
  3
ACDB_MLEADERSTYLE_CLASS
 90
     4095
280
     0
281
     0
  0
CLASS
  1
SUN
  2
AcDbSun
  3
SCENEOE
 90
     1153
280
     0
281
     0
  0
CLASS
  1
DICTIONARYVAR
  2
AcDbDictionaryVar
  3
ObjectDBX Classes
 90
        0
280
     0
281
     0
  0
CLASS
  1
XRECORD
  2
AcDbXrecord
  3
ObjectDBX Classes
 90
        0
280
     0
281
     0
  0
CLASS
  1
LWPOLYLINE
  2
AcDbPolyline
  3
ObjectDBX Classes
 90
        0
280
     0
281
     1
  0
CLASS
  1
HATCH
  2
AcDbHatch
  3
ObjectDBX Classes
 90
        0
280
     0
281
     1
  0
CLASS
  1
ACDBPLACEHOLDER
  2
AcDbPlaceHolder
  3
ObjectDBX Classes
 90
        0
280
     0
281
     0
  0
CLASS
  1
LAYOUT
  2
AcDbLayout
  3
ObjectDBX Classes
 90
        0
280
     0
281
     0
  0
ENDSEC
  0
SECTION
  2
TABLES
  0
TABLE
  2
VPORT
  5
8
102
{ACAD_XDICTIONARY
360
5C8
102
}
330
0
100
AcDbSymbolTable
 70
     1
  0
VPORT
  5
29
330
8
100
AcDbSymbolTableRecord
100
AcDbViewportTableRecord
  2
*ACTIVE
 70
     0
 10
0.0
 20
0.0
 11
1.0
 21
1.0
 12
891.0
 22
630.0
 13
0.0
 23
0.0
 14
10.0
 24
10.0
 15
10.0
 25
10.0
 16
0.0
 26
0.0
 36
1.0
 17
0.0
 27
0.0
 37
0.0
 40
1200.0
 41
1.425
 42
50.0
 43
0.0
 44
0.0
 50
0.0
 51
0.0
 71
     0
 72
  1000
 73
     1
 74
     3
 75
     0
 76
     0
 77
     0
 78
     0
  0
ENDTAB
  0
TABLE
  2
LTYPE
  5
5
330
0
100
AcDbSymbolTable
 70
     7
  0
LTYPE
  5
14
330
5
100
AcDbSymbolTableRecord
100
AcDbLinetypeTableRecord
  2
BYBLOCK
 70
     0
  3

 72
    65
 73
     0
 40
0.0
  0
LTYPE
  5
15
330
5
100
AcDbSymbolTableRecord
100
AcDbLinetypeTableRecord
  2
BYLAYER
 70
     0
  3

 72
    65
 73
     0
 40
0.0
  0
LTYPE
  5
16
330
5
100
AcDbSymbolTableRecord
100
AcDbLinetypeTableRecord
  2
CONTINUOUS
 70
     0
  3
Solid line
 72
    65
 73
     0
 40
0.0
  0
LTYPE
  5
6E
330
5
100
AcDbSymbolTableRecord
100
AcDbLinetypeTableRecord
  2
EXLTYPE0
 70
     0
  3
破線
 72
    65
 73
     2
 40
2.5
 49
1.5
 74
     0
 49
-1.0
 74
     0
  0
LTYPE
  5
6F
330
5
100
AcDbSymbolTableRecord
100
AcDbLinetypeTableRecord
  2
EXLTYPE1
 70
     0
  3
点線
 72
    65
 73
     2
 40
2.0
 49
1.0
 74
     0
 49
-1.0
 74
     0
  0
LTYPE
  5
70
330
5
100
AcDbSymbolTableRecord
100
AcDbLinetypeTableRecord
  2
EXLTYPE2
 70
     0
  3
一点鎖線
 72
    65
 73
     4
 40
13.0
 49
10.0
 74
     0
 49
-1.0
 74
     0
 49
1.0
 74
     0
 49
-1.0
 74
     0
  0
LTYPE
  5
71
330
5
100
AcDbSymbolTableRecord
100
AcDbLinetypeTableRecord
  2
EXLTYPE3
 70
     0
  3
二点鎖線
 72
    65
 73
     6
 40
15.0
 49
10.0
 74
     0
 49
-1.0
 74
     0
 49
1.0
 74
     0
 49
-1.0
 74
     0
 49
1.0
 74
     0
 49
-1.0
 74
     0
  0
LTYPE
  5
72
330
5
100
AcDbSymbolTableRecord
100
AcDbLinetypeTableRecord
  2
EXLTYPE4
 70
     0
  3
三点鎖線
 72
    65
 73
     8
 40
37.0
 49
30.0
 74
     0
 49
-1.0
 74
     0
 49
1.0
 74
     0
 49
-1.0
 74
     0
 49
1.0
 74
     0
 49
-1.0
 74
     0
 49
1.0
 74
     0
 49
-1.0
 74
     0
  0
LTYPE
  5
73
330
5
100
AcDbSymbolTableRecord
100
AcDbLinetypeTableRecord
  2
EXLTYPE5
 70
     0
  3
四点鎖線
 72
    65
 73
    10
 40
39.0
 49
30.0
 74
     0
 49
-1.0
 74
     0
 49
1.0
 74
     0
 49
-1.0
 74
     0
 49
1.0
 74
     0
 49
-1.0
 74
     0
 49
1.0
 74
     0
 49
-1.0
 74
     0
 49
1.0
 74
     0
 49
-1.0
 74
     0
  0
ENDTAB
  0
TABLE
  2
LAYER
  5
2
330
0
100
AcDbSymbolTable
 70
     3
  0
LAYER
  5
10
330
2
100
AcDbSymbolTableRecord
100
AcDbLayerTableRecord
  2
0
 70
     0
 62
     7
  6
CONTINUOUS
  0
LAYER
  5
76
330
2
100
AcDbSymbolTableRecord
100
AcDbLayerTableRecord
  2
DP-350_0_15_大阪支店
 70
     0
 62
     7
  6
CONTINUOUS
  0
LAYER
  5
D5
330
2
100
AcDbSymbolTableRecord
100
AcDbLayerTableRecord
  2
DEFPOINTS
 70
     0
 62
     7
  6
CONTINUOUS
  0
ENDTAB
  0
TABLE
  2
STYLE
  5
3
330
0
100
AcDbSymbolTable
 70
     4
  0
STYLE
  5
11
330
3
100
AcDbSymbolTableRecord
100
AcDbTextStyleTableRecord
  2
STANDARD
 70
     0
 40
0.0
 41
1.0
 50
0.0
 71
     0
 42
2.5
  3
monotxt
  4
extfont
  0
STYLE
  5
74
330
3
100
AcDbSymbolTableRecord
100
AcDbTextStyleTableRecord
  2
EXCADSTD
 70
     0
 40
0.0
 41
1.0
 50
0.0
 71
     0
 42
2.5
  3
monotxt
  4
extfont
  0
STYLE
  5
75
330
3
100
AcDbSymbolTableRecord
100
AcDbTextStyleTableRecord
  2
EXCADVERT
 70
     4
 40
0.0
 41
1.0
 50
0.0
 71
     0
 42
2.5
  3
monotxt
  4
extfont
  0
STYLE
  5
D3
330
3
100
AcDbSymbolTableRecord
100
AcDbTextStyleTableRecord
  2
EXCADDIM1
 70
     0
 40
0.0
 41
0.84
 50
0.0
 71
     0
 42
2.5
  3
monotxt
  4
extfont
  0
ENDTAB
  0
TABLE
  2
VIEW
  5
6
330
0
100
AcDbSymbolTable
 70
     0
  0
ENDTAB
  0
TABLE
  2
UCS
  5
7
330
0
100
AcDbSymbolTable
 70
     0
  0
ENDTAB
  0
TABLE
  2
APPID
  5
9
330
0
100
AcDbSymbolTable
 70
     2
  0
APPID
  5
12
330
9
100
AcDbSymbolTableRecord
100
AcDbRegAppTableRecord
  2
ACAD
 70
     0
  0
APPID
  5
5D2
330
9
100
AcDbSymbolTableRecord
100
AcDbRegAppTableRecord
  2
ACAD_MLEADERVER
 70
     0
  0
ENDTAB
  0
TABLE
  2
DIMSTYLE
  5
A
330
0
100
AcDbSymbolTable
 70
     1
  0
DIMSTYLE
105
27
102
{ACAD_REACTORS
330
D4
330
E2
330
EF
330
FC
330
109
330
116
330
123
330
130
330
13D
330
14D
330
15A
330
167
330
174
330
181
330
18E
330
19B
330
1AC
330
1B9
330
1C6
330
1D4
330
1E4
330
1F2
330
200
330
211
330
21E
102
}
330
A
100
AcDbSymbolTableRecord
100
AcDbDimStyleTableRecord
  2
ISO-25
 70
     0
  3

  4

  5

  6

  7

 40
1.0
 41
2.5
 42
0.625
 43
3.75
 44
1.25
 45
0.0
 46
0.0
 47
0.0
 48
0.0
140
2.5
141
2.5
142
0.0
143
0.03937007874016
144
1.0
145
0.0
146
1.0
147
0.625
 71
     0
 72
     0
 73
     0
 74
     0
 75
     0
 76
     0
 77
     1
 78
     8
170
     0
171
     3
172
     1
173
     0
174
     0
175
     0
176
     0
177
     0
178
     0
270
     2
271
     2
272
     2
273
     2
274
     3
340
11
275
     0
280
     0
281
     0
282
     0
283
     0
284
     8
285
     0
286
     0
287
     5
288
     0
  0
ENDTAB
  0
TABLE
  2
BLOCK_RECORD
  5
1
330
0
100
AcDbSymbolTable
 70
    40
  0
BLOCK_RECORD
  5
1F
330
1
100
AcDbSymbolTableRecord
100
AcDbBlockTableRecord
  2
*MODEL_SPACE
  0
BLOCK_RECORD
  5
1B
330
1
100
AcDbSymbolTableRecord
100
AcDbBlockTableRecord
  2
*PAPER_SPACE
  0
BLOCK_RECORD
  5
77
330
1
100
AcDbSymbolTableRecord
100
AcDbBlockTableRecord
  2
EX_NORM
  0
BLOCK_RECORD
  5
7A
330
1
100
AcDbSymbolTableRecord
100
AcDbBlockTableRecord
  2
EX_BNORM
  0
BLOCK_RECORD
  5
7D
330
1
100
AcDbSymbolTableRecord
100
AcDbBlockTableRecord
  2
EX_BCIR
  0
BLOCK_RECORD
  5
80
330
1
100
AcDbSymbolTableRecord
100
AcDbBlockTableRecord
  2
EX_RCIVIL
  0
BLOCK_RECORD
  5
83
330
1
100
AcDbSymbolTableRecord
100
AcDbBlockTableRecord
  2
EX_SLANT
  0
BLOCK_RECORD
  5
86
330
1
100
AcDbSymbolTableRecord
100
AcDbBlockTableRecord
  2
EX_NONE
  0
BLOCK_RECORD
  5
89
330
1
100
AcDbSymbolTableRecord
100
AcDbBlockTableRecord
  2
EX_CIVIL
  0
BLOCK_RECORD
  5
8C
330
1
100
AcDbSymbolTableRecord
100
AcDbBlockTableRecord
  2
EX_WCIR
  0
BLOCK_RECORD
  5
8F
330
1
100
AcDbSymbolTableRecord
100
AcDbBlockTableRecord
  2
EX_WCIR2
  0
BLOCK_RECORD
  5
92
330
1
100
AcDbSymbolTableRecord
100
AcDbBlockTableRecord
  2
EX_WNORM
  0
BLOCK_RECORD
  5
95
330
1
100
AcDbSymbolTableRecord
100
AcDbBlockTableRecord
  2
EX_NNORM
  0
BLOCK_RECORD
  5
98
330
1
100
AcDbSymbolTableRecord
100
AcDbBlockTableRecord
  2
EX_BBOX
  0
BLOCK_RECORD
  5
9B
330
1
100
AcDbSymbolTableRecord
100
AcDbBlockTableRecord
  2
EX_WBOX
  0
BLOCK_RECORD
  5
9E
330
1
100
AcDbSymbolTableRecord
100
AcDbBlockTableRecord
  2
EX_INTEGRAL
  0
BLOCK_RECORD
  5
D6
330
1
100
AcDbSymbolTableRecord
100
AcDbBlockTableRecord
  2
*D15
  0
BLOCK_RECORD
  5
E3
330
1
100
AcDbSymbolTableRecord
100
AcDbBlockTableRecord
  2
*D16
  0
BLOCK_RECORD
  5
F0
330
1
100
AcDbSymbolTableRecord
100
AcDbBlockTableRecord
  2
*D17
  0
BLOCK_RECORD
  5
FD
330
1
100
AcDbSymbolTableRecord
100
AcDbBlockTableRecord
  2
*D18
  0
BLOCK_RECORD
  5
10A
330
1
100
AcDbSymbolTableRecord
100
AcDbBlockTableRecord
  2
*D19
  0
BLOCK_RECORD
  5
117
330
1
100
AcDbSymbolTableRecord
100
AcDbBlockTableRecord
  2
*D20
  0
BLOCK_RECORD
  5
124
330
1
100
AcDbSymbolTableRecord
100
AcDbBlockTableRecord
  2
*D21
  0
BLOCK_RECORD
  5
131
330
1
100
AcDbSymbolTableRecord
100
AcDbBlockTableRecord
  2
*D22
  0
BLOCK_RECORD
  5
13E
330
1
100
AcDbSymbolTableRecord
100
AcDbBlockTableRecord
  2
*D23
  0
BLOCK_RECORD
  5
14E
330
1
100
AcDbSymbolTableRecord
100
AcDbBlockTableRecord
  2
*D24
  0
BLOCK_RECORD
  5
15B
330
1
100
AcDbSymbolTableRecord
100
AcDbBlockTableRecord
  2
*D25
  0
BLOCK_RECORD
  5
168
330
1
100
AcDbSymbolTableRecord
100
AcDbBlockTableRecord
  2
*D26
  0
BLOCK_RECORD
  5
175
330
1
100
AcDbSymbolTableRecord
100
AcDbBlockTableRecord
  2
*D27
  0
BLOCK_RECORD
  5
182
330
1
100
AcDbSymbolTableRecord
100
AcDbBlockTableRecord
  2
*D28
  0
BLOCK_RECORD
  5
18F
330
1
100
AcDbSymbolTableRecord
100
AcDbBlockTableRecord
  2
*D29
  0
BLOCK_RECORD
  5
19C
330
1
100
AcDbSymbolTableRecord
100
AcDbBlockTableRecord
  2
*D30
  0
BLOCK_RECORD
  5
1AD
330
1
100
AcDbSymbolTableRecord
100
AcDbBlockTableRecord
  2
*D31
  0
BLOCK_RECORD
  5
1BA
330
1
100
AcDbSymbolTableRecord
100
AcDbBlockTableRecord
  2
*D32
  0
BLOCK_RECORD
  5
1C7
330
1
100
AcDbSymbolTableRecord
100
AcDbBlockTableRecord
  2
*D33
  0
BLOCK_RECORD
  5
1D5
330
1
100
AcDbSymbolTableRecord
100
AcDbBlockTableRecord
  2
*D34
  0
BLOCK_RECORD
  5
1E5
330
1
100
AcDbSymbolTableRecord
100
AcDbBlockTableRecord
  2
*D35
  0
BLOCK_RECORD
  5
1F3
330
1
100
AcDbSymbolTableRecord
100
AcDbBlockTableRecord
  2
*D36
  0
BLOCK_RECORD
  5
201
330
1
100
AcDbSymbolTableRecord
100
AcDbBlockTableRecord
  2
*D37
  0
BLOCK_RECORD
  5
212
330
1
100
AcDbSymbolTableRecord
100
AcDbBlockTableRecord
  2
*D38
  0
BLOCK_RECORD
  5
21F
330
1
100
AcDbSymbolTableRecord
100
AcDbBlockTableRecord
  2
*D39
  0
ENDTAB
  0
ENDSEC
  0
SECTION
  2
BLOCKS
  0
BLOCK
  5
20
330
1F
100
AcDbEntity
  8
0
100
AcDbBlockBegin
  2
*MODEL_SPACE
 70
     0
 10
0.0
 20
0.0
 30
0.0
  3
*MODEL_SPACE
  1

  0
ENDBLK
  5
21
330
1F
100
AcDbEntity
  8
0
100
AcDbBlockEnd
  0
BLOCK
  5
1C
330
1B
100
AcDbEntity
 67
     1
  8
0
100
AcDbBlockBegin
  2
*PAPER_SPACE
 70
     0
 10
0.0
 20
0.0
 30
0.0
  3
*PAPER_SPACE
  1

  0
ENDBLK
  5
1D
330
1B
100
AcDbEntity
 67
     1
  8
0
100
AcDbBlockEnd
  0
BLOCK
  5
78
330
77
100
AcDbEntity
  8
0
100
AcDbBlockBegin
  2
EX_NORM
 70
     0
 10
0.0
 20
0.0
 30
0.0
  3
EX_NORM
  1

  0
LINE
  5
A1
330
77
100
AcDbEntity
  8
0
  6
CONTINUOUS
 62
     0
100
AcDbLine
 10
0.0
 20
0.0
 30
0.0
 11
-1.0
 21
0.0
 31
0.0
  0
LINE
  5
A2
330
77
100
AcDbEntity
  8
0
  6
CONTINUOUS
 62
     0
100
AcDbLine
 10
0.0
 20
0.0
 30
0.0
 11
-1.0
 21
0.166666667
 31
0.0
  0
LINE
  5
A3
330
77
100
AcDbEntity
  8
0
  6
CONTINUOUS
 62
     0
100
AcDbLine
 10
0.0
 20
0.0
 30
0.0
 11
-1.0
 21
-0.166666667
 31
0.0
  0
ENDBLK
  5
79
330
77
100
AcDbEntity
  8
0
100
AcDbBlockEnd
  0
BLOCK
  5
7B
330
7A
100
AcDbEntity
  8
0
100
AcDbBlockBegin
  2
EX_BNORM
 70
     0
 10
0.0
 20
0.0
 30
0.0
  3
EX_BNORM
  1

  0
LINE
  5
A4
330
7A
100
AcDbEntity
  8
0
  6
CONTINUOUS
 62
     0
100
AcDbLine
 10
0.0
 20
0.0
 30
0.0
 11
-1.0
 21
0.0
 31
0.0
  0
LINE
  5
A5
330
7A
100
AcDbEntity
  8
0
  6
CONTINUOUS
 62
     0
100
AcDbLine
 10
0.0
 20
0.0
 30
0.0
 11
-1.0
 21
0.166666667
 31
0.0
  0
LINE
  5
A6
330
7A
100
AcDbEntity
  8
0
  6
CONTINUOUS
 62
     0
100
AcDbLine
 10
0.0
 20
0.0
 30
0.0
 11
-1.0
 21
-0.166666667
 31
0.0
  0
LINE
  5
A7
330
7A
100
AcDbEntity
  8
0
  6
CONTINUOUS
 62
     0
100
AcDbLine
 10
0.0
 20
0.0
 30
0.0
 11
-1.0
 21
0.083333333
 31
0.0
  0
LINE
  5
A8
330
7A
100
AcDbEntity
  8
0
  6
CONTINUOUS
 62
     0
100
AcDbLine
 10
0.0
 20
0.0
 30
0.0
 11
-1.0
 21
-0.083333333
 31
0.0
  0
LINE
  5
A9
330
7A
100
AcDbEntity
  8
0
  6
CONTINUOUS
 62
     0
100
AcDbLine
 10
-1.0
 20
0.166666667
 30
0.0
 11
-1.0
 21
-0.166666667
 31
0.0
  0
ENDBLK
  5
7C
330
7A
100
AcDbEntity
  8
0
100
AcDbBlockEnd
  0
BLOCK
  5
7E
330
7D
100
AcDbEntity
  8
0
100
AcDbBlockBegin
  2
EX_BCIR
 70
     0
 10
0.0
 20
0.0
 30
0.0
  3
EX_BCIR
  1

  0
LINE
  5
AA
330
7D
100
AcDbEntity
  8
0
  6
CONTINUOUS
 62
     0
100
AcDbLine
 10
0.0
 20
0.0
 30
0.0
 11
-1.0
 21
0.0
 31
0.0
  0
CIRCLE
  5
AB
330
7D
100
AcDbEntity
  8
0
  6
CONTINUOUS
 62
     0
100
AcDbCircle
 10
0.0
 20
0.0
 30
0.0
 40
0.5
  0
CIRCLE
  5
AC
330
7D
100
AcDbEntity
  8
0
  6
CONTINUOUS
 62
     0
100
AcDbCircle
 10
0.0
 20
0.0
 30
0.0
 40
0.25
  0
ENDBLK
  5
7F
330
7D
100
AcDbEntity
  8
0
100
AcDbBlockEnd
  0
BLOCK
  5
81
330
80
100
AcDbEntity
  8
0
100
AcDbBlockBegin
  2
EX_RCIVIL
 70
     0
 10
0.0
 20
0.0
 30
0.0
  3
EX_RCIVIL
  1

  0
LINE
  5
AD
330
80
100
AcDbEntity
  8
0
  6
CONTINUOUS
 62
     0
100
AcDbLine
 10
0.0
 20
0.0
 30
0.0
 11
-1.0
 21
0.0
 31
0.0
  0
LINE
  5
AE
330
80
100
AcDbEntity
  8
0
  6
CONTINUOUS
 62
     0
100
AcDbLine
 10
-1.0
 20
-0.25
 30
0.0
 11
0.0
 21
-0.25
 31
0.0
  0
LINE
  5
AF
330
80
100
AcDbEntity
  8
0
  6
CONTINUOUS
 62
     0
100
AcDbLine
 10
-1.0
 20
-0.125
 30
0.0
 11
0.0
 21
-0.125
 31
0.0
  0
ENDBLK
  5
82
330
80
100
AcDbEntity
  8
0
100
AcDbBlockEnd
  0
BLOCK
  5
84
330
83
100
AcDbEntity
  8
0
100
AcDbBlockBegin
  2
EX_SLANT
 70
     0
 10
0.0
 20
0.0
 30
0.0
  3
EX_SLANT
  1

  0
LINE
  5
B0
330
83
100
AcDbEntity
  8
0
  6
CONTINUOUS
 62
     0
100
AcDbLine
 10
0.0
 20
0.0
 30
0.0
 11
-1.0
 21
0.0
 31
0.0
  0
LINE
  5
B1
330
83
100
AcDbEntity
  8
0
  6
CONTINUOUS
 62
     0
100
AcDbLine
 10
0.707106781
 20
0.707106781
 30
0.0
 11
-0.707106781
 21
-0.707106781
 31
0.0
  0
ENDBLK
  5
85
330
83
100
AcDbEntity
  8
0
100
AcDbBlockEnd
  0
BLOCK
  5
87
330
86
100
AcDbEntity
  8
0
100
AcDbBlockBegin
  2
EX_NONE
 70
     0
 10
0.0
 20
0.0
 30
0.0
  3
EX_NONE
  1

  0
LINE
  5
B2
330
86
100
AcDbEntity
  8
0
  6
CONTINUOUS
 62
     0
100
AcDbLine
 10
0.0
 20
0.0
 30
0.0
 11
-1.0
 21
0.0
 31
0.0
  0
ENDBLK
  5
88
330
86
100
AcDbEntity
  8
0
100
AcDbBlockEnd
  0
BLOCK
  5
8A
330
89
100
AcDbEntity
  8
0
100
AcDbBlockBegin
  2
EX_CIVIL
 70
     0
 10
0.0
 20
0.0
 30
0.0
  3
EX_CIVIL
  1

  0
LINE
  5
B3
330
89
100
AcDbEntity
  8
0
  6
CONTINUOUS
 62
     0
100
AcDbLine
 10
0.0
 20
0.0
 30
0.0
 11
-1.0
 21
0.0
 31
0.0
  0
LINE
  5
B4
330
89
100
AcDbEntity
  8
0
  6
CONTINUOUS
 62
     0
100
AcDbLine
 10
-1.0
 20
0.25
 30
0.0
 11
0.0
 21
0.25
 31
0.0
  0
LINE
  5
B5
330
89
100
AcDbEntity
  8
0
  6
CONTINUOUS
 62
     0
100
AcDbLine
 10
-1.0
 20
0.125
 30
0.0
 11
0.0
 21
0.125
 31
0.0
  0
ENDBLK
  5
8B
330
89
100
AcDbEntity
  8
0
100
AcDbBlockEnd
  0
BLOCK
  5
8D
330
8C
100
AcDbEntity
  8
0
100
AcDbBlockBegin
  2
EX_WCIR
 70
     0
 10
0.0
 20
0.0
 30
0.0
  3
EX_WCIR
  1

  0
LINE
  5
B6
330
8C
100
AcDbEntity
  8
0
  6
CONTINUOUS
 62
     0
100
AcDbLine
 10
0.0
 20
0.0
 30
0.0
 11
-1.0
 21
0.0
 31
0.0
  0
CIRCLE
  5
B7
330
8C
100
AcDbEntity
  8
0
  6
CONTINUOUS
 62
     0
100
AcDbCircle
 10
0.0
 20
0.0
 30
0.0
 40
0.5
  0
ENDBLK
  5
8E
330
8C
100
AcDbEntity
  8
0
100
AcDbBlockEnd
  0
BLOCK
  5
90
330
8F
100
AcDbEntity
  8
0
100
AcDbBlockBegin
  2
EX_WCIR2
 70
     0
 10
0.0
 20
0.0
 30
0.0
  3
EX_WCIR2
  1

  0
LINE
  5
B8
330
8F
100
AcDbEntity
  8
0
  6
CONTINUOUS
 62
     0
100
AcDbLine
 10
-0.5
 20
0.0
 30
0.0
 11
-1.0
 21
0.0
 31
0.0
  0
CIRCLE
  5
B9
330
8F
100
AcDbEntity
  8
0
  6
CONTINUOUS
 62
     0
100
AcDbCircle
 10
0.0
 20
0.0
 30
0.0
 40
0.5
  0
ENDBLK
  5
91
330
8F
100
AcDbEntity
  8
0
100
AcDbBlockEnd
  0
BLOCK
  5
93
330
92
100
AcDbEntity
  8
0
100
AcDbBlockBegin
  2
EX_WNORM
 70
     0
 10
0.0
 20
0.0
 30
0.0
  3
EX_WNORM
  1

  0
LINE
  5
BA
330
92
100
AcDbEntity
  8
0
  6
CONTINUOUS
 62
     0
100
AcDbLine
 10
-1.0
 20
0.0
 30
0.0
 11
-1.0
 21
0.0
 31
0.0
  0
LINE
  5
BB
330
92
100
AcDbEntity
  8
0
  6
CONTINUOUS
 62
     0
100
AcDbLine
 10
0.0
 20
0.0
 30
0.0
 11
-1.0
 21
0.166666667
 31
0.0
  0
LINE
  5
BC
330
92
100
AcDbEntity
  8
0
  6
CONTINUOUS
 62
     0
100
AcDbLine
 10
0.0
 20
0.0
 30
0.0
 11
-1.0
 21
-0.166666667
 31
0.0
  0
LINE
  5
BD
330
92
100
AcDbEntity
  8
0
  6
CONTINUOUS
 62
     0
100
AcDbLine
 10
-1.0
 20
0.166666667
 30
0.0
 11
-1.0
 21
-0.166666667
 31
0.0
  0
ENDBLK
  5
94
330
92
100
AcDbEntity
  8
0
100
AcDbBlockEnd
  0
BLOCK
  5
96
330
95
100
AcDbEntity
  8
0
100
AcDbBlockBegin
  2
EX_NNORM
 70
     0
 10
0.0
 20
0.0
 30
0.0
  3
EX_NNORM
  1

  0
LINE
  5
BE
330
95
100
AcDbEntity
  8
0
  6
CONTINUOUS
 62
     0
100
AcDbLine
 10
0.0
 20
0.0
 30
0.0
 11
-1.0
 21
0.0
 31
0.0
  0
LINE
  5
BF
330
95
100
AcDbEntity
  8
0
  6
CONTINUOUS
 62
     0
100
AcDbLine
 10
0.0
 20
0.0
 30
0.0
 11
-1.0
 21
0.166666667
 31
0.0
  0
LINE
  5
C0
330
95
100
AcDbEntity
  8
0
  6
CONTINUOUS
 62
     0
100
AcDbLine
 10
0.0
 20
0.0
 30
0.0
 11
-1.0
 21
-0.166666667
 31
0.0
  0
LINE
  5
C1
330
95
100
AcDbEntity
  8
0
  6
CONTINUOUS
 62
     0
100
AcDbLine
 10
-1.0
 20
0.166666667
 30
0.0
 11
-1.0
 21
-0.166666667
 31
0.0
  0
ENDBLK
  5
97
330
95
100
AcDbEntity
  8
0
100
AcDbBlockEnd
  0
BLOCK
  5
99
330
98
100
AcDbEntity
  8
0
100
AcDbBlockBegin
  2
EX_BBOX
 70
     0
 10
0.0
 20
0.0
 30
0.0
  3
EX_BBOX
  1

  0
LINE
  5
C2
330
98
100
AcDbEntity
  8
0
  6
CONTINUOUS
 62
     0
100
AcDbLine
 10
0.0
 20
0.0
 30
0.0
 11
-1.0
 21
0.0
 31
0.0
  0
LINE
  5
C3
330
98
100
AcDbEntity
  8
0
  6
CONTINUOUS
 62
     0
100
AcDbLine
 10
-0.5
 20
0.5
 30
0.0
 11
0.5
 21
0.5
 31
0.0
  0
LINE
  5
C4
330
98
100
AcDbEntity
  8
0
  6
CONTINUOUS
 62
     0
100
AcDbLine
 10
0.5
 20
0.5
 30
0.0
 11
0.5
 21
-0.5
 31
0.0
  0
LINE
  5
C5
330
98
100
AcDbEntity
  8
0
  6
CONTINUOUS
 62
     0
100
AcDbLine
 10
0.5
 20
-0.5
 30
0.0
 11
-0.5
 21
-0.5
 31
0.0
  0
LINE
  5
C6
330
98
100
AcDbEntity
  8
0
  6
CONTINUOUS
 62
     0
100
AcDbLine
 10
-0.5
 20
-0.5
 30
0.0
 11
-0.5
 21
0.5
 31
0.0
  0
LINE
  5
C7
330
98
100
AcDbEntity
  8
0
  6
CONTINUOUS
 62
     0
100
AcDbLine
 10
-0.25
 20
0.25
 30
0.0
 11
0.25
 21
0.25
 31
0.0
  0
LINE
  5
C8
330
98
100
AcDbEntity
  8
0
  6
CONTINUOUS
 62
     0
100
AcDbLine
 10
0.25
 20
0.25
 30
0.0
 11
0.25
 21
-0.25
 31
0.0
  0
LINE
  5
C9
330
98
100
AcDbEntity
  8
0
  6
CONTINUOUS
 62
     0
100
AcDbLine
 10
0.25
 20
-0.25
 30
0.0
 11
-0.25
 21
-0.25
 31
0.0
  0
LINE
  5
CA
330
98
100
AcDbEntity
  8
0
  6
CONTINUOUS
 62
     0
100
AcDbLine
 10
-0.25
 20
-0.25
 30
0.0
 11
-0.25
 21
0.25
 31
0.0
  0
ENDBLK
  5
9A
330
98
100
AcDbEntity
  8
0
100
AcDbBlockEnd
  0
BLOCK
  5
9C
330
9B
100
AcDbEntity
  8
0
100
AcDbBlockBegin
  2
EX_WBOX
 70
     0
 10
0.0
 20
0.0
 30
0.0
  3
EX_WBOX
  1

  0
LINE
  5
CB
330
9B
100
AcDbEntity
  8
0
  6
CONTINUOUS
 62
     0
100
AcDbLine
 10
-0.5
 20
0.0
 30
0.0
 11
-1.0
 21
0.0
 31
0.0
  0
LINE
  5
CC
330
9B
100
AcDbEntity
  8
0
  6
CONTINUOUS
 62
     0
100
AcDbLine
 10
-0.5
 20
0.5
 30
0.0
 11
0.5
 21
0.5
 31
0.0
  0
LINE
  5
CD
330
9B
100
AcDbEntity
  8
0
  6
CONTINUOUS
 62
     0
100
AcDbLine
 10
0.5
 20
0.5
 30
0.0
 11
0.5
 21
-0.5
 31
0.0
  0
LINE
  5
CE
330
9B
100
AcDbEntity
  8
0
  6
CONTINUOUS
 62
     0
100
AcDbLine
 10
0.5
 20
-0.5
 30
0.0
 11
-0.5
 21
-0.5
 31
0.0
  0
LINE
  5
CF
330
9B
100
AcDbEntity
  8
0
  6
CONTINUOUS
 62
     0
100
AcDbLine
 10
-0.5
 20
-0.5
 30
0.0
 11
-0.5
 21
0.5
 31
0.0
  0
ENDBLK
  5
9D
330
9B
100
AcDbEntity
  8
0
100
AcDbBlockEnd
  0
BLOCK
  5
9F
330
9E
100
AcDbEntity
  8
0
100
AcDbBlockBegin
  2
EX_INTEGRAL
 70
     0
 10
0.0
 20
0.0
 30
0.0
  3
EX_INTEGRAL
  1

  0
LINE
  5
D0
330
9E
100
AcDbEntity
  8
0
  6
CONTINUOUS
 62
     0
100
AcDbLine
 10
0.0
 20
0.0
 30
0.0
 11
-1.0
 21
0.0
 31
0.0
  0
ARC
  5
D1
330
9E
100
AcDbEntity
  8
0
  6
CONTINUOUS
 62
     0
100
AcDbCircle
 10
0.542115
 20
0.164992
 30
0.0
 40
0.56667
100
AcDbArc
 50
73.07249033629006
 51
196.9275130221199
  0
ARC
  5
D2
330
9E
100
AcDbEntity
  8
0
  6
CONTINUOUS
 62
     0
100
AcDbCircle
 10
-0.542115
 20
-0.164992
 30
0.0
 40
0.56667
100
AcDbArc
 50
253.0724869220464
 51
16.9275130559125
  0
ENDBLK
  5
A0
330
9E
100
AcDbEntity
  8
0
100
AcDbBlockEnd
  0
BLOCK
  5
D7
330
D6
100
AcDbEntity
  8
0
100
AcDbBlockBegin
  2
*D15
 70
     1
 10
0.0
 20
0.0
 30
0.0
  3
*D15
  1

  0
LINE
  5
D9
330
D6
100
AcDbEntity
  8
DP-350_0_15_大阪支店
  6
CONTINUOUS
 62
     1
100
AcDbLine
 10
1423.4
 20
537.0
 30
0.0
 11
1549.6
 21
537.0
 31
0.0
  0
LINE
  5
DA
330
D6
100
AcDbEntity
  8
DP-350_0_15_大阪支店
  6
CONTINUOUS
 62
     1
100
AcDbLine
 10
1424.2
 20
687.0
 30
0.0
 11
1549.6
 21
687.0
 31
0.0
  0
LINE
  5
DB
330
D6
100
AcDbEntity
  8
DP-350_0_15_大阪支店
  6
CONTINUOUS
 62
     1
100
AcDbLine
 10
1545.1
 20
546.0
 30
0.0
 11
1545.1
 21
678.0
 31
0.0
  0
INSERT
  5
DC
330
D6
100
AcDbEntity
  8
DP-350_0_15_大阪支店
 62
     1
100
AcDbBlockReference
  2
EX_BNORM
 10
1545.1
 20
537.0
 30
0.0
 41
9.0
 42
9.0
 43
9.0
 50
270.0
  0
INSERT
  5
DD
330
D6
100
AcDbEntity
  8
DP-350_0_15_大阪支店
 62
     1
100
AcDbBlockReference
  2
EX_BNORM
 10
1545.1
 20
687.0
 30
0.0
 41
9.0
 42
9.0
 43
9.0
 50
90.0
  0
MTEXT
  5
DE
330
D6
100
AcDbEntity
  8
DP-350_0_15_大阪支店
 62
     1
100
AcDbMText
 10
1537.6
 20
612.0
 30
0.0
 40
9.3543312
 41
0.0
 71
     5
 72
     1
  1
150
  7
EXCADDIM1
 11
0.0
 21
1.0
 31
0.0
  0
POINT
  5
DF
330
D6
100
AcDbEntity
  8
DEFPOINTS
 62
     0
100
AcDbPoint
 10
1418.9
 20
537.0
 30
0.0
  0
POINT
  5
E0
330
D6
100
AcDbEntity
  8
DEFPOINTS
 62
     0
100
AcDbPoint
 10
1419.7
 20
687.0
 30
0.0
  0
POINT
  5
E1
330
D6
100
AcDbEntity
  8
DEFPOINTS
 62
     0
100
AcDbPoint
 10
1545.1
 20
687.0
 30
0.0
  0
ENDBLK
  5
D8
330
D6
100
AcDbEntity
  8
0
100
AcDbBlockEnd
  0
BLOCK
  5
E4
330
E3
100
AcDbEntity
  8
0
100
AcDbBlockBegin
  2
*D16
 70
     1
 10
0.0
 20
0.0
 30
0.0
  3
*D16
  1

  0
LINE
  5
E6
330
E3
100
AcDbEntity
  8
DP-350_0_15_大阪支店
  6
CONTINUOUS
 62
     1
100
AcDbLine
 10
1446.2
 20
512.0
 30
0.0
 11
1579.3
 21
512.0
 31
0.0
  0
LINE
  5
E7
330
E3
100
AcDbEntity
  8
DP-350_0_15_大阪支店
  6
CONTINUOUS
 62
     1
100
AcDbLine
 10
1452.3
 20
712.0
 30
0.0
 11
1579.3
 21
712.0
 31
0.0
  0
LINE
  5
E8
330
E3
100
AcDbEntity
  8
DP-350_0_15_大阪支店
  6
CONTINUOUS
 62
     1
100
AcDbLine
 10
1574.8
 20
521.0
 30
0.0
 11
1574.8
 21
703.0
 31
0.0
  0
INSERT
  5
E9
330
E3
100
AcDbEntity
  8
DP-350_0_15_大阪支店
 62
     1
100
AcDbBlockReference
  2
EX_BNORM
 10
1574.8
 20
512.0
 30
0.0
 41
9.0
 42
9.0
 43
9.0
 50
270.0
  0
INSERT
  5
EA
330
E3
100
AcDbEntity
  8
DP-350_0_15_大阪支店
 62
     1
100
AcDbBlockReference
  2
EX_BNORM
 10
1574.8
 20
712.0
 30
0.0
 41
9.0
 42
9.0
 43
9.0
 50
90.0
  0
MTEXT
  5
EB
330
E3
100
AcDbEntity
  8
DP-350_0_15_大阪支店
 62
     1
100
AcDbMText
 10
1567.3
 20
612.0
 30
0.0
 40
9.3543312
 41
0.0
 71
     5
 72
     1
  1
200
  7
EXCADDIM1
 11
0.0
 21
1.0
 31
0.0
  0
POINT
  5
EC
330
E3
100
AcDbEntity
  8
DEFPOINTS
 62
     0
100
AcDbPoint
 10
1441.7
 20
512.0
 30
0.0
  0
POINT
  5
ED
330
E3
100
AcDbEntity
  8
DEFPOINTS
 62
     0
100
AcDbPoint
 10
1447.8
 20
712.0
 30
0.0
  0
POINT
  5
EE
330
E3
100
AcDbEntity
  8
DEFPOINTS
 62
     0
100
AcDbPoint
 10
1574.8
 20
712.0
 30
0.0
  0
ENDBLK
  5
E5
330
E3
100
AcDbEntity
  8
0
100
AcDbBlockEnd
  0
BLOCK
  5
F1
330
F0
100
AcDbEntity
  8
0
100
AcDbBlockBegin
  2
*D17
 70
     1
 10
0.0
 20
0.0
 30
0.0
  3
*D17
  1

  0
LINE
  5
F3
330
F0
100
AcDbEntity
  8
DP-350_0_15_大阪支店
  6
CONTINUOUS
 62
     1
100
AcDbLine
 10
1471.8
 20
487.0
 30
0.0
 11
1619.5
 21
487.0
 31
0.0
  0
LINE
  5
F4
330
F0
100
AcDbEntity
  8
DP-350_0_15_大阪支店
  6
CONTINUOUS
 62
     1
100
AcDbLine
 10
1475.9
 20
737.0
 30
0.0
 11
1619.5
 21
737.0
 31
0.0
  0
LINE
  5
F5
330
F0
100
AcDbEntity
  8
DP-350_0_15_大阪支店
  6
CONTINUOUS
 62
     1
100
AcDbLine
 10
1605.0
 20
496.0
 30
0.0
 11
1605.0
 21
728.0
 31
0.0
  0
INSERT
  5
F6
330
F0
100
AcDbEntity
  8
DP-350_0_15_大阪支店
 62
     1
100
AcDbBlockReference
  2
EX_BNORM
 10
1605.0
 20
487.0
 30
0.0
 41
9.0
 42
9.0
 43
9.0
 50
270.0
  0
INSERT
  5
F7
330
F0
100
AcDbEntity
  8
DP-350_0_15_大阪支店
 62
     1
100
AcDbBlockReference
  2
EX_BNORM
 10
1605.0
 20
737.0
 30
0.0
 41
9.0
 42
9.0
 43
9.0
 50
90.0
  0
MTEXT
  5
F8
330
F0
100
AcDbEntity
  8
DP-350_0_15_大阪支店
 62
     1
100
AcDbMText
 10
1597.5
 20
612.0
 30
0.0
 40
9.3543312
 41
0.0
 71
     5
 72
     1
  1
250
  7
EXCADDIM1
 11
0.0
 21
1.0
 31
0.0
  0
POINT
  5
F9
330
F0
100
AcDbEntity
  8
DEFPOINTS
 62
     0
100
AcDbPoint
 10
1467.3
 20
487.0
 30
0.0
  0
POINT
  5
FA
330
F0
100
AcDbEntity
  8
DEFPOINTS
 62
     0
100
AcDbPoint
 10
1471.4
 20
737.0
 30
0.0
  0
POINT
  5
FB
330
F0
100
AcDbEntity
  8
DEFPOINTS
 62
     0
100
AcDbPoint
 10
1605.0
 20
737.0
 30
0.0
  0
ENDBLK
  5
F2
330
F0
100
AcDbEntity
  8
0
100
AcDbBlockEnd
  0
BLOCK
  5
FE
330
FD
100
AcDbEntity
  8
0
100
AcDbBlockBegin
  2
*D18
 70
     1
 10
0.0
 20
0.0
 30
0.0
  3
*D18
  1

  0
LINE
  5
100
330
FD
100
AcDbEntity
  8
DP-350_0_15_大阪支店
  6
CONTINUOUS
 62
     1
100
AcDbLine
 10
1249.0
 20
512.7
 30
0.0
 11
1249.0
 21
387.5
 31
0.0
  0
LINE
  5
101
330
FD
100
AcDbEntity
  8
DP-350_0_15_大阪支店
  6
CONTINUOUS
 62
     1
100
AcDbLine
 10
1399.0
 20
512.1
 30
0.0
 11
1399.0
 21
387.5
 31
0.0
  0
LINE
  5
102
330
FD
100
AcDbEntity
  8
DP-350_0_15_大阪支店
  6
CONTINUOUS
 62
     1
100
AcDbLine
 10
1258.0
 20
392.0
 30
0.0
 11
1390.0
 21
392.0
 31
0.0
  0
INSERT
  5
103
330
FD
100
AcDbEntity
  8
DP-350_0_15_大阪支店
 62
     1
100
AcDbBlockReference
  2
EX_BNORM
 10
1249.0
 20
392.0
 30
0.0
 41
9.0
 42
9.0
 43
9.0
 50
180.0
  0
INSERT
  5
104
330
FD
100
AcDbEntity
  8
DP-350_0_15_大阪支店
 62
     1
100
AcDbBlockReference
  2
EX_BNORM
 10
1399.0
 20
392.0
 30
0.0
 41
9.0
 42
9.0
 43
9.0
  0
MTEXT
  5
105
330
FD
100
AcDbEntity
  8
DP-350_0_15_大阪支店
 62
     1
100
AcDbMText
 10
1324.0
 20
399.5
 30
0.0
 40
9.3543312
 41
0.0
 71
     5
 72
     1
  1
150
  7
EXCADDIM1
  0
POINT
  5
106
330
FD
100
AcDbEntity
  8
DEFPOINTS
 62
     0
100
AcDbPoint
 10
1249.0
 20
517.2
 30
0.0
  0
POINT
  5
107
330
FD
100
AcDbEntity
  8
DEFPOINTS
 62
     0
100
AcDbPoint
 10
1399.0
 20
516.6
 30
0.0
  0
POINT
  5
108
330
FD
100
AcDbEntity
  8
DEFPOINTS
 62
     0
100
AcDbPoint
 10
1399.0
 20
392.0
 30
0.0
  0
ENDBLK
  5
FF
330
FD
100
AcDbEntity
  8
0
100
AcDbBlockEnd
  0
BLOCK
  5
10B
330
10A
100
AcDbEntity
  8
0
100
AcDbBlockBegin
  2
*D19
 70
     1
 10
0.0
 20
0.0
 30
0.0
  3
*D19
  1

  0
LINE
  5
10D
330
10A
100
AcDbEntity
  8
DP-350_0_15_大阪支店
  6
CONTINUOUS
 62
     1
100
AcDbLine
 10
1424.0
 20
485.7
 30
0.0
 11
1424.0
 21
357.5
 31
0.0
  0
LINE
  5
10E
330
10A
100
AcDbEntity
  8
DP-350_0_15_大阪支店
  6
CONTINUOUS
 62
     1
100
AcDbLine
 10
1224.0
 20
487.1
 30
0.0
 11
1224.0
 21
357.5
 31
0.0
  0
LINE
  5
10F
330
10A
100
AcDbEntity
  8
DP-350_0_15_大阪支店
  6
CONTINUOUS
 62
     1
100
AcDbLine
 10
1415.0
 20
362.0
 30
0.0
 11
1233.0
 21
362.0
 31
0.0
  0
INSERT
  5
110
330
10A
100
AcDbEntity
  8
DP-350_0_15_大阪支店
 62
     1
100
AcDbBlockReference
  2
EX_BNORM
 10
1424.0
 20
362.0
 30
0.0
 41
9.0
 42
9.0
 43
9.0
  0
INSERT
  5
111
330
10A
100
AcDbEntity
  8
DP-350_0_15_大阪支店
 62
     1
100
AcDbBlockReference
  2
EX_BNORM
 10
1224.0
 20
362.0
 30
0.0
 41
9.0
 42
9.0
 43
9.0
 50
180.0
  0
MTEXT
  5
112
330
10A
100
AcDbEntity
  8
DP-350_0_15_大阪支店
 62
     1
100
AcDbMText
 10
1324.0
 20
369.5
 30
0.0
 40
9.3543312
 41
0.0
 71
     5
 72
     1
  1
200
  7
EXCADDIM1
  0
POINT
  5
113
330
10A
100
AcDbEntity
  8
DEFPOINTS
 62
     0
100
AcDbPoint
 10
1424.0
 20
490.2
 30
0.0
  0
POINT
  5
114
330
10A
100
AcDbEntity
  8
DEFPOINTS
 62
     0
100
AcDbPoint
 10
1224.0
 20
491.6
 30
0.0
  0
POINT
  5
115
330
10A
100
AcDbEntity
  8
DEFPOINTS
 62
     0
100
AcDbPoint
 10
1224.0
 20
362.0
 30
0.0
  0
ENDBLK
  5
10C
330
10A
100
AcDbEntity
  8
0
100
AcDbBlockEnd
  0
BLOCK
  5
118
330
117
100
AcDbEntity
  8
0
100
AcDbBlockBegin
  2
*D20
 70
     1
 10
0.0
 20
0.0
 30
0.0
  3
*D20
  1

  0
LINE
  5
11A
330
117
100
AcDbEntity
  8
DP-350_0_15_大阪支店
  6
CONTINUOUS
 62
     1
100
AcDbLine
 10
1450.0
 20
464.1
 30
0.0
 11
1450.0
 21
327.5
 31
0.0
  0
LINE
  5
11B
330
117
100
AcDbEntity
  8
DP-350_0_15_大阪支店
  6
CONTINUOUS
 62
     1
100
AcDbLine
 10
1200.0
 20
463.5
 30
0.0
 11
1200.0
 21
327.5
 31
0.0
  0
LINE
  5
11C
330
117
100
AcDbEntity
  8
DP-350_0_15_大阪支店
  6
CONTINUOUS
 62
     1
100
AcDbLine
 10
1441.0
 20
332.0
 30
0.0
 11
1209.0
 21
332.0
 31
0.0
  0
INSERT
  5
11D
330
117
100
AcDbEntity
  8
DP-350_0_15_大阪支店
 62
     1
100
AcDbBlockReference
  2
EX_BNORM
 10
1450.0
 20
332.0
 30
0.0
 41
9.0
 42
9.0
 43
9.0
  0
INSERT
  5
11E
330
117
100
AcDbEntity
  8
DP-350_0_15_大阪支店
 62
     1
100
AcDbBlockReference
  2
EX_BNORM
 10
1200.0
 20
332.0
 30
0.0
 41
9.0
 42
9.0
 43
9.0
 50
180.0
  0
MTEXT
  5
11F
330
117
100
AcDbEntity
  8
DP-350_0_15_大阪支店
 62
     1
100
AcDbMText
 10
1325.0
 20
339.5
 30
0.0
 40
9.3543312
 41
0.0
 71
     5
 72
     1
  1
250
  7
EXCADDIM1
  0
POINT
  5
120
330
117
100
AcDbEntity
  8
DEFPOINTS
 62
     0
100
AcDbPoint
 10
1450.0
 20
468.6
 30
0.0
  0
POINT
  5
121
330
117
100
AcDbEntity
  8
DEFPOINTS
 62
     0
100
AcDbPoint
 10
1200.0
 20
468.0
 30
0.0
  0
POINT
  5
122
330
117
100
AcDbEntity
  8
DEFPOINTS
 62
     0
100
AcDbPoint
 10
1200.0
 20
332.0
 30
0.0
  0
ENDBLK
  5
119
330
117
100
AcDbEntity
  8
0
100
AcDbBlockEnd
  0
BLOCK
  5
125
330
124
100
AcDbEntity
  8
0
100
AcDbBlockBegin
  2
*D21
 70
     1
 10
0.0
 20
0.0
 30
0.0
  3
*D21
  1

  0
LINE
  5
127
330
124
100
AcDbEntity
  8
DP-350_0_15_大阪支店
  6
CONTINUOUS
 62
     1
100
AcDbLine
 10
449.4
 20
687.0
 30
0.0
 11
560.6
 21
687.0
 31
0.0
  0
LINE
  5
128
330
124
100
AcDbEntity
  8
DP-350_0_15_大阪支店
  6
CONTINUOUS
 62
     1
100
AcDbLine
 10
450.2
 20
537.0
 30
0.0
 11
560.6
 21
537.0
 31
0.0
  0
LINE
  5
129
330
124
100
AcDbEntity
  8
DP-350_0_15_大阪支店
  6
CONTINUOUS
 62
     1
100
AcDbLine
 10
556.1
 20
678.0
 30
0.0
 11
556.1
 21
546.0
 31
0.0
  0
INSERT
  5
12A
330
124
100
AcDbEntity
  8
DP-350_0_15_大阪支店
 62
     1
100
AcDbBlockReference
  2
EX_BNORM
 10
556.1
 20
687.0
 30
0.0
 41
9.0
 42
9.0
 43
9.0
 50
90.0
  0
INSERT
  5
12B
330
124
100
AcDbEntity
  8
DP-350_0_15_大阪支店
 62
     1
100
AcDbBlockReference
  2
EX_BNORM
 10
556.1
 20
537.0
 30
0.0
 41
9.0
 42
9.0
 43
9.0
 50
270.0
  0
MTEXT
  5
12C
330
124
100
AcDbEntity
  8
DP-350_0_15_大阪支店
 62
     1
100
AcDbMText
 10
548.6
 20
612.0
 30
0.0
 40
9.3543312
 41
0.0
 71
     5
 72
     1
  1
150
  7
EXCADDIM1
 11
0.0
 21
1.0
 31
0.0
  0
POINT
  5
12D
330
124
100
AcDbEntity
  8
DEFPOINTS
 62
     0
100
AcDbPoint
 10
444.9
 20
687.0
 30
0.0
  0
POINT
  5
12E
330
124
100
AcDbEntity
  8
DEFPOINTS
 62
     0
100
AcDbPoint
 10
445.7
 20
537.0
 30
0.0
  0
POINT
  5
12F
330
124
100
AcDbEntity
  8
DEFPOINTS
 62
     0
100
AcDbPoint
 10
556.1
 20
537.0
 30
0.0
  0
ENDBLK
  5
126
330
124
100
AcDbEntity
  8
0
100
AcDbBlockEnd
  0
BLOCK
  5
132
330
131
100
AcDbEntity
  8
0
100
AcDbBlockBegin
  2
*D22
 70
     1
 10
0.0
 20
0.0
 30
0.0
  3
*D22
  1

  0
LINE
  5
134
330
131
100
AcDbEntity
  8
DP-350_0_15_大阪支店
  6
CONTINUOUS
 62
     1
100
AcDbLine
 10
472.2
 20
712.0
 30
0.0
 11
590.3
 21
712.0
 31
0.0
  0
LINE
  5
135
330
131
100
AcDbEntity
  8
DP-350_0_15_大阪支店
  6
CONTINUOUS
 62
     1
100
AcDbLine
 10
478.3
 20
512.0
 30
0.0
 11
590.3
 21
512.0
 31
0.0
  0
LINE
  5
136
330
131
100
AcDbEntity
  8
DP-350_0_15_大阪支店
  6
CONTINUOUS
 62
     1
100
AcDbLine
 10
585.8
 20
703.0
 30
0.0
 11
585.8
 21
521.0
 31
0.0
  0
INSERT
  5
137
330
131
100
AcDbEntity
  8
DP-350_0_15_大阪支店
 62
     1
100
AcDbBlockReference
  2
EX_BNORM
 10
585.8
 20
712.0
 30
0.0
 41
9.0
 42
9.0
 43
9.0
 50
90.0
  0
INSERT
  5
138
330
131
100
AcDbEntity
  8
DP-350_0_15_大阪支店
 62
     1
100
AcDbBlockReference
  2
EX_BNORM
 10
585.8
 20
512.0
 30
0.0
 41
9.0
 42
9.0
 43
9.0
 50
270.0
  0
MTEXT
  5
139
330
131
100
AcDbEntity
  8
DP-350_0_15_大阪支店
 62
     1
100
AcDbMText
 10
578.3
 20
612.0
 30
0.0
 40
9.3543312
 41
0.0
 71
     5
 72
     1
  1
200
  7
EXCADDIM1
 11
0.0
 21
1.0
 31
0.0
  0
POINT
  5
13A
330
131
100
AcDbEntity
  8
DEFPOINTS
 62
     0
100
AcDbPoint
 10
467.7
 20
712.0
 30
0.0
  0
POINT
  5
13B
330
131
100
AcDbEntity
  8
DEFPOINTS
 62
     0
100
AcDbPoint
 10
473.8
 20
512.0
 30
0.0
  0
POINT
  5
13C
330
131
100
AcDbEntity
  8
DEFPOINTS
 62
     0
100
AcDbPoint
 10
585.8
 20
512.0
 30
0.0
  0
ENDBLK
  5
133
330
131
100
AcDbEntity
  8
0
100
AcDbBlockEnd
  0
BLOCK
  5
13F
330
13E
100
AcDbEntity
  8
0
100
AcDbBlockBegin
  2
*D23
 70
     1
 10
0.0
 20
0.0
 30
0.0
  3
*D23
  1

  0
LINE
  5
141
330
13E
100
AcDbEntity
  8
DP-350_0_15_大阪支店
  6
CONTINUOUS
 62
     1
100
AcDbLine
 10
496.9
 20
492.0
 30
0.0
 11
620.4
 21
492.0000000000001
 31
0.0
  0
LINE
  5
142
330
13E
100
AcDbEntity
  8
DP-350_0_15_大阪支店
  6
CONTINUOUS
 62
     1
100
AcDbLine
 10
492.8
 20
732.0
 30
0.0
 11
620.4
 21
732.0
 31
0.0
  0
LINE
  5
143
330
13E
100
AcDbEntity
  8
DP-350_0_15_大阪支店
  6
CONTINUOUS
 62
     1
100
AcDbLine
 10
615.9
 20
501.0000000000001
 30
0.0
 11
615.9
 21
723.0
 31
0.0
  0
INSERT
  5
144
330
13E
100
AcDbEntity
  8
DP-350_0_15_大阪支店
 62
     1
100
AcDbBlockReference
  2
EX_BNORM
 10
615.9
 20
492.0000000000001
 30
0.0
 41
9.0
 42
9.0
 43
9.0
 50
270.0
  0
INSERT
  5
145
330
13E
100
AcDbEntity
  8
DP-350_0_15_大阪支店
 62
     1
100
AcDbBlockReference
  2
EX_BNORM
 10
615.9
 20
732.0
 30
0.0
 41
9.0
 42
9.0
 43
9.0
 50
90.0
  0
MTEXT
  5
146
330
13E
100
AcDbEntity
  8
DP-350_0_15_大阪支店
 62
     1
100
AcDbMText
 10
608.4
 20
612.0
 30
0.0
 40
9.3543312
 41
0.0
 71
     5
 72
     1
  1
240
  7
EXCADDIM1
 11
0.0
 21
1.0
 31
0.0
  0
POINT
  5
147
330
13E
100
AcDbEntity
  8
DEFPOINTS
 62
     0
100
AcDbPoint
 10
492.4
 20
492.0
 30
0.0
  0
POINT
  5
148
330
13E
100
AcDbEntity
  8
DEFPOINTS
 62
     0
100
AcDbPoint
 10
488.3
 20
732.0
 30
0.0
  0
POINT
  5
149
330
13E
100
AcDbEntity
  8
DEFPOINTS
 62
     0
100
AcDbPoint
 10
615.9
 20
732.0
 30
0.0
  0
ENDBLK
  5
140
330
13E
100
AcDbEntity
  8
0
100
AcDbBlockEnd
  0
BLOCK
  5
14F
330
14E
100
AcDbEntity
  8
0
100
AcDbBlockBegin
  2
*D24
 70
     1
 10
0.0
 20
0.0
 30
0.0
  3
*D24
  1

  0
LINE
  5
151
330
14E
100
AcDbEntity
  8
DP-350_0_15_大阪支店
  6
CONTINUOUS
 62
     1
100
AcDbLine
 10
275.0
 20
513.3
 30
0.0
 11
275.0
 21
387.5
 31
0.0
  0
LINE
  5
152
330
14E
100
AcDbEntity
  8
DP-350_0_15_大阪支店
  6
CONTINUOUS
 62
     1
100
AcDbLine
 10
425.0
 20
510.5
 30
0.0
 11
425.0
 21
387.5
 31
0.0
  0
LINE
  5
153
330
14E
100
AcDbEntity
  8
DP-350_0_15_大阪支店
  6
CONTINUOUS
 62
     1
100
AcDbLine
 10
284.0
 20
392.0
 30
0.0
 11
416.0
 21
392.0
 31
0.0
  0
INSERT
  5
154
330
14E
100
AcDbEntity
  8
DP-350_0_15_大阪支店
 62
     1
100
AcDbBlockReference
  2
EX_BNORM
 10
275.0
 20
392.0
 30
0.0
 41
9.0
 42
9.0
 43
9.0
 50
180.0
  0
INSERT
  5
155
330
14E
100
AcDbEntity
  8
DP-350_0_15_大阪支店
 62
     1
100
AcDbBlockReference
  2
EX_BNORM
 10
425.0
 20
392.0
 30
0.0
 41
9.0
 42
9.0
 43
9.0
  0
MTEXT
  5
156
330
14E
100
AcDbEntity
  8
DP-350_0_15_大阪支店
 62
     1
100
AcDbMText
 10
350.0000000000001
 20
399.5
 30
0.0
 40
9.3543312
 41
0.0
 71
     5
 72
     1
  1
150
  7
EXCADDIM1
  0
POINT
  5
157
330
14E
100
AcDbEntity
  8
DEFPOINTS
 62
     0
100
AcDbPoint
 10
275.0
 20
517.8
 30
0.0
  0
POINT
  5
158
330
14E
100
AcDbEntity
  8
DEFPOINTS
 62
     0
100
AcDbPoint
 10
425.0
 20
515.0
 30
0.0
  0
POINT
  5
159
330
14E
100
AcDbEntity
  8
DEFPOINTS
 62
     0
100
AcDbPoint
 10
425.0
 20
392.0
 30
0.0
  0
ENDBLK
  5
150
330
14E
100
AcDbEntity
  8
0
100
AcDbBlockEnd
  0
BLOCK
  5
15C
330
15B
100
AcDbEntity
  8
0
100
AcDbBlockBegin
  2
*D25
 70
     1
 10
0.0
 20
0.0
 30
0.0
  3
*D25
  1

  0
LINE
  5
15E
330
15B
100
AcDbEntity
  8
DP-350_0_15_大阪支店
  6
CONTINUOUS
 62
     1
100
AcDbLine
 10
251.1
 20
487.5
 30
0.0
 11
251.1
 21
357.5
 31
0.0
  0
LINE
  5
15F
330
15B
100
AcDbEntity
  8
DP-350_0_15_大阪支店
  6
CONTINUOUS
 62
     1
100
AcDbLine
 10
451.0
 20
487.5
 30
0.0
 11
451.0
 21
357.5
 31
0.0
  0
LINE
  5
160
330
15B
100
AcDbEntity
  8
DP-350_0_15_大阪支店
  6
CONTINUOUS
 62
     1
100
AcDbLine
 10
260.1
 20
362.0
 30
0.0
 11
442.0
 21
362.0
 31
0.0
  0
INSERT
  5
161
330
15B
100
AcDbEntity
  8
DP-350_0_15_大阪支店
 62
     1
100
AcDbBlockReference
  2
EX_BNORM
 10
251.1
 20
362.0
 30
0.0
 41
9.0
 42
9.0
 43
9.0
 50
180.0
  0
INSERT
  5
162
330
15B
100
AcDbEntity
  8
DP-350_0_15_大阪支店
 62
     1
100
AcDbBlockReference
  2
EX_BNORM
 10
451.0
 20
362.0
 30
0.0
 41
9.0
 42
9.0
 43
9.0
  0
MTEXT
  5
163
330
15B
100
AcDbEntity
  8
DP-350_0_15_大阪支店
 62
     1
100
AcDbMText
 10
351.0500000000001
 20
369.5
 30
0.0
 40
9.3543312
 41
0.0
 71
     5
 72
     1
  1
200
  7
EXCADDIM1
  0
POINT
  5
164
330
15B
100
AcDbEntity
  8
DEFPOINTS
 62
     0
100
AcDbPoint
 10
251.1
 20
492.0
 30
0.0
  0
POINT
  5
165
330
15B
100
AcDbEntity
  8
DEFPOINTS
 62
     0
100
AcDbPoint
 10
451.0
 20
492.0
 30
0.0
  0
POINT
  5
166
330
15B
100
AcDbEntity
  8
DEFPOINTS
 62
     0
100
AcDbPoint
 10
451.0
 20
362.0
 30
0.0
  0
ENDBLK
  5
15D
330
15B
100
AcDbEntity
  8
0
100
AcDbBlockEnd
  0
BLOCK
  5
169
330
168
100
AcDbEntity
  8
0
100
AcDbBlockBegin
  2
*D26
 70
     1
 10
0.0
 20
0.0
 30
0.0
  3
*D26
  1

  0
LINE
  5
16B
330
168
100
AcDbEntity
  8
DP-350_0_15_大阪支店
  6
CONTINUOUS
 62
     1
100
AcDbLine
 10
231.0
 20
466.9
 30
0.0
 11
231.0
 21
327.5
 31
0.0
  0
LINE
  5
16C
330
168
100
AcDbEntity
  8
DP-350_0_15_大阪支店
  6
CONTINUOUS
 62
     1
100
AcDbLine
 10
471.0
 20
466.2
 30
0.0
 11
471.0
 21
327.5
 31
0.0
  0
LINE
  5
16D
330
168
100
AcDbEntity
  8
DP-350_0_15_大阪支店
  6
CONTINUOUS
 62
     1
100
AcDbLine
 10
240.0
 20
332.0
 30
0.0
 11
462.0
 21
332.0
 31
0.0
  0
INSERT
  5
16E
330
168
100
AcDbEntity
  8
DP-350_0_15_大阪支店
 62
     1
100
AcDbBlockReference
  2
EX_BNORM
 10
231.0
 20
332.0
 30
0.0
 41
9.0
 42
9.0
 43
9.0
 50
180.0
  0
INSERT
  5
16F
330
168
100
AcDbEntity
  8
DP-350_0_15_大阪支店
 62
     1
100
AcDbBlockReference
  2
EX_BNORM
 10
471.0
 20
332.0
 30
0.0
 41
9.0
 42
9.0
 43
9.0
  0
MTEXT
  5
170
330
168
100
AcDbEntity
  8
DP-350_0_15_大阪支店
 62
     1
100
AcDbMText
 10
351.0
 20
339.5
 30
0.0
 40
9.3543312
 41
0.0
 71
     5
 72
     1
  1
240
  7
EXCADDIM1
  0
POINT
  5
171
330
168
100
AcDbEntity
  8
DEFPOINTS
 62
     0
100
AcDbPoint
 10
231.0
 20
471.4
 30
0.0
  0
POINT
  5
172
330
168
100
AcDbEntity
  8
DEFPOINTS
 62
     0
100
AcDbPoint
 10
471.0
 20
470.7
 30
0.0
  0
POINT
  5
173
330
168
100
AcDbEntity
  8
DEFPOINTS
 62
     0
100
AcDbPoint
 10
471.0
 20
332.0
 30
0.0
  0
ENDBLK
  5
16A
330
168
100
AcDbEntity
  8
0
100
AcDbBlockEnd
  0
BLOCK
  5
176
330
175
100
AcDbEntity
  8
0
100
AcDbBlockBegin
  2
*D27
 70
     1
 10
0.0
 20
0.0
 30
0.0
  3
*D27
  1

  0
LINE
  5
178
330
175
100
AcDbEntity
  8
DP-350_0_15_大阪支店
  6
CONTINUOUS
 62
     1
100
AcDbLine
 10
1499.5
 20
447.0
 30
0.0
 11
1633.5
 21
447.0
 31
0.0
  0
LINE
  5
179
330
175
100
AcDbEntity
  8
DP-350_0_15_大阪支店
  6
CONTINUOUS
 62
     1
100
AcDbLine
 10
1629.0
 20
456.0
 30
0.0
 11
1629.0
 21
768.0
 31
0.0
  0
INSERT
  5
17A
330
175
100
AcDbEntity
  8
DP-350_0_15_大阪支店
 62
     1
100
AcDbBlockReference
  2
EX_BNORM
 10
1629.0
 20
447.0
 30
0.0
 41
9.0
 42
9.0
 43
9.0
 50
270.0
  0
INSERT
  5
17B
330
175
100
AcDbEntity
  8
DP-350_0_15_大阪支店
 62
     1
100
AcDbBlockReference
  2
EX_BNORM
 10
1629.0
 20
777.0
 30
0.0
 41
9.0
 42
9.0
 43
9.0
 50
90.0
  0
MTEXT
  5
17C
330
175
100
AcDbEntity
  8
DP-350_0_15_大阪支店
 62
     1
100
AcDbMText
 10
1621.5
 20
612.0
 30
0.0
 40
9.3543312
 41
0.0
 71
     5
 72
     1
  1
330
  7
EXCADDIM1
 11
0.0
 21
1.0
 31
0.0
  0
POINT
  5
17D
330
175
100
AcDbEntity
  8
DEFPOINTS
 62
     0
100
AcDbPoint
 10
1495.0
 20
447.0
 30
0.0
  0
POINT
  5
17E
330
175
100
AcDbEntity
  8
DEFPOINTS
 62
     0
100
AcDbPoint
 10
1495.0
 20
777.0
 30
0.0
  0
POINT
  5
17F
330
175
100
AcDbEntity
  8
DEFPOINTS
 62
     0
100
AcDbPoint
 10
1629.0
 20
777.0
 30
0.0
  0
ENDBLK
  5
177
330
175
100
AcDbEntity
  8
0
100
AcDbBlockEnd
  0
BLOCK
  5
183
330
182
100
AcDbEntity
  8
0
100
AcDbBlockBegin
  2
*D28
 70
     1
 10
0.0
 20
0.0
 30
0.0
  3
*D28
  1

  0
LINE
  5
185
330
182
100
AcDbEntity
  8
DP-350_0_15_大阪支店
  6
CONTINUOUS
 62
     1
100
AcDbLine
 10
1499.5
 20
442.0
 30
0.0
 11
1663.5
 21
442.0
 31
0.0
  0
LINE
  5
186
330
182
100
AcDbEntity
  8
DP-350_0_15_大阪支店
  6
CONTINUOUS
 62
     1
100
AcDbLine
 10
1499.5
 20
782.0
 30
0.0
 11
1663.5
 21
782.0
 31
0.0
  0
LINE
  5
187
330
182
100
AcDbEntity
  8
DP-350_0_15_大阪支店
  6
CONTINUOUS
 62
     1
100
AcDbLine
 10
1659.0
 20
451.0
 30
0.0
 11
1659.0
 21
773.0
 31
0.0
  0
INSERT
  5
188
330
182
100
AcDbEntity
  8
DP-350_0_15_大阪支店
 62
     1
100
AcDbBlockReference
  2
EX_BNORM
 10
1659.0
 20
442.0
 30
0.0
 41
9.0
 42
9.0
 43
9.0
 50
270.0
  0
INSERT
  5
189
330
182
100
AcDbEntity
  8
DP-350_0_15_大阪支店
 62
     1
100
AcDbBlockReference
  2
EX_BNORM
 10
1659.0
 20
782.0
 30
0.0
 41
9.0
 42
9.0
 43
9.0
 50
90.0
  0
MTEXT
  5
18A
330
182
100
AcDbEntity
  8
DP-350_0_15_大阪支店
 62
     1
100
AcDbMText
 10
1651.5
 20
612.0
 30
0.0
 40
9.3543312
 41
0.0
 71
     5
 72
     1
  1
340
  7
EXCADDIM1
 11
0.0
 21
1.0
 31
0.0
  0
POINT
  5
18B
330
182
100
AcDbEntity
  8
DEFPOINTS
 62
     0
100
AcDbPoint
 10
1495.0
 20
442.0
 30
0.0
  0
POINT
  5
18C
330
182
100
AcDbEntity
  8
DEFPOINTS
 62
     0
100
AcDbPoint
 10
1495.0
 20
782.0
 30
0.0
  0
POINT
  5
18D
330
182
100
AcDbEntity
  8
DEFPOINTS
 62
     0
100
AcDbPoint
 10
1659.0
 20
782.0
 30
0.0
  0
ENDBLK
  5
184
330
182
100
AcDbEntity
  8
0
100
AcDbBlockEnd
  0
BLOCK
  5
190
330
18F
100
AcDbEntity
  8
0
100
AcDbBlockBegin
  2
*D29
 70
     1
 10
0.0
 20
0.0
 30
0.0
  3
*D29
  1

  0
LINE
  5
192
330
18F
100
AcDbEntity
  8
DP-350_0_15_大阪支店
  6
CONTINUOUS
 62
     1
100
AcDbLine
 10
771.0
 20
437.5
 30
0.0
 11
771.0
 21
387.5
 31
0.0
  0
LINE
  5
193
330
18F
100
AcDbEntity
  8
DP-350_0_15_大阪支店
  6
CONTINUOUS
 62
     1
100
AcDbLine
 10
780.0
 20
392.0
 30
0.0
 11
880.0
 21
392.0
 31
0.0
  0
INSERT
  5
194
330
18F
100
AcDbEntity
  8
DP-350_0_15_大阪支店
 62
     1
100
AcDbBlockReference
  2
EX_BNORM
 10
771.0
 20
392.0
 30
0.0
 41
9.0
 42
9.0
 43
9.0
 50
180.0
  0
INSERT
  5
195
330
18F
100
AcDbEntity
  8
DP-350_0_15_大阪支店
 62
     1
100
AcDbBlockReference
  2
EX_BNORM
 10
889.0
 20
392.0
 30
0.0
 41
9.0
 42
9.0
 43
9.0
  0
MTEXT
  5
196
330
18F
100
AcDbEntity
  8
DP-350_0_15_大阪支店
 62
     1
100
AcDbMText
 10
829.9999999999999
 20
399.5
 30
0.0
 40
9.3543312
 41
0.0
 71
     5
 72
     1
  1
118
  7
EXCADDIM1
  0
POINT
  5
197
330
18F
100
AcDbEntity
  8
DEFPOINTS
 62
     0
100
AcDbPoint
 10
771.0
 20
442.0
 30
0.0
  0
POINT
  5
198
330
18F
100
AcDbEntity
  8
DEFPOINTS
 62
     0
100
AcDbPoint
 10
889.0
 20
442.0
 30
0.0
  0
POINT
  5
199
330
18F
100
AcDbEntity
  8
DEFPOINTS
 62
     0
100
AcDbPoint
 10
889.0
 20
392.0
 30
0.0
  0
ENDBLK
  5
191
330
18F
100
AcDbEntity
  8
0
100
AcDbBlockEnd
  0
BLOCK
  5
19D
330
19C
100
AcDbEntity
  8
0
100
AcDbBlockBegin
  2
*D30
 70
     1
 10
0.0
 20
0.0
 30
0.0
  3
*D30
  1

  0
LINE
  5
19F
330
19C
100
AcDbEntity
  8
DP-350_0_15_大阪支店
  6
CONTINUOUS
 62
     1
100
AcDbLine
 10
755.0
 20
442.5
 30
0.0
 11
755.0
 21
357.5
 31
0.0
  0
LINE
  5
1A0
330
19C
100
AcDbEntity
  8
DP-350_0_15_大阪支店
  6
CONTINUOUS
 62
     1
100
AcDbLine
 10
905.0
 20
442.5
 30
0.0
 11
905.0
 21
357.5
 31
0.0
  0
LINE
  5
1A1
330
19C
100
AcDbEntity
  8
DP-350_0_15_大阪支店
  6
CONTINUOUS
 62
     1
100
AcDbLine
 10
764.0
 20
362.0
 30
0.0
 11
896.0
 21
362.0
 31
0.0
  0
INSERT
  5
1A2
330
19C
100
AcDbEntity
  8
DP-350_0_15_大阪支店
 62
     1
100
AcDbBlockReference
  2
EX_BNORM
 10
755.0
 20
362.0
 30
0.0
 41
9.0
 42
9.0
 43
9.0
 50
180.0
  0
INSERT
  5
1A3
330
19C
100
AcDbEntity
  8
DP-350_0_15_大阪支店
 62
     1
100
AcDbBlockReference
  2
EX_BNORM
 10
905.0
 20
362.0
 30
0.0
 41
9.0
 42
9.0
 43
9.0
  0
MTEXT
  5
1A4
330
19C
100
AcDbEntity
  8
DP-350_0_15_大阪支店
 62
     1
100
AcDbMText
 10
829.9999999999999
 20
369.5
 30
0.0
 40
9.3543312
 41
0.0
 71
     5
 72
     1
  1
150
  7
EXCADDIM1
  0
POINT
  5
1A5
330
19C
100
AcDbEntity
  8
DEFPOINTS
 62
     0
100
AcDbPoint
 10
755.0
 20
447.0
 30
0.0
  0
POINT
  5
1A6
330
19C
100
AcDbEntity
  8
DEFPOINTS
 62
     0
100
AcDbPoint
 10
905.0
 20
447.0
 30
0.0
  0
POINT
  5
1A7
330
19C
100
AcDbEntity
  8
DEFPOINTS
 62
     0
100
AcDbPoint
 10
905.0
 20
362.0
 30
0.0
  0
ENDBLK
  5
19E
330
19C
100
AcDbEntity
  8
0
100
AcDbBlockEnd
  0
BLOCK
  5
1AE
330
1AD
100
AcDbEntity
  8
0
100
AcDbBlockBegin
  2
*D31
 70
     1
 10
0.0
 20
0.0
 30
0.0
  3
*D31
  1

  0
LINE
  5
1B0
330
1AD
100
AcDbEntity
  8
DP-350_0_15_大阪支店
  6
CONTINUOUS
 62
     1
100
AcDbLine
 10
314.492958444859
 20
591.5000000000017
 30
0.0
 11
385.507041555141
 21
632.4999999999983
 31
0.0
  0
MTEXT
  5
1B1
330
1AD
100
AcDbEntity
  8
DP-350_0_15_大阪支店
 62
     1
100
AcDbMText
 10
281.2500000000001
 20
580.4951905284066
 30
0.0
 40
9.3543312
 41
0.0
 71
     5
 72
     1
  1
%%c100
  7
EXCADDIM1
 11
0.8660254037844386
 21
0.5000000000000001
 31
0.0
  0
LINE
  5
1B2
330
1AD
100
AcDbEntity
  8
DP-350_0_15_大阪支店
  6
CONTINUOUS
 62
     1
100
AcDbLine
 10
393.3012701892
 20
637.0
 30
0.0
 11
306.6987298108
 21
587.0
 31
0.0
  0
INSERT
  5
1B3
330
1AD
100
AcDbEntity
  8
DP-350_0_15_大阪支店
 62
     1
100
AcDbBlockReference
  2
EX_BNORM
 10
393.3012701892
 20
637.0
 30
0.0
 41
9.0
 42
9.0
 43
9.0
 50
30.00000000001259
  0
INSERT
  5
1B4
330
1AD
100
AcDbEntity
  8
DP-350_0_15_大阪支店
 62
     1
100
AcDbBlockReference
  2
EX_BNORM
 10
306.6987298108
 20
587.0
 30
0.0
 41
9.0
 42
9.0
 43
9.0
 50
210.0000000000126
  0
POINT
  5
1B5
330
1AD
100
AcDbEntity
  8
DEFPOINTS
 62
     0
100
AcDbPoint
 10
306.6987298108
 20
587.0
 30
0.0
  0
POINT
  5
1B6
330
1AD
100
AcDbEntity
  8
DEFPOINTS
 62
     0
100
AcDbPoint
 10
393.3012701892
 20
637.0
 30
0.0
  0
ENDBLK
  5
1AF
330
1AD
100
AcDbEntity
  8
0
100
AcDbBlockEnd
  0
BLOCK
  5
1BB
330
1BA
100
AcDbEntity
  8
0
100
AcDbBlockBegin
  2
*D32
 70
     1
 10
0.0
 20
0.0
 30
0.0
  3
*D32
  1

  0
LINE
  5
1BD
330
1BA
100
AcDbEntity
  8
DP-350_0_15_大阪支店
  6
CONTINUOUS
 62
     1
100
AcDbLine
 10
1155.0
 20
437.5
 30
0.0
 11
1155.0
 21
295.5
 31
0.0
  0
LINE
  5
1BE
330
1BA
100
AcDbEntity
  8
DP-350_0_15_大阪支店
  6
CONTINUOUS
 62
     1
100
AcDbLine
 10
1495.0
 20
437.5
 30
0.0
 11
1495.0
 21
295.5
 31
0.0
  0
LINE
  5
1BF
330
1BA
100
AcDbEntity
  8
DP-350_0_15_大阪支店
  6
CONTINUOUS
 62
     1
100
AcDbLine
 10
1164.0
 20
300.0
 30
0.0
 11
1486.0
 21
300.0
 31
0.0
  0
INSERT
  5
1C0
330
1BA
100
AcDbEntity
  8
DP-350_0_15_大阪支店
 62
     1
100
AcDbBlockReference
  2
EX_BNORM
 10
1155.0
 20
300.0
 30
0.0
 41
9.0
 42
9.0
 43
9.0
 50
180.0
  0
INSERT
  5
1C1
330
1BA
100
AcDbEntity
  8
DP-350_0_15_大阪支店
 62
     1
100
AcDbBlockReference
  2
EX_BNORM
 10
1495.0
 20
300.0
 30
0.0
 41
9.0
 42
9.0
 43
9.0
  0
MTEXT
  5
1C2
330
1BA
100
AcDbEntity
  8
DP-350_0_15_大阪支店
 62
     1
100
AcDbMText
 10
1325.0
 20
307.5
 30
0.0
 40
9.3543312
 41
0.0
 71
     5
 72
     1
  1
340
  7
EXCADDIM1
  0
POINT
  5
1C3
330
1BA
100
AcDbEntity
  8
DEFPOINTS
 62
     0
100
AcDbPoint
 10
1155.0
 20
442.0
 30
0.0
  0
POINT
  5
1C4
330
1BA
100
AcDbEntity
  8
DEFPOINTS
 62
     0
100
AcDbPoint
 10
1495.0
 20
442.0
 30
0.0
  0
POINT
  5
1C5
330
1BA
100
AcDbEntity
  8
DEFPOINTS
 62
     0
100
AcDbPoint
 10
1495.0
 20
300.0
 30
0.0
  0
ENDBLK
  5
1BC
330
1BA
100
AcDbEntity
  8
0
100
AcDbBlockEnd
  0
BLOCK
  5
1C8
330
1C7
100
AcDbEntity
  8
0
100
AcDbBlockBegin
  2
*D33
 70
     1
 10
0.0
 20
0.0
 30
0.0
  3
*D33
  1

  0
LINE
  5
1CA
330
1C7
100
AcDbEntity
  8
DP-350_0_15_大阪支店
  6
CONTINUOUS
 62
     1
100
AcDbLine
 10
750.5
 20
447.0
 30
0.0
 11
700.5
 21
447.0000000000001
 31
0.0
  0
LINE
  5
1CB
330
1C7
100
AcDbEntity
  8
DP-350_0_15_大阪支店
  6
CONTINUOUS
 62
     1
100
AcDbLine
 10
705.0
 20
456.0000000000001
 30
0.0
 11
705.0
 21
768.0
 31
0.0
  0
INSERT
  5
1CC
330
1C7
100
AcDbEntity
  8
DP-350_0_15_大阪支店
 62
     1
100
AcDbBlockReference
  2
EX_BNORM
 10
705.0
 20
447.0000000000001
 30
0.0
 41
9.0
 42
9.0
 43
9.0
 50
270.0
  0
INSERT
  5
1CD
330
1C7
100
AcDbEntity
  8
DP-350_0_15_大阪支店
 62
     1
100
AcDbBlockReference
  2
EX_BNORM
 10
705.0
 20
777.0
 30
0.0
 41
9.0
 42
9.0
 43
9.0
 50
90.0
  0
MTEXT
  5
1CE
330
1C7
100
AcDbEntity
  8
DP-350_0_15_大阪支店
 62
     1
100
AcDbMText
 10
697.5
 20
612.0
 30
0.0
 40
9.3543312
 41
0.0
 71
     5
 72
     1
  1
330
  7
EXCADDIM1
 11
0.0
 21
1.0
 31
0.0
  0
POINT
  5
1CF
330
1C7
100
AcDbEntity
  8
DEFPOINTS
 62
     0
100
AcDbPoint
 10
755.0
 20
447.0
 30
0.0
  0
POINT
  5
1D0
330
1C7
100
AcDbEntity
  8
DEFPOINTS
 62
     0
100
AcDbPoint
 10
755.0
 20
777.0
 30
0.0
  0
POINT
  5
1D1
330
1C7
100
AcDbEntity
  8
DEFPOINTS
 62
     0
100
AcDbPoint
 10
705.0
 20
777.0
 30
0.0
  0
ENDBLK
  5
1C9
330
1C7
100
AcDbEntity
  8
0
100
AcDbBlockEnd
  0
BLOCK
  5
1D6
330
1D5
100
AcDbEntity
  8
0
100
AcDbBlockBegin
  2
*D34
 70
     1
 10
0.0
 20
0.0
 30
0.0
  3
*D34
  1

  0
LINE
  5
1D8
330
1D5
100
AcDbEntity
  8
DP-350_0_15_大阪支店
  6
CONTINUOUS
 62
     1
100
AcDbLine
 10
766.5
 20
442.0
 30
0.0
 11
674.5
 21
442.0000000000001
 31
0.0
  0
LINE
  5
1D9
330
1D5
100
AcDbEntity
  8
DP-350_0_15_大阪支店
  6
CONTINUOUS
 62
     1
100
AcDbLine
 10
766.5
 20
782.0
 30
0.0
 11
674.5
 21
782.0
 31
0.0
  0
LINE
  5
1DA
330
1D5
100
AcDbEntity
  8
DP-350_0_15_大阪支店
  6
CONTINUOUS
 62
     1
100
AcDbLine
 10
679.0
 20
451.0000000000001
 30
0.0
 11
679.0
 21
773.0
 31
0.0
  0
INSERT
  5
1DB
330
1D5
100
AcDbEntity
  8
DP-350_0_15_大阪支店
 62
     1
100
AcDbBlockReference
  2
EX_BNORM
 10
679.0
 20
442.0000000000001
 30
0.0
 41
9.0
 42
9.0
 43
9.0
 50
270.0
  0
INSERT
  5
1DC
330
1D5
100
AcDbEntity
  8
DP-350_0_15_大阪支店
 62
     1
100
AcDbBlockReference
  2
EX_BNORM
 10
679.0
 20
782.0
 30
0.0
 41
9.0
 42
9.0
 43
9.0
 50
90.0
  0
MTEXT
  5
1DD
330
1D5
100
AcDbEntity
  8
DP-350_0_15_大阪支店
 62
     1
100
AcDbMText
 10
671.5
 20
612.0
 30
0.0
 40
9.3543312
 41
0.0
 71
     5
 72
     1
  1
340
  7
EXCADDIM1
 11
0.0
 21
1.0
 31
0.0
  0
POINT
  5
1DE
330
1D5
100
AcDbEntity
  8
DEFPOINTS
 62
     0
100
AcDbPoint
 10
771.0
 20
442.0
 30
0.0
  0
POINT
  5
1DF
330
1D5
100
AcDbEntity
  8
DEFPOINTS
 62
     0
100
AcDbPoint
 10
771.0
 20
782.0
 30
0.0
  0
POINT
  5
1E0
330
1D5
100
AcDbEntity
  8
DEFPOINTS
 62
     0
100
AcDbPoint
 10
679.0
 20
782.0
 30
0.0
  0
ENDBLK
  5
1D7
330
1D5
100
AcDbEntity
  8
0
100
AcDbBlockEnd
  0
BLOCK
  5
1E6
330
1E5
100
AcDbEntity
  8
0
100
AcDbBlockBegin
  2
*D35
 70
     1
 10
0.0
 20
0.0
 30
0.0
  3
*D35
  1

  0
LINE
  5
1E8
330
1E5
100
AcDbEntity
  8
DP-350_0_15_大阪支店
  6
CONTINUOUS
 62
     1
100
AcDbLine
 10
893.5
 20
543.0
 30
0.0
 11
959.5
 21
542.9999999999999
 31
0.0
  0
LINE
  5
1E9
330
1E5
100
AcDbEntity
  8
DP-350_0_15_大阪支店
  6
CONTINUOUS
 62
     1
100
AcDbLine
 10
955.0
 20
469.9999999999999
 30
0.0
 11
955.0
 21
533.9999999999999
 31
0.0
  0
INSERT
  5
1EA
330
1E5
100
AcDbEntity
  8
DP-350_0_15_大阪支店
 62
     1
100
AcDbBlockReference
  2
EX_BNORM
 10
955.0
 20
460.9999999999999
 30
0.0
 41
9.0
 42
9.0
 43
9.0
 50
270.0
  0
INSERT
  5
1EB
330
1E5
100
AcDbEntity
  8
DP-350_0_15_大阪支店
 62
     1
100
AcDbBlockReference
  2
EX_BNORM
 10
955.0
 20
542.9999999999999
 30
0.0
 41
9.0
 42
9.0
 43
9.0
 50
90.0
  0
MTEXT
  5
1EC
330
1E5
100
AcDbEntity
  8
DP-350_0_15_大阪支店
 62
     1
100
AcDbMText
 10
947.5
 20
502.0
 30
0.0
 40
9.3543312
 41
0.0
 71
     5
 72
     1
  1
82
  7
EXCADDIM1
 11
0.0
 21
1.0
 31
0.0
  0
POINT
  5
1ED
330
1E5
100
AcDbEntity
  8
DEFPOINTS
 62
     0
100
AcDbPoint
 10
889.0
 20
461.0
 30
0.0
  0
POINT
  5
1EE
330
1E5
100
AcDbEntity
  8
DEFPOINTS
 62
     0
100
AcDbPoint
 10
889.0
 20
543.0
 30
0.0
  0
POINT
  5
1EF
330
1E5
100
AcDbEntity
  8
DEFPOINTS
 62
     0
100
AcDbPoint
 10
955.0
 20
542.9999999999999
 30
0.0
  0
ENDBLK
  5
1E7
330
1E5
100
AcDbEntity
  8
0
100
AcDbBlockEnd
  0
BLOCK
  5
1F4
330
1F3
100
AcDbEntity
  8
0
100
AcDbBlockBegin
  2
*D36
 70
     1
 10
0.0
 20
0.0
 30
0.0
  3
*D36
  1

  0
LINE
  5
1F6
330
1F3
100
AcDbEntity
  8
DP-350_0_15_大阪支店
  6
CONTINUOUS
 62
     1
100
AcDbLine
 10
893.5
 20
662.0
 30
0.0
 11
959.5
 21
661.9999999999999
 31
0.0
  0
LINE
  5
1F7
330
1F3
100
AcDbEntity
  8
DP-350_0_15_大阪支店
  6
CONTINUOUS
 62
     1
100
AcDbLine
 10
955.0
 20
570.9999999999999
 30
0.0
 11
955.0
 21
652.9999999999999
 31
0.0
  0
INSERT
  5
1F8
330
1F3
100
AcDbEntity
  8
DP-350_0_15_大阪支店
 62
     1
100
AcDbBlockReference
  2
EX_BNORM
 10
955.0
 20
561.9999999999999
 30
0.0
 41
9.0
 42
9.0
 43
9.0
 50
270.0
  0
INSERT
  5
1F9
330
1F3
100
AcDbEntity
  8
DP-350_0_15_大阪支店
 62
     1
100
AcDbBlockReference
  2
EX_BNORM
 10
955.0
 20
661.9999999999999
 30
0.0
 41
9.0
 42
9.0
 43
9.0
 50
90.0
  0
MTEXT
  5
1FA
330
1F3
100
AcDbEntity
  8
DP-350_0_15_大阪支店
 62
     1
100
AcDbMText
 10
947.5
 20
612.0
 30
0.0
 40
9.3543312
 41
0.0
 71
     5
 72
     1
  1
100
  7
EXCADDIM1
 11
0.0
 21
1.0
 31
0.0
  0
POINT
  5
1FB
330
1F3
100
AcDbEntity
  8
DEFPOINTS
 62
     0
100
AcDbPoint
 10
889.0
 20
562.0
 30
0.0
  0
POINT
  5
1FC
330
1F3
100
AcDbEntity
  8
DEFPOINTS
 62
     0
100
AcDbPoint
 10
889.0
 20
662.0
 30
0.0
  0
POINT
  5
1FD
330
1F3
100
AcDbEntity
  8
DEFPOINTS
 62
     0
100
AcDbPoint
 10
955.0
 20
661.9999999999999
 30
0.0
  0
ENDBLK
  5
1F5
330
1F3
100
AcDbEntity
  8
0
100
AcDbBlockEnd
  0
BLOCK
  5
202
330
201
100
AcDbEntity
  8
0
100
AcDbBlockBegin
  2
*D37
 70
     1
 10
0.0
 20
0.0
 30
0.0
  3
*D37
  1

  0
LINE
  5
204
330
201
100
AcDbEntity
  8
DP-350_0_15_大阪支店
  6
CONTINUOUS
 62
     1
100
AcDbLine
 10
893.5
 20
763.0
 30
0.0
 11
959.5
 21
762.9999999999999
 31
0.0
  0
LINE
  5
205
330
201
100
AcDbEntity
  8
DP-350_0_15_大阪支店
  6
CONTINUOUS
 62
     1
100
AcDbLine
 10
955.0
 20
689.9999999999999
 30
0.0
 11
955.0
 21
753.9999999999999
 31
0.0
  0
INSERT
  5
206
330
201
100
AcDbEntity
  8
DP-350_0_15_大阪支店
 62
     1
100
AcDbBlockReference
  2
EX_BNORM
 10
955.0
 20
680.9999999999999
 30
0.0
 41
9.0
 42
9.0
 43
9.0
 50
270.0
  0
INSERT
  5
207
330
201
100
AcDbEntity
  8
DP-350_0_15_大阪支店
 62
     1
100
AcDbBlockReference
  2
EX_BNORM
 10
955.0
 20
762.9999999999999
 30
0.0
 41
9.0
 42
9.0
 43
9.0
 50
90.0
  0
MTEXT
  5
208
330
201
100
AcDbEntity
  8
DP-350_0_15_大阪支店
 62
     1
100
AcDbMText
 10
947.5
 20
722.0
 30
0.0
 40
9.3543312
 41
0.0
 71
     5
 72
     1
  1
82
  7
EXCADDIM1
 11
0.0
 21
1.0
 31
0.0
  0
POINT
  5
209
330
201
100
AcDbEntity
  8
DEFPOINTS
 62
     0
100
AcDbPoint
 10
889.0
 20
681.0
 30
0.0
  0
POINT
  5
20A
330
201
100
AcDbEntity
  8
DEFPOINTS
 62
     0
100
AcDbPoint
 10
889.0
 20
763.0
 30
0.0
  0
POINT
  5
20B
330
201
100
AcDbEntity
  8
DEFPOINTS
 62
     0
100
AcDbPoint
 10
955.0
 20
762.9999999999999
 30
0.0
  0
ENDBLK
  5
203
330
201
100
AcDbEntity
  8
0
100
AcDbBlockEnd
  0
BLOCK
  5
213
330
212
100
AcDbEntity
  8
0
100
AcDbBlockBegin
  2
*D38
 70
     1
 10
0.0
 20
0.0
 30
0.0
  3
*D38
  1

  0
LINE
  5
215
330
212
100
AcDbEntity
  8
DP-350_0_15_大阪支店
  6
CONTINUOUS
 62
     1
100
AcDbLine
 10
1314.5
 20
767.5
 30
0.0
 11
1314.5
 21
834.5
 31
0.0
  0
LINE
  5
216
330
212
100
AcDbEntity
  8
DP-350_0_15_大阪支店
  6
CONTINUOUS
 62
     1
100
AcDbLine
 10
1333.5
 20
767.5
 30
0.0
 11
1333.5
 21
834.5
 31
0.0
  0
LINE
  5
217
330
212
100
AcDbEntity
  8
DP-350_0_15_大阪支店
  6
CONTINUOUS
 62
     1
100
AcDbLine
 10
1323.5
 20
830.0
 30
0.0
 11
1324.5
 21
830.0
 31
0.0
  0
INSERT
  5
218
330
212
100
AcDbEntity
  8
DP-350_0_15_大阪支店
 62
     1
100
AcDbBlockReference
  2
EX_BNORM
 10
1314.5
 20
830.0
 30
0.0
 41
9.0
 42
9.0
 43
9.0
 50
180.0
  0
INSERT
  5
219
330
212
100
AcDbEntity
  8
DP-350_0_15_大阪支店
 62
     1
100
AcDbBlockReference
  2
EX_BNORM
 10
1333.5
 20
830.0
 30
0.0
 41
9.0
 42
9.0
 43
9.0
  0
MTEXT
  5
21A
330
212
100
AcDbEntity
  8
DP-350_0_15_大阪支店
 62
     1
100
AcDbMText
 10
1324.0
 20
837.4999999999999
 30
0.0
 40
9.3543312
 41
0.0
 71
     5
 72
     1
  1
19
  7
EXCADDIM1
  0
POINT
  5
21B
330
212
100
AcDbEntity
  8
DEFPOINTS
 62
     0
100
AcDbPoint
 10
1314.5
 20
763.0
 30
0.0
  0
POINT
  5
21C
330
212
100
AcDbEntity
  8
DEFPOINTS
 62
     0
100
AcDbPoint
 10
1333.5
 20
763.0
 30
0.0
  0
POINT
  5
21D
330
212
100
AcDbEntity
  8
DEFPOINTS
 62
     0
100
AcDbPoint
 10
1333.5
 20
830.0
 30
0.0
  0
ENDBLK
  5
214
330
212
100
AcDbEntity
  8
0
100
AcDbBlockEnd
  0
BLOCK
  5
220
330
21F
100
AcDbEntity
  8
0
100
AcDbBlockBegin
  2
*D39
 70
     1
 10
0.0
 20
0.0
 30
0.0
  3
*D39
  1

  0
LINE
  5
222
330
21F
100
AcDbEntity
  8
DP-350_0_15_大阪支店
  6
CONTINUOUS
 62
     1
100
AcDbLine
 10
1274.0
 20
685.5
 30
0.0
 11
1274.0
 21
860.5
 31
0.0
  0
LINE
  5
223
330
21F
100
AcDbEntity
  8
DP-350_0_15_大阪支店
  6
CONTINUOUS
 62
     1
100
AcDbLine
 10
1374.0
 20
685.5
 30
0.0
 11
1374.0
 21
860.5
 31
0.0
  0
LINE
  5
224
330
21F
100
AcDbEntity
  8
DP-350_0_15_大阪支店
  6
CONTINUOUS
 62
     1
100
AcDbLine
 10
1283.0
 20
856.0
 30
0.0
 11
1365.0
 21
856.0
 31
0.0
  0
INSERT
  5
225
330
21F
100
AcDbEntity
  8
DP-350_0_15_大阪支店
 62
     1
100
AcDbBlockReference
  2
EX_BNORM
 10
1274.0
 20
856.0
 30
0.0
 41
9.0
 42
9.0
 43
9.0
 50
180.0
  0
INSERT
  5
226
330
21F
100
AcDbEntity
  8
DP-350_0_15_大阪支店
 62
     1
100
AcDbBlockReference
  2
EX_BNORM
 10
1374.0
 20
856.0
 30
0.0
 41
9.0
 42
9.0
 43
9.0
  0
MTEXT
  5
227
330
21F
100
AcDbEntity
  8
DP-350_0_15_大阪支店
 62
     1
100
AcDbMText
 10
1324.0
 20
863.5
 30
0.0
 40
9.3543312
 41
0.0
 71
     5
 72
     1
  1
100
  7
EXCADDIM1
  0
POINT
  5
228
330
21F
100
AcDbEntity
  8
DEFPOINTS
 62
     0
100
AcDbPoint
 10
1274.0
 20
681.0
 30
0.0
  0
POINT
  5
229
330
21F
100
AcDbEntity
  8
DEFPOINTS
 62
     0
100
AcDbPoint
 10
1374.0
 20
681.0
 30
0.0
  0
POINT
  5
22A
330
21F
100
AcDbEntity
  8
DEFPOINTS
 62
     0
100
AcDbPoint
 10
1374.0
 20
856.0
 30
0.0
  0
ENDBLK
  5
221
330
21F
100
AcDbEntity
  8
0
100
AcDbBlockEnd
  0
ENDSEC
  0
SECTION
  2
ENTITIES
  0
DIMENSION
  5
D4
330
1F
100
AcDbEntity
  8
DP-350_0_15_大阪支店
  6
CONTINUOUS
 62
     1
100
AcDbDimension
  2
*D15
 10
1545.1
 20
687.0
 30
0.0
 11
1537.6
 21
612.0
 31
0.0
 70
   160
  3
ISO-25
100
AcDbAlignedDimension
 13
1418.9
 23
537.0
 33
0.0
 14
1419.7
 24
687.0
 34
0.0
 50
90.0
100
AcDbRotatedDimension
1001
ACAD
1000
DSTYLE
1002
{
1070
   270
1070
     2
1070
     6
1000
EX_BNORM
1070
     7
1000
EX_BNORM
1070
    41
1040
9.0
1070
    42
1040
4.5
1070
    44
1040
4.5
1070
    73
1070
     0
1070
    74
1070
     0
1070
    75
1070
     0
1070
    76
1070
     0
1070
    77
1070
     1
1070
    78
1070
     0
1070
   140
1040
9.3543312
1070
   147
1040
0.0
1070
   173
1070
     1
1070
   176
1070
     1
1070
   177
1070
     1
1070
   178
1070
     1
1070
   271
1070
     0
1070
   277
1070
     2
1070
   279
1070
     2
1070
   280
1070
     0
1070
   287
1070
     5
1070
   340
1005
D3
1002
}
  0
DIMENSION
  5
E2
330
1F
100
AcDbEntity
  8
DP-350_0_15_大阪支店
  6
CONTINUOUS
 62
     1
100
AcDbDimension
  2
*D16
 10
1574.8
 20
712.0
 30
0.0
 11
1567.3
 21
612.0
 31
0.0
 70
   160
  3
ISO-25
100
AcDbAlignedDimension
 13
1441.7
 23
512.0
 33
0.0
 14
1447.8
 24
712.0
 34
0.0
 50
90.0
100
AcDbRotatedDimension
1001
ACAD
1000
DSTYLE
1002
{
1070
   270
1070
     2
1070
     6
1000
EX_BNORM
1070
     7
1000
EX_BNORM
1070
    41
1040
9.0
1070
    42
1040
4.5
1070
    44
1040
4.5
1070
    73
1070
     0
1070
    74
1070
     0
1070
    75
1070
     0
1070
    76
1070
     0
1070
    77
1070
     1
1070
    78
1070
     0
1070
   140
1040
9.3543312
1070
   147
1040
0.0
1070
   173
1070
     1
1070
   176
1070
     1
1070
   177
1070
     1
1070
   178
1070
     1
1070
   271
1070
     0
1070
   277
1070
     2
1070
   279
1070
     2
1070
   280
1070
     0
1070
   287
1070
     5
1070
   340
1005
D3
1002
}
  0
DIMENSION
  5
EF
330
1F
100
AcDbEntity
  8
DP-350_0_15_大阪支店
  6
CONTINUOUS
 62
     1
100
AcDbDimension
  2
*D17
 10
1605.0
 20
737.0
 30
0.0
 11
1597.5
 21
612.0
 31
0.0
 70
   160
  3
ISO-25
100
AcDbAlignedDimension
 13
1467.3
 23
487.0
 33
0.0
 14
1471.4
 24
737.0
 34
0.0
 50
90.0
100
AcDbRotatedDimension
1001
ACAD
1000
DSTYLE
1002
{
1070
   270
1070
     2
1070
     6
1000
EX_BNORM
1070
     7
1000
EX_BNORM
1070
    41
1040
9.0
1070
    42
1040
4.5
1070
    44
1040
14.5
1070
    73
1070
     0
1070
    74
1070
     0
1070
    75
1070
     0
1070
    76
1070
     0
1070
    77
1070
     1
1070
    78
1070
     0
1070
   140
1040
9.3543312
1070
   147
1040
0.0
1070
   173
1070
     1
1070
   176
1070
     1
1070
   177
1070
     1
1070
   178
1070
     1
1070
   271
1070
     0
1070
   277
1070
     2
1070
   279
1070
     2
1070
   280
1070
     0
1070
   287
1070
     5
1070
   340
1005
D3
1002
}
  0
DIMENSION
  5
FC
330
1F
100
AcDbEntity
  8
DP-350_0_15_大阪支店
  6
CONTINUOUS
 62
     1
100
AcDbDimension
  2
*D18
 10
1399.0
 20
392.0
 30
0.0
 11
1324.0
 21
399.5
 31
0.0
 70
   160
  3
ISO-25
100
AcDbAlignedDimension
 13
1249.0
 23
517.2
 33
0.0
 14
1399.0
 24
516.6
 34
0.0
100
AcDbRotatedDimension
1001
ACAD
1000
DSTYLE
1002
{
1070
   270
1070
     2
1070
     6
1000
EX_BNORM
1070
     7
1000
EX_BNORM
1070
    41
1040
9.0
1070
    42
1040
4.5
1070
    44
1040
4.5
1070
    73
1070
     0
1070
    74
1070
     0
1070
    75
1070
     0
1070
    76
1070
     0
1070
    77
1070
     1
1070
    78
1070
     0
1070
   140
1040
9.3543312
1070
   147
1040
0.0
1070
   173
1070
     1
1070
   176
1070
     1
1070
   177
1070
     1
1070
   178
1070
     1
1070
   271
1070
     0
1070
   277
1070
     2
1070
   279
1070
     2
1070
   280
1070
     0
1070
   287
1070
     5
1070
   340
1005
D3
1002
}
  0
DIMENSION
  5
109
330
1F
100
AcDbEntity
  8
DP-350_0_15_大阪支店
  6
CONTINUOUS
 62
     1
100
AcDbDimension
  2
*D19
 10
1224.0
 20
362.0
 30
0.0
 11
1324.0
 21
369.5
 31
0.0
 70
   160
  3
ISO-25
100
AcDbAlignedDimension
 13
1424.0
 23
490.2
 33
0.0
 14
1224.0
 24
491.6
 34
0.0
100
AcDbRotatedDimension
1001
ACAD
1000
DSTYLE
1002
{
1070
   270
1070
     2
1070
     6
1000
EX_BNORM
1070
     7
1000
EX_BNORM
1070
    41
1040
9.0
1070
    42
1040
4.5
1070
    44
1040
4.5
1070
    73
1070
     0
1070
    74
1070
     0
1070
    75
1070
     0
1070
    76
1070
     0
1070
    77
1070
     1
1070
    78
1070
     0
1070
   140
1040
9.3543312
1070
   147
1040
0.0
1070
   173
1070
     1
1070
   176
1070
     1
1070
   177
1070
     1
1070
   178
1070
     1
1070
   271
1070
     0
1070
   277
1070
     2
1070
   279
1070
     2
1070
   280
1070
     0
1070
   287
1070
     5
1070
   340
1005
D3
1002
}
  0
DIMENSION
  5
116
330
1F
100
AcDbEntity
  8
DP-350_0_15_大阪支店
  6
CONTINUOUS
 62
     1
100
AcDbDimension
  2
*D20
 10
1200.0
 20
332.0
 30
0.0
 11
1325.0
 21
339.5
 31
0.0
 70
   160
  3
ISO-25
100
AcDbAlignedDimension
 13
1450.0
 23
468.6
 33
0.0
 14
1200.0
 24
468.0
 34
0.0
100
AcDbRotatedDimension
1001
ACAD
1000
DSTYLE
1002
{
1070
   270
1070
     2
1070
     6
1000
EX_BNORM
1070
     7
1000
EX_BNORM
1070
    41
1040
9.0
1070
    42
1040
4.5
1070
    44
1040
4.5
1070
    73
1070
     0
1070
    74
1070
     0
1070
    75
1070
     0
1070
    76
1070
     0
1070
    77
1070
     1
1070
    78
1070
     0
1070
   140
1040
9.3543312
1070
   147
1040
0.0
1070
   173
1070
     1
1070
   176
1070
     1
1070
   177
1070
     1
1070
   178
1070
     1
1070
   271
1070
     0
1070
   277
1070
     2
1070
   279
1070
     2
1070
   280
1070
     0
1070
   287
1070
     5
1070
   340
1005
D3
1002
}
  0
DIMENSION
  5
123
330
1F
100
AcDbEntity
  8
DP-350_0_15_大阪支店
  6
CONTINUOUS
 62
     1
100
AcDbDimension
  2
*D21
 10
556.1
 20
537.0
 30
0.0
 11
548.6
 21
612.0
 31
0.0
 70
   160
  3
ISO-25
100
AcDbAlignedDimension
 13
444.9
 23
687.0
 33
0.0
 14
445.7
 24
537.0
 34
0.0
 50
90.0
100
AcDbRotatedDimension
1001
ACAD
1000
DSTYLE
1002
{
1070
   270
1070
     2
1070
     6
1000
EX_BNORM
1070
     7
1000
EX_BNORM
1070
    41
1040
9.0
1070
    42
1040
4.5
1070
    44
1040
4.5
1070
    73
1070
     0
1070
    74
1070
     0
1070
    75
1070
     0
1070
    76
1070
     0
1070
    77
1070
     1
1070
    78
1070
     0
1070
   140
1040
9.3543312
1070
   147
1040
0.0
1070
   173
1070
     1
1070
   176
1070
     1
1070
   177
1070
     1
1070
   178
1070
     1
1070
   271
1070
     0
1070
   277
1070
     2
1070
   279
1070
     2
1070
   280
1070
     0
1070
   287
1070
     5
1070
   340
1005
D3
1002
}
  0
DIMENSION
  5
130
330
1F
100
AcDbEntity
  8
DP-350_0_15_大阪支店
  6
CONTINUOUS
 62
     1
100
AcDbDimension
  2
*D22
 10
585.8
 20
512.0
 30
0.0
 11
578.3
 21
612.0
 31
0.0
 70
   160
  3
ISO-25
100
AcDbAlignedDimension
 13
467.7
 23
712.0
 33
0.0
 14
473.8
 24
512.0
 34
0.0
 50
90.0
100
AcDbRotatedDimension
1001
ACAD
1000
DSTYLE
1002
{
1070
   270
1070
     2
1070
     6
1000
EX_BNORM
1070
     7
1000
EX_BNORM
1070
    41
1040
9.0
1070
    42
1040
4.5
1070
    44
1040
4.5
1070
    73
1070
     0
1070
    74
1070
     0
1070
    75
1070
     0
1070
    76
1070
     0
1070
    77
1070
     1
1070
    78
1070
     0
1070
   140
1040
9.3543312
1070
   147
1040
0.0
1070
   173
1070
     1
1070
   176
1070
     1
1070
   177
1070
     1
1070
   178
1070
     1
1070
   271
1070
     0
1070
   277
1070
     2
1070
   279
1070
     2
1070
   280
1070
     0
1070
   287
1070
     5
1070
   340
1005
D3
1002
}
  0
DIMENSION
  5
13D
330
1F
100
AcDbEntity
  8
DP-350_0_15_大阪支店
  6
CONTINUOUS
 62
     1
100
AcDbDimension
  2
*D23
 10
615.9
 20
732.0
 30
0.0
 11
608.4
 21
612.0
 31
0.0
 70
   160
  3
ISO-25
100
AcDbAlignedDimension
 13
492.4
 23
492.0
 33
0.0
 14
488.3
 24
732.0
 34
0.0
 50
90.0
100
AcDbRotatedDimension
1001
ACAD
1000
DSTYLE
1002
{
1070
   270
1070
     2
1070
     6
1000
EX_BNORM
1070
     7
1000
EX_BNORM
1070
    41
1040
9.0
1070
    42
1040
4.5
1070
    44
1040
4.5
1070
    73
1070
     0
1070
    74
1070
     0
1070
    75
1070
     0
1070
    76
1070
     0
1070
    77
1070
     1
1070
    78
1070
     0
1070
   140
1040
9.3543312
1070
   147
1040
0.0
1070
   173
1070
     1
1070
   176
1070
     1
1070
   177
1070
     1
1070
   178
1070
     1
1070
   271
1070
     0
1070
   277
1070
     2
1070
   279
1070
     2
1070
   280
1070
     0
1070
   287
1070
     5
1070
   340
1005
D3
1002
}
  0
ARC
  5
14A
330
1F
100
AcDbEntity
  8
DP-350_0_15_大阪支店
  6
CONTINUOUS
 62
    14
100
AcDbCircle
 10
392.9222277717
 20
588.7794237886
 30
0.0
 40
3.125000000000002
100
AcDbArc
 50
43.73979529168994
 51
206.6941034852999
  0
ARC
  5
14B
330
1F
100
AcDbEntity
  8
DP-350_0_15_大阪支店
  6
CONTINUOUS
 62
    14
100
AcDbCircle
 10
387.9736706132
 20
584.7082713658999
 30
0.0
 40
3.125000000000002
100
AcDbArc
 50
223.7397952917
 51
26.69410348528999
  0
LINE
  5
14C
330
1F
100
AcDbEntity
  8
DP-350_0_15_大阪支店
  6
CONTINUOUS
 62
    14
100
AcDbLine
 10
390.1302976947
 20
587.3755892381
 30
0.0
 11
390.7656006901
 21
586.1121059165
 31
0.0
  0
DIMENSION
  5
14D
330
1F
100
AcDbEntity
  8
DP-350_0_15_大阪支店
  6
CONTINUOUS
 62
     1
100
AcDbDimension
  2
*D24
 10
425.0
 20
392.0
 30
0.0
 11
350.0000000000001
 21
399.5
 31
0.0
 70
   160
  3
ISO-25
100
AcDbAlignedDimension
 13
275.0
 23
517.8
 33
0.0
 14
425.0
 24
515.0
 34
0.0
100
AcDbRotatedDimension
1001
ACAD
1000
DSTYLE
1002
{
1070
   270
1070
     2
1070
     6
1000
EX_BNORM
1070
     7
1000
EX_BNORM
1070
    41
1040
9.0
1070
    42
1040
4.5
1070
    44
1040
4.5
1070
    73
1070
     0
1070
    74
1070
     0
1070
    75
1070
     0
1070
    76
1070
     0
1070
    77
1070
     1
1070
    78
1070
     0
1070
   140
1040
9.3543312
1070
   147
1040
0.0
1070
   173
1070
     1
1070
   176
1070
     1
1070
   177
1070
     1
1070
   178
1070
     1
1070
   271
1070
     0
1070
   277
1070
     2
1070
   279
1070
     2
1070
   280
1070
     0
1070
   287
1070
     5
1070
   340
1005
D3
1002
}
  0
DIMENSION
  5
15A
330
1F
100
AcDbEntity
  8
DP-350_0_15_大阪支店
  6
CONTINUOUS
 62
     1
100
AcDbDimension
  2
*D25
 10
451.0
 20
362.0
 30
0.0
 11
351.0500000000001
 21
369.5
 31
0.0
 70
   160
  3
ISO-25
100
AcDbAlignedDimension
 13
251.1
 23
492.0
 33
0.0
 14
451.0
 24
492.0
 34
0.0
100
AcDbRotatedDimension
1001
ACAD
1000
DSTYLE
1002
{
1070
   270
1070
     2
1070
     6
1000
EX_BNORM
1070
     7
1000
EX_BNORM
1070
    41
1040
9.0
1070
    42
1040
4.5
1070
    44
1040
4.5
1070
    73
1070
     0
1070
    74
1070
     0
1070
    75
1070
     0
1070
    76
1070
     0
1070
    77
1070
     1
1070
    78
1070
     0
1070
   140
1040
9.3543312
1070
   147
1040
0.0
1070
   173
1070
     1
1070
   176
1070
     1
1070
   177
1070
     1
1070
   178
1070
     1
1070
   271
1070
     0
1070
   277
1070
     2
1070
   279
1070
     2
1070
   280
1070
     0
1070
   287
1070
     5
1070
   340
1005
D3
1002
}
  0
DIMENSION
  5
167
330
1F
100
AcDbEntity
  8
DP-350_0_15_大阪支店
  6
CONTINUOUS
 62
     1
100
AcDbDimension
  2
*D26
 10
471.0
 20
332.0
 30
0.0
 11
351.0
 21
339.5
 31
0.0
 70
   160
  3
ISO-25
100
AcDbAlignedDimension
 13
231.0
 23
471.4
 33
0.0
 14
471.0
 24
470.7
 34
0.0
100
AcDbRotatedDimension
1001
ACAD
1000
DSTYLE
1002
{
1070
   270
1070
     2
1070
     6
1000
EX_BNORM
1070
     7
1000
EX_BNORM
1070
    41
1040
9.0
1070
    42
1040
4.5
1070
    44
1040
4.5
1070
    73
1070
     0
1070
    74
1070
     0
1070
    75
1070
     0
1070
    76
1070
     0
1070
    77
1070
     1
1070
    78
1070
     0
1070
   140
1040
9.3543312
1070
   147
1040
0.0
1070
   173
1070
     1
1070
   176
1070
     1
1070
   177
1070
     1
1070
   178
1070
     1
1070
   271
1070
     0
1070
   277
1070
     2
1070
   279
1070
     2
1070
   280
1070
     0
1070
   287
1070
     5
1070
   340
1005
D3
1002
}
  0
DIMENSION
  5
174
330
1F
100
AcDbEntity
  8
DP-350_0_15_大阪支店
  6
CONTINUOUS
 62
     1
100
AcDbDimension
  2
*D27
 10
1629.0
 20
777.0
 30
0.0
 11
1621.5
 21
612.0
 31
0.0
 70
   160
  3
ISO-25
100
AcDbAlignedDimension
 13
1495.0
 23
447.0
 33
0.0
 14
1495.0
 24
777.0
 34
0.0
 50
90.0
100
AcDbRotatedDimension
1001
ACAD
1000
DSTYLE
1002
{
1070
   270
1070
     2
1070
     6
1000
EX_BNORM
1070
     7
1000
EX_BNORM
1070
    41
1040
9.0
1070
    42
1040
4.5
1070
    44
1040
4.5
1070
    73
1070
     0
1070
    74
1070
     0
1070
    75
1070
     0
1070
    76
1070
     1
1070
    77
1070
     1
1070
    78
1070
     0
1070
   140
1040
9.3543312
1070
   147
1040
0.0
1070
   173
1070
     1
1070
   176
1070
     1
1070
   177
1070
     1
1070
   178
1070
     1
1070
   271
1070
     0
1070
   277
1070
     2
1070
   279
1070
     2
1070
   280
1070
     0
1070
   287
1070
     5
1070
   340
1005
D3
1002
}
  0
LINE
  5
180
330
1F
100
AcDbEntity
  8
DP-350_0_15_大阪支店
  6
CONTINUOUS
 62
     1
100
AcDbLine
 10
1498.0
 20
777.0
 30
0.0
 11
1632.0
 21
777.0
 31
0.0
  0
DIMENSION
  5
181
330
1F
100
AcDbEntity
  8
DP-350_0_15_大阪支店
  6
CONTINUOUS
 62
     1
100
AcDbDimension
  2
*D28
 10
1659.0
 20
782.0
 30
0.0
 11
1651.5
 21
612.0
 31
0.0
 70
   160
  3
ISO-25
100
AcDbAlignedDimension
 13
1495.0
 23
442.0
 33
0.0
 14
1495.0
 24
782.0
 34
0.0
 50
90.0
100
AcDbRotatedDimension
1001
ACAD
1000
DSTYLE
1002
{
1070
   270
1070
     2
1070
     6
1000
EX_BNORM
1070
     7
1000
EX_BNORM
1070
    41
1040
9.0
1070
    42
1040
4.5
1070
    44
1040
4.5
1070
    73
1070
     0
1070
    74
1070
     0
1070
    75
1070
     0
1070
    76
1070
     0
1070
    77
1070
     1
1070
    78
1070
     0
1070
   140
1040
9.3543312
1070
   147
1040
0.0
1070
   173
1070
     1
1070
   176
1070
     1
1070
   177
1070
     1
1070
   178
1070
     1
1070
   271
1070
     0
1070
   277
1070
     2
1070
   279
1070
     2
1070
   280
1070
     0
1070
   287
1070
     5
1070
   340
1005
D3
1002
}
  0
DIMENSION
  5
18E
330
1F
100
AcDbEntity
  8
DP-350_0_15_大阪支店
  6
CONTINUOUS
 62
     1
100
AcDbDimension
  2
*D29
 10
889.0
 20
392.0
 30
0.0
 11
829.9999999999999
 21
399.5
 31
0.0
 70
   160
  3
ISO-25
100
AcDbAlignedDimension
 13
771.0
 23
442.0
 33
0.0
 14
889.0
 24
442.0
 34
0.0
100
AcDbRotatedDimension
1001
ACAD
1000
DSTYLE
1002
{
1070
   270
1070
     2
1070
     6
1000
EX_BNORM
1070
     7
1000
EX_BNORM
1070
    41
1040
9.0
1070
    42
1040
4.5
1070
    44
1040
4.5
1070
    73
1070
     0
1070
    74
1070
     0
1070
    75
1070
     0
1070
    76
1070
     1
1070
    77
1070
     1
1070
    78
1070
     0
1070
   140
1040
9.3543312
1070
   147
1040
0.0
1070
   173
1070
     1
1070
   176
1070
     1
1070
   177
1070
     1
1070
   178
1070
     1
1070
   271
1070
     0
1070
   277
1070
     2
1070
   279
1070
     2
1070
   280
1070
     0
1070
   287
1070
     5
1070
   340
1005
D3
1002
}
  0
LINE
  5
19A
330
1F
100
AcDbEntity
  8
DP-350_0_15_大阪支店
  6
CONTINUOUS
 62
     1
100
AcDbLine
 10
889.0
 20
437.5
 30
0.0
 11
889.0
 21
387.5
 31
0.0
  0
DIMENSION
  5
19B
330
1F
100
AcDbEntity
  8
DP-350_0_15_大阪支店
  6
CONTINUOUS
 62
     1
100
AcDbDimension
  2
*D30
 10
905.0
 20
362.0
 30
0.0
 11
829.9999999999999
 21
369.5
 31
0.0
 70
   160
  3
ISO-25
100
AcDbAlignedDimension
 13
755.0
 23
447.0
 33
0.0
 14
905.0
 24
447.0
 34
0.0
100
AcDbRotatedDimension
1001
ACAD
1000
DSTYLE
1002
{
1070
   270
1070
     2
1070
     6
1000
EX_BNORM
1070
     7
1000
EX_BNORM
1070
    41
1040
9.0
1070
    42
1040
4.5
1070
    44
1040
4.5
1070
    73
1070
     0
1070
    74
1070
     0
1070
    75
1070
     0
1070
    76
1070
     0
1070
    77
1070
     1
1070
    78
1070
     0
1070
   140
1040
9.3543312
1070
   147
1040
0.0
1070
   173
1070
     1
1070
   176
1070
     1
1070
   177
1070
     1
1070
   178
1070
     1
1070
   271
1070
     0
1070
   277
1070
     2
1070
   279
1070
     2
1070
   280
1070
     0
1070
   287
1070
     5
1070
   340
1005
D3
1002
}
  0
LEADER
  5
1A8
330
1F
100
AcDbEntity
  8
DP-350_0_15_大阪支店
  6
CONTINUOUS
 62
     1
100
AcDbLeader
  3
ISO-25
 76
     2
 10
905.0
 20
392.0
 30
0.0
 10
939.0
 20
392.0
 30
0.0
1001
ACAD
1000
DSTYLE
1002
{
1070
     5
1000
EX_BNORM
1070
    41
1040
9.0
1070
   341
1005
7A
1002
}
  0
LEADER
  5
1A9
330
1F
100
AcDbEntity
  8
DP-350_0_15_大阪支店
  6
CONTINUOUS
 62
     1
100
AcDbLeader
  3
ISO-25
 76
     2
 10
755.0
 20
392.0
 30
0.0
 10
723.0
 20
392.0
 30
0.0
1001
ACAD
1000
DSTYLE
1002
{
1070
     5
1000
EX_BNORM
1070
    41
1040
9.0
1070
   341
1005
7A
1002
}
  0
TEXT
  5
1AA
330
1F
100
AcDbEntity
  8
DP-350_0_15_大阪支店
  6
CONTINUOUS
 62
     1
100
AcDbText
 10
721.0
 20
396.1062996
 30
0.0
 40
9.3543312
  1
１６
 41
1.001019472613754
  7
EXCADSTD
 72
     5
 11
743.08
 21
396.1062996
 31
0.0
100
AcDbText
  0
TEXT
  5
1AB
330
1F
100
AcDbEntity
  8
DP-350_0_15_大阪支店
  6
CONTINUOUS
 62
     1
100
AcDbText
 10
913.9999999999999
 20
394.1062995999999
 30
0.0
 40
9.3543312
  1
１６
 41
1.001019472613754
  7
EXCADSTD
 72
     5
 11
936.0799999999999
 21
394.1062995999999
 31
0.0
100
AcDbText
  0
DIMENSION
  5
1AC
330
1F
100
AcDbEntity
  8
DP-350_0_15_大阪支店
  6
CONTINUOUS
 62
     1
100
AcDbDimension
  2
*D31
 10
393.3012701892
 20
637.0
 30
0.0
 11
281.2500000000001
 21
580.4951905284066
 31
0.0
 70
   163
 53
30.00000000000001
  3
ISO-25
100
AcDbDiametricDimension
 15
306.6987298108
 25
587.0
 35
0.0
 40
0.0
1001
ACAD
1000
DSTYLE
1002
{
1070
   270
1070
     2
1070
     6
1000
EX_BNORM
1070
     7
1000
EX_BNORM
1070
    41
1040
9.0
1070
    73
1070
     0
1070
    74
1070
     0
1070
    77
1070
     1
1070
    78
1070
     0
1070
   140
1040
9.3543312
1070
   147
1040
0.0
1070
   173
1070
     1
1070
   176
1070
     1
1070
   177
1070
     1
1070
   178
1070
     1
1070
   271
1070
     0
1070
   277
1070
     2
1070
   279
1070
     2
1070
   280
1070
     0
1070
   287
1070
     5
1070
   340
1005
D3
1002
}
  0
LEADER
  5
1B7
330
1F
100
AcDbEntity
  8
DP-350_0_15_大阪支店
  6
CONTINUOUS
 62
     1
100
AcDbLeader
  3
ISO-25
 76
     3
 10
1441.701612181
 20
747.7972362611999
 30
0.0
 10
1386.86919048
 20
842.7697765499
 30
0.0
 10
1490.0
 20
842.7697765499
 30
0.0
1001
ACAD
1000
DSTYLE
1002
{
1070
     5
1000
EX_BNORM
1070
    41
1040
9.0
1070
   341
1005
7A
1002
}
  0
LEADER
  5
1B8
330
1F
100
AcDbEntity
  8
DP-350_0_15_大阪支店
  6
CONTINUOUS
 62
     1
100
AcDbLeader
  3
ISO-25
 76
     3
 10
462.7016121809
 20
742.7972362611999
 30
0.0
 10
407.8691904797
 20
837.7697765499
 30
0.0
 10
511.0
 20
837.7697765499
 30
0.0
1001
ACAD
1000
DSTYLE
1002
{
1070
     5
1000
EX_BNORM
1070
    41
1040
9.0
1070
   341
1005
7A
1002
}
  0
DIMENSION
  5
1B9
330
1F
100
AcDbEntity
  8
DP-350_0_15_大阪支店
  6
CONTINUOUS
 62
     1
100
AcDbDimension
  2
*D32
 10
1495.0
 20
300.0
 30
0.0
 11
1325.0
 21
307.5
 31
0.0
 70
   160
  3
ISO-25
100
AcDbAlignedDimension
 13
1155.0
 23
442.0
 33
0.0
 14
1495.0
 24
442.0
 34
0.0
100
AcDbRotatedDimension
1001
ACAD
1000
DSTYLE
1002
{
1070
   270
1070
     2
1070
     6
1000
EX_BNORM
1070
     7
1000
EX_BNORM
1070
    41
1040
9.0
1070
    42
1040
4.5
1070
    44
1040
4.5
1070
    73
1070
     0
1070
    74
1070
     0
1070
    75
1070
     0
1070
    76
1070
     0
1070
    77
1070
     1
1070
    78
1070
     0
1070
   140
1040
9.3543312
1070
   147
1040
0.0
1070
   173
1070
     1
1070
   176
1070
     1
1070
   177
1070
     1
1070
   178
1070
     1
1070
   271
1070
     0
1070
   277
1070
     2
1070
   279
1070
     2
1070
   280
1070
     0
1070
   287
1070
     5
1070
   340
1005
D3
1002
}
  0
DIMENSION
  5
1C6
330
1F
100
AcDbEntity
  8
DP-350_0_15_大阪支店
  6
CONTINUOUS
 62
     1
100
AcDbDimension
  2
*D33
 10
705.0
 20
777.0
 30
0.0
 11
697.5
 21
612.0
 31
0.0
 70
   160
  3
ISO-25
100
AcDbAlignedDimension
 13
755.0
 23
447.0
 33
0.0
 14
755.0
 24
777.0
 34
0.0
 50
90.0
100
AcDbRotatedDimension
1001
ACAD
1000
DSTYLE
1002
{
1070
   270
1070
     2
1070
     6
1000
EX_BNORM
1070
     7
1000
EX_BNORM
1070
    41
1040
9.0
1070
    42
1040
4.5
1070
    44
1040
4.5
1070
    73
1070
     0
1070
    74
1070
     0
1070
    75
1070
     0
1070
    76
1070
     1
1070
    77
1070
     1
1070
    78
1070
     0
1070
   140
1040
9.3543312
1070
   147
1040
0.0
1070
   173
1070
     1
1070
   176
1070
     1
1070
   177
1070
     1
1070
   178
1070
     1
1070
   271
1070
     0
1070
   277
1070
     2
1070
   279
1070
     2
1070
   280
1070
     0
1070
   287
1070
     5
1070
   340
1005
D3
1002
}
  0
LINE
  5
1D2
330
1F
100
AcDbEntity
  8
DP-350_0_15_大阪支店
  6
CONTINUOUS
 62
     1
100
AcDbLine
 10
750.5
 20
777.0
 30
0.0
 11
700.5
 21
777.0
 31
0.0
  0
TEXT
  5
1D3
330
1F
100
AcDbEntity
  8
DP-350_0_15_大阪支店
  6
CONTINUOUS
 62
     1
100
AcDbText
 10
702.7937004
 20
789.8999999999999
 30
0.0
 40
9.3543312
  1
５
 50
90.0
 41
0.9139743010821254
  7
EXCADSTD
 72
     5
 11
702.7937004
 21
799.9799999999999
 31
0.0
100
AcDbText
  0
DIMENSION
  5
1D4
330
1F
100
AcDbEntity
  8
DP-350_0_15_大阪支店
  6
CONTINUOUS
 62
     1
100
AcDbDimension
  2
*D34
 10
679.0
 20
782.0
 30
0.0
 11
671.5
 21
612.0
 31
0.0
 70
   160
  3
ISO-25
100
AcDbAlignedDimension
 13
771.0
 23
442.0
 33
0.0
 14
771.0
 24
782.0
 34
0.0
 50
90.0
100
AcDbRotatedDimension
1001
ACAD
1000
DSTYLE
1002
{
1070
   270
1070
     2
1070
     6
1000
EX_BNORM
1070
     7
1000
EX_BNORM
1070
    41
1040
9.0
1070
    42
1040
4.5
1070
    44
1040
4.5
1070
    73
1070
     0
1070
    74
1070
     0
1070
    75
1070
     0
1070
    76
1070
     0
1070
    77
1070
     1
1070
    78
1070
     0
1070
   140
1040
9.3543312
1070
   147
1040
0.0
1070
   173
1070
     1
1070
   176
1070
     1
1070
   177
1070
     1
1070
   178
1070
     1
1070
   271
1070
     0
1070
   277
1070
     2
1070
   279
1070
     2
1070
   280
1070
     0
1070
   287
1070
     5
1070
   340
1005
D3
1002
}
  0
LINE
  5
1E1
330
1F
100
AcDbEntity
  8
DP-350_0_15_大阪支店
  6
CONTINUOUS
 62
     1
100
AcDbLine
 10
893.5
 20
442.0
 30
0.0
 11
959.5
 21
442.0
 31
0.0
  0
LINE
  5
1E2
330
1F
100
AcDbEntity
  8
DP-350_0_15_大阪支店
  6
CONTINUOUS
 62
     1
100
AcDbLine
 10
893.5
 20
461.0
 30
0.0
 11
959.5
 21
461.0
 31
0.0
  0
TEXT
  5
1E3
330
1F
100
AcDbEntity
  8
DP-350_0_15_大阪支店
  6
CONTINUOUS
 62
     1
100
AcDbText
 10
951.8937004
 20
439.5
 30
0.0
 40
9.3543312
  1
１９
 50
90.0
 41
1.001019472613752
  7
EXCADSTD
 72
     5
 11
951.8937004
 21
461.58
 31
0.0
100
AcDbText
  0
DIMENSION
  5
1E4
330
1F
100
AcDbEntity
  8
DP-350_0_15_大阪支店
  6
CONTINUOUS
 62
     1
100
AcDbDimension
  2
*D35
 10
955.0
 20
542.9999999999999
 30
0.0
 11
947.5
 21
502.0
 31
0.0
 70
   160
  3
ISO-25
100
AcDbAlignedDimension
 13
889.0
 23
461.0
 33
0.0
 14
889.0
 24
543.0
 34
0.0
 50
90.0
100
AcDbRotatedDimension
1001
ACAD
1000
DSTYLE
1002
{
1070
   270
1070
     2
1070
     6
1000
EX_BNORM
1070
     7
1000
EX_BNORM
1070
    41
1040
9.0
1070
    42
1040
4.5
1070
    44
1040
4.5
1070
    73
1070
     0
1070
    74
1070
     0
1070
    75
1070
     1
1070
    76
1070
     0
1070
    77
1070
     1
1070
    78
1070
     0
1070
   140
1040
9.3543312
1070
   147
1040
0.0
1070
   173
1070
     1
1070
   176
1070
     1
1070
   177
1070
     1
1070
   178
1070
     1
1070
   271
1070
     0
1070
   277
1070
     2
1070
   279
1070
     2
1070
   280
1070
     0
1070
   287
1070
     5
1070
   340
1005
D3
1002
}
  0
LINE
  5
1F0
330
1F
100
AcDbEntity
  8
DP-350_0_15_大阪支店
  6
CONTINUOUS
 62
     1
100
AcDbLine
 10
893.5
 20
562.0
 30
0.0
 11
959.5
 21
562.0
 31
0.0
  0
TEXT
  5
1F1
330
1F
100
AcDbEntity
  8
DP-350_0_15_大阪支店
  6
CONTINUOUS
 62
     1
100
AcDbText
 10
951.8937004
 20
540.5
 30
0.0
 40
9.3543312
  1
１９
 50
90.0
 41
1.001019472613754
  7
EXCADSTD
 72
     5
 11
951.8937004
 21
562.58
 31
0.0
100
AcDbText
  0
DIMENSION
  5
1F2
330
1F
100
AcDbEntity
  8
DP-350_0_15_大阪支店
  6
CONTINUOUS
 62
     1
100
AcDbDimension
  2
*D36
 10
955.0
 20
661.9999999999999
 30
0.0
 11
947.5
 21
612.0
 31
0.0
 70
   160
  3
ISO-25
100
AcDbAlignedDimension
 13
889.0
 23
562.0
 33
0.0
 14
889.0
 24
662.0
 34
0.0
 50
90.0
100
AcDbRotatedDimension
1001
ACAD
1000
DSTYLE
1002
{
1070
   270
1070
     2
1070
     6
1000
EX_BNORM
1070
     7
1000
EX_BNORM
1070
    41
1040
9.0
1070
    42
1040
4.5
1070
    44
1040
4.5
1070
    73
1070
     0
1070
    74
1070
     0
1070
    75
1070
     1
1070
    76
1070
     0
1070
    77
1070
     1
1070
    78
1070
     0
1070
   140
1040
9.3543312
1070
   147
1040
0.0
1070
   173
1070
     1
1070
   176
1070
     1
1070
   177
1070
     1
1070
   178
1070
     1
1070
   271
1070
     0
1070
   277
1070
     2
1070
   279
1070
     2
1070
   280
1070
     0
1070
   287
1070
     5
1070
   340
1005
D3
1002
}
  0
LINE
  5
1FE
330
1F
100
AcDbEntity
  8
DP-350_0_15_大阪支店
  6
CONTINUOUS
 62
     1
100
AcDbLine
 10
893.5
 20
681.0
 30
0.0
 11
959.5
 21
681.0
 31
0.0
  0
TEXT
  5
1FF
330
1F
100
AcDbEntity
  8
DP-350_0_15_大阪支店
  6
CONTINUOUS
 62
     1
100
AcDbText
 10
951.8937004
 20
659.5
 30
0.0
 40
9.3543312
  1
１９
 50
90.0
 41
1.001019472613754
  7
EXCADSTD
 72
     5
 11
951.8937004
 21
681.58
 31
0.0
100
AcDbText
  0
DIMENSION
  5
200
330
1F
100
AcDbEntity
  8
DP-350_0_15_大阪支店
  6
CONTINUOUS
 62
     1
100
AcDbDimension
  2
*D37
 10
955.0
 20
762.9999999999999
 30
0.0
 11
947.5
 21
722.0
 31
0.0
 70
   160
  3
ISO-25
100
AcDbAlignedDimension
 13
889.0
 23
681.0
 33
0.0
 14
889.0
 24
763.0
 34
0.0
 50
90.0
100
AcDbRotatedDimension
1001
ACAD
1000
DSTYLE
1002
{
1070
   270
1070
     2
1070
     6
1000
EX_BNORM
1070
     7
1000
EX_BNORM
1070
    41
1040
9.0
1070
    42
1040
4.5
1070
    44
1040
4.5
1070
    73
1070
     0
1070
    74
1070
     0
1070
    75
1070
     1
1070
    76
1070
     0
1070
    77
1070
     1
1070
    78
1070
     0
1070
   140
1040
9.3543312
1070
   147
1040
0.0
1070
   173
1070
     1
1070
   176
1070
     1
1070
   177
1070
     1
1070
   178
1070
     1
1070
   271
1070
     0
1070
   277
1070
     2
1070
   279
1070
     2
1070
   280
1070
     0
1070
   287
1070
     5
1070
   340
1005
D3
1002
}
  0
LINE
  5
20C
330
1F
100
AcDbEntity
  8
DP-350_0_15_大阪支店
  6
CONTINUOUS
 62
     1
100
AcDbLine
 10
893.5
 20
782.0
 30
0.0
 11
959.5
 21
782.0
 31
0.0
  0
TEXT
  5
20D
330
1F
100
AcDbEntity
  8
DP-350_0_15_大阪支店
  6
CONTINUOUS
 62
     1
100
AcDbText
 10
951.8937004
 20
760.5
 30
0.0
 40
9.3543312
  1
１９
 50
90.0
 41
1.001019472613754
  7
EXCADSTD
 72
     5
 11
951.8937004
 21
782.58
 31
0.0
100
AcDbText
  0
LEADER
  5
20E
330
1F
100
AcDbEntity
  8
DP-350_0_15_大阪支店
  6
CONTINUOUS
 62
     1
100
AcDbLeader
  3
ISO-25
 76
     2
 10
705.0
 20
782.0
 30
0.0
 10
705.0
 20
800.8
 30
0.0
1001
ACAD
1000
DSTYLE
1002
{
1070
     5
1000
EX_BNORM
1070
    41
1040
9.0
1070
   341
1005
7A
1002
}
  0
LEADER
  5
20F
330
1F
100
AcDbEntity
  8
DP-350_0_15_大阪支店
  6
CONTINUOUS
 62
     1
100
AcDbLeader
  3
ISO-25
 76
     2
 10
705.0
 20
442.0
 30
0.0
 10
705.0
 20
423.2
 30
0.0
1001
ACAD
1000
DSTYLE
1002
{
1070
     5
1000
EX_BNORM
1070
    41
1040
9.0
1070
   341
1005
7A
1002
}
  0
TEXT
  5
210
330
1F
100
AcDbEntity
  8
DP-350_0_15_大阪支店
  6
CONTINUOUS
 62
     1
100
AcDbText
 10
702.7937003999999
 20
420.9
 30
0.0
 40
9.3543312
  1
５
 50
90.0
 41
0.9139743010821203
  7
EXCADSTD
 72
     5
 11
702.7937003999999
 21
430.98
 31
0.0
100
AcDbText
  0
DIMENSION
  5
211
330
1F
100
AcDbEntity
  8
DP-350_0_15_大阪支店
  6
CONTINUOUS
 62
     1
100
AcDbDimension
  2
*D38
 10
1333.5
 20
830.0
 30
0.0
 11
1324.0
 21
837.4999999999999
 31
0.0
 70
   160
  3
ISO-25
100
AcDbAlignedDimension
 13
1314.5
 23
763.0
 33
0.0
 14
1333.5
 24
763.0
 34
0.0
100
AcDbRotatedDimension
1001
ACAD
1000
DSTYLE
1002
{
1070
   270
1070
     2
1070
     6
1000
EX_BNORM
1070
     7
1000
EX_BNORM
1070
    41
1040
9.0
1070
    42
1040
4.5
1070
    44
1040
4.5
1070
    73
1070
     0
1070
    74
1070
     0
1070
    75
1070
     0
1070
    76
1070
     0
1070
    77
1070
     1
1070
    78
1070
     0
1070
   140
1040
9.3543312
1070
   147
1040
0.0
1070
   173
1070
     1
1070
   176
1070
     1
1070
   177
1070
     1
1070
   178
1070
     1
1070
   271
1070
     0
1070
   277
1070
     2
1070
   279
1070
     2
1070
   280
1070
     0
1070
   287
1070
     5
1070
   340
1005
D3
1002
}
  0
DIMENSION
  5
21E
330
1F
100
AcDbEntity
  8
DP-350_0_15_大阪支店
  6
CONTINUOUS
 62
     1
100
AcDbDimension
  2
*D39
 10
1374.0
 20
856.0
 30
0.0
 11
1324.0
 21
863.5
 31
0.0
 70
   160
  3
ISO-25
100
AcDbAlignedDimension
 13
1274.0
 23
681.0
 33
0.0
 14
1374.0
 24
681.0
 34
0.0
100
AcDbRotatedDimension
1001
ACAD
1000
DSTYLE
1002
{
1070
   270
1070
     2
1070
     6
1000
EX_BNORM
1070
     7
1000
EX_BNORM
1070
    41
1040
9.0
1070
    42
1040
4.5
1070
    44
1040
4.5
1070
    73
1070
     0
1070
    74
1070
     0
1070
    75
1070
     0
1070
    76
1070
     0
1070
    77
1070
     1
1070
    78
1070
     0
1070
   140
1040
9.3543312
1070
   147
1040
0.0
1070
   173
1070
     1
1070
   176
1070
     1
1070
   177
1070
     1
1070
   178
1070
     1
1070
   271
1070
     0
1070
   277
1070
     2
1070
   279
1070
     2
1070
   280
1070
     0
1070
   287
1070
     5
1070
   340
1005
D3
1002
}
  0
POLYLINE
  5
22B
330
1F
100
AcDbEntity
  8
DP-350_0_15_大阪支店
  6
CONTINUOUS
 62
     1
100
AcDb2dPolyline
 66
     1
 10
0.0
 20
0.0
 30
0.0
 70
   128
  0
VERTEX
  5
22C
330
22B
100
AcDbEntity
  8
DP-350_0_15_大阪支店
  6
CONTINUOUS
 62
     1
100
AcDbVertex
100
AcDb2dVertex
 10
955.0
 20
782.0
 30
0.0
  0
VERTEX
  5
22D
330
22B
100
AcDbEntity
  8
DP-350_0_15_大阪支店
  6
CONTINUOUS
 62
     1
100
AcDbVertex
100
AcDb2dVertex
 10
955.0
 20
795.3
 30
0.0
  0
SEQEND
  5
22E
330
22B
100
AcDbEntity
  8
DP-350_0_15_大阪支店
  6
CONTINUOUS
 62
     1
  0
LINE
  5
22F
330
1F
100
AcDbEntity
  8
DP-350_0_15_大阪支店
  6
CONTINUOUS
 62
     1
100
AcDbLine
 10
953.5
 20
791.0
 30
0.0
 11
955.0
 21
782.0
 31
0.0
  0
LINE
  5
230
330
1F
100
AcDbEntity
  8
DP-350_0_15_大阪支店
  6
CONTINUOUS
 62
     1
100
AcDbLine
 10
955.0
 20
782.0
 30
0.0
 11
956.5
 21
791.0
 31
0.0
  0
LINE
  5
231
330
1F
100
AcDbEntity
  8
DP-350_0_15_大阪支店
  6
CONTINUOUS
 62
     1
100
AcDbLine
 10
956.5
 20
791.0
 30
0.0
 11
953.5
 21
791.0
 31
0.0
  0
LINE
  5
232
330
1F
100
AcDbEntity
  8
DP-350_0_15_大阪支店
  6
CONTINUOUS
 62
     1
100
AcDbLine
 10
954.25
 20
791.0
 30
0.0
 11
955.0
 21
782.0
 31
0.0
  0
LINE
  5
233
330
1F
100
AcDbEntity
  8
DP-350_0_15_大阪支店
  6
CONTINUOUS
 62
     1
100
AcDbLine
 10
955.0
 20
782.0
 30
0.0
 11
955.75
 21
791.0
 31
0.0
  0
POLYLINE
  5
234
330
1F
100
AcDbEntity
  8
DP-350_0_15_大阪支店
  6
CONTINUOUS
 62
     1
100
AcDb2dPolyline
 66
     1
 10
0.0
 20
0.0
 30
0.0
 70
   128
  0
VERTEX
  5
235
330
234
100
AcDbEntity
  8
DP-350_0_15_大阪支店
  6
CONTINUOUS
 62
     1
100
AcDbVertex
100
AcDb2dVertex
 10
955.0
 20
442.0
 30
0.0
  0
VERTEX
  5
236
330
234
100
AcDbEntity
  8
DP-350_0_15_大阪支店
  6
CONTINUOUS
 62
     1
100
AcDbVertex
100
AcDb2dVertex
 10
955.0
 20
428.7
 30
0.0
  0
SEQEND
  5
237
330
234
100
AcDbEntity
  8
DP-350_0_15_大阪支店
  6
CONTINUOUS
 62
     1
  0
LINE
  5
238
330
1F
100
AcDbEntity
  8
DP-350_0_15_大阪支店
  6
CONTINUOUS
 62
     1
100
AcDbLine
 10
956.5
 20
433.0
 30
0.0
 11
955.0
 21
442.0
 31
0.0
  0
LINE
  5
239
330
1F
100
AcDbEntity
  8
DP-350_0_15_大阪支店
  6
CONTINUOUS
 62
     1
100
AcDbLine
 10
955.0
 20
442.0
 30
0.0
 11
953.5
 21
433.0
 31
0.0
  0
LINE
  5
23A
330
1F
100
AcDbEntity
  8
DP-350_0_15_大阪支店
  6
CONTINUOUS
 62
     1
100
AcDbLine
 10
953.5
 20
433.0
 30
0.0
 11
956.5
 21
433.0
 31
0.0
  0
LINE
  5
23B
330
1F
100
AcDbEntity
  8
DP-350_0_15_大阪支店
  6
CONTINUOUS
 62
     1
100
AcDbLine
 10
955.75
 20
433.0
 30
0.0
 11
955.0
 21
442.0
 31
0.0
  0
LINE
  5
23C
330
1F
100
AcDbEntity
  8
DP-350_0_15_大阪支店
  6
CONTINUOUS
 62
     1
100
AcDbLine
 10
955.0
 20
442.0
 30
0.0
 11
954.25
 21
433.0
 31
0.0
  0
TEXT
  5
23D
330
1F
100
AcDbEntity
  8
DP-350_0_15_大阪支店
  6
CONTINUOUS
 62
     6
100
AcDbText
 10
1245.0
 20
988.2125992
 30
0.0
 40
18.7086624
  1
ジャッキ側
 41
0.818790526541666
  7
EXCADSTD
 72
     5
 11
1361.16
 21
988.2125992
 31
0.0
100
AcDbText
  0
TEXT
  5
23E
330
1F
100
AcDbEntity
  8
DP-350_0_15_大阪支店
  6
CONTINUOUS
 62
     6
100
AcDbText
 10
279.0
 20
987.2125992
 30
0.0
 40
18.7086624
  1
ストローク側
 41
0.8389380490719881
  7
EXCADSTD
 72
     5
 11
419.16
 21
987.2125992
 31
0.0
100
AcDbText
  0
TEXT
  5
23F
330
1F
100
AcDbEntity
  8
DP-350_0_15_大阪支店
  6
CONTINUOUS
 62
     6
100
AcDbText
 10
1408.4
 20
38.9078745
 30
0.0
 40
11.692914
  1
調整材　ＤＰ－３５０
 41
0.8946158497521242
  7
EXCADSTD
 72
     5
 11
1556.0
 21
38.9078745
 31
0.0
100
AcDbText
  0
TEXT
  5
240
330
1F
100
AcDbEntity
  8
DP-350_0_15_大阪支店
  6
CONTINUOUS
 62
     1
100
AcDbText
 10
406.8541781544999
 20
843.0690774897
 30
0.0
 40
9.3543312
  1
１２－φ２５キリ
 41
0.9054986233103147
  7
EXCADSTD
 72
     5
 11
500.9341781544999
 21
843.0690774897
 31
0.0
100
AcDbText
  0
TEXT
  5
241
330
1F
100
AcDbEntity
  8
DP-350_0_15_大阪支店
  6
CONTINUOUS
 62
     1
100
AcDbText
 10
1388.051168594
 20
845.5719643514001
 30
0.0
 40
9.3543312
  1
１２－φ２５キリ
 41
0.9054986233103142
  7
EXCADSTD
 72
     5
 11
1482.131168594
 21
845.5719643514001
 31
0.0
100
AcDbText
  0
LINE
  5
242
330
1F
100
AcDbEntity
  8
DP-350_0_15_大阪支店
  6
EXLTYPE2
 62
     1
100
AcDbLine
 10
350.0
 20
801.0
 30
0.0
 11
350.0
 21
425.0
 31
0.0
  0
LINE
  5
243
330
1F
100
AcDbEntity
  8
DP-350_0_15_大阪支店
  6
EXLTYPE2
 62
     1
100
AcDbLine
 10
166.0
 20
612.0
 30
0.0
 11
528.0
 21
612.0
 31
0.0
  0
LINE
  5
244
330
1F
100
AcDbEntity
  8
DP-350_0_15_大阪支店
  6
EXLTYPE2
 62
     1
100
AcDbLine
 10
275.0
 20
707.0
 30
0.0
 11
275.0
 21
667.0
 31
0.0
  0
LINE
  5
245
330
1F
100
AcDbEntity
  8
DP-350_0_15_大阪支店
  6
EXLTYPE2
 62
     1
100
AcDbLine
 10
295.0
 20
687.0
 30
0.0
 11
255.0
 21
687.0
 31
0.0
  0
LINE
  5
246
330
1F
100
AcDbEntity
  8
DP-350_0_15_大阪支店
  6
EXLTYPE2
 62
     1
100
AcDbLine
 10
250.0
 20
692.0
 30
0.0
 11
250.0
 21
732.0
 31
0.0
  0
LINE
  5
247
330
1F
100
AcDbEntity
  8
DP-350_0_15_大阪支店
  6
EXLTYPE2
 62
     1
100
AcDbLine
 10
269.9
 20
712.0
 30
0.0
 11
230.0
 21
712.0
 31
0.0
  0
LINE
  5
248
330
1F
100
AcDbEntity
  8
DP-350_0_15_大阪支店
  6
EXLTYPE2
 62
     1
100
AcDbLine
 10
231.0
 20
712.0
 30
0.0
 11
231.0
 21
752.0
 31
0.0
  0
LINE
  5
249
330
1F
100
AcDbEntity
  8
DP-350_0_15_大阪支店
  6
EXLTYPE2
 62
     1
100
AcDbLine
 10
211.0
 20
732.0
 30
0.0
 11
251.0
 21
732.0
 31
0.0
  0
LINE
  5
24A
330
1F
100
AcDbEntity
  8
DP-350_0_15_大阪支店
  6
EXLTYPE2
 62
     1
100
AcDbLine
 10
405.0
 20
687.0
 30
0.0
 11
445.0
 21
687.0
 31
0.0
  0
LINE
  5
24B
330
1F
100
AcDbEntity
  8
DP-350_0_15_大阪支店
  6
EXLTYPE2
 62
     1
100
AcDbLine
 10
425.0
 20
707.0
 30
0.0
 11
425.0
 21
667.0
 31
0.0
  0
LINE
  5
24C
330
1F
100
AcDbEntity
  8
DP-350_0_15_大阪支店
  6
EXLTYPE2
 62
     1
100
AcDbLine
 10
450.0
 20
692.0
 30
0.0
 11
450.0
 21
732.0
 31
0.0
  0
LINE
  5
24D
330
1F
100
AcDbEntity
  8
DP-350_0_15_大阪支店
  6
EXLTYPE2
 62
     1
100
AcDbLine
 10
430.1
 20
712.0
 30
0.0
 11
470.0
 21
712.0
 31
0.0
  0
LINE
  5
24E
330
1F
100
AcDbEntity
  8
DP-350_0_15_大阪支店
  6
EXLTYPE2
 62
     1
100
AcDbLine
 10
469.0
 20
712.0
 30
0.0
 11
469.0
 21
752.0
 31
0.0
  0
LINE
  5
24F
330
1F
100
AcDbEntity
  8
DP-350_0_15_大阪支店
  6
EXLTYPE2
 62
     1
100
AcDbLine
 10
489.0
 20
732.0
 30
0.0
 11
449.0
 21
732.0
 31
0.0
  0
LINE
  5
250
330
1F
100
AcDbEntity
  8
DP-350_0_15_大阪支店
  6
EXLTYPE2
 62
     1
100
AcDbLine
 10
275.0
 20
517.0
 30
0.0
 11
275.0
 21
557.0
 31
0.0
  0
LINE
  5
251
330
1F
100
AcDbEntity
  8
DP-350_0_15_大阪支店
  6
EXLTYPE2
 62
     1
100
AcDbLine
 10
295.0
 20
537.0
 30
0.0
 11
255.0
 21
537.0
 31
0.0
  0
LINE
  5
252
330
1F
100
AcDbEntity
  8
DP-350_0_15_大阪支店
  6
EXLTYPE2
 62
     1
100
AcDbLine
 10
250.0
 20
532.0
 30
0.0
 11
250.0
 21
492.0
 31
0.0
  0
LINE
  5
253
330
1F
100
AcDbEntity
  8
DP-350_0_15_大阪支店
  6
EXLTYPE2
 62
     1
100
AcDbLine
 10
269.9
 20
512.0
 30
0.0
 11
230.0
 21
512.0
 31
0.0
  0
LINE
  5
254
330
1F
100
AcDbEntity
  8
DP-350_0_15_大阪支店
  6
EXLTYPE2
 62
     1
100
AcDbLine
 10
231.0
 20
512.0
 30
0.0
 11
231.0
 21
472.0
 31
0.0
  0
LINE
  5
255
330
1F
100
AcDbEntity
  8
DP-350_0_15_大阪支店
  6
EXLTYPE2
 62
     1
100
AcDbLine
 10
211.0
 20
492.0
 30
0.0
 11
251.0
 21
492.0
 31
0.0
  0
LINE
  5
256
330
1F
100
AcDbEntity
  8
DP-350_0_15_大阪支店
  6
EXLTYPE2
 62
     1
100
AcDbLine
 10
430.1
 20
512.0
 30
0.0
 11
470.0
 21
512.0
 31
0.0
  0
LINE
  5
257
330
1F
100
AcDbEntity
  8
DP-350_0_15_大阪支店
  6
EXLTYPE2
 62
     1
100
AcDbLine
 10
450.0
 20
532.0
 30
0.0
 11
450.0
 21
492.0
 31
0.0
  0
LINE
  5
258
330
1F
100
AcDbEntity
  8
DP-350_0_15_大阪支店
  6
EXLTYPE2
 62
     1
100
AcDbLine
 10
425.0
 20
517.0
 30
0.0
 11
425.0
 21
557.0
 31
0.0
  0
LINE
  5
259
330
1F
100
AcDbEntity
  8
DP-350_0_15_大阪支店
  6
EXLTYPE2
 62
     1
100
AcDbLine
 10
405.0
 20
537.0
 30
0.0
 11
445.0
 21
537.0
 31
0.0
  0
LINE
  5
25A
330
1F
100
AcDbEntity
  8
DP-350_0_15_大阪支店
  6
EXLTYPE2
 62
     1
100
AcDbLine
 10
489.0
 20
492.0
 30
0.0
 11
449.0
 21
492.0
 31
0.0
  0
LINE
  5
25B
330
1F
100
AcDbEntity
  8
DP-350_0_15_大阪支店
  6
EXLTYPE2
 62
     1
100
AcDbLine
 10
469.0
 20
512.0
 30
0.0
 11
469.0
 21
472.0
 31
0.0
  0
LINE
  5
25C
330
1F
100
AcDbEntity
  8
DP-350_0_15_大阪支店
  6
EXLTYPE2
 62
     1
100
AcDbLine
 10
744.0
 20
537.0
 30
0.0
 11
782.4
 21
537.0
 31
0.0
  0
LINE
  5
25D
330
1F
100
AcDbEntity
  8
DP-350_0_15_大阪支店
  6
EXLTYPE2
 62
     1
100
AcDbLine
 10
744.0
 20
512.0
 30
0.0
 11
782.4
 21
512.0
 31
0.0
  0
LINE
  5
25E
330
1F
100
AcDbEntity
  8
DP-350_0_15_大阪支店
  6
EXLTYPE2
 62
     1
100
AcDbLine
 10
782.4
 20
491.0
 30
0.0
 11
744.0
 21
491.0
 31
0.0
  0
LINE
  5
25F
330
1F
100
AcDbEntity
  8
DP-350_0_15_大阪支店
  6
EXLTYPE2
 62
     1
100
AcDbLine
 10
877.9
 20
486.0
 30
0.0
 11
914.9
 21
486.0
 31
0.0
  0
LINE
  5
260
330
1F
100
AcDbEntity
  8
DP-350_0_15_大阪支店
  6
EXLTYPE2
 62
     1
100
AcDbLine
 10
914.9
 20
512.0
 30
0.0
 11
877.9
 21
512.0
 31
0.0
  0
LINE
  5
261
330
1F
100
AcDbEntity
  8
DP-350_0_15_大阪支店
  6
EXLTYPE2
 62
     1
100
AcDbLine
 10
914.9
 20
537.0
 30
0.0
 11
877.9
 21
537.0
 31
0.0
  0
LINE
  5
262
330
1F
100
AcDbEntity
  8
DP-350_0_15_大阪支店
  6
EXLTYPE2
 62
     1
100
AcDbLine
 10
744.0
 20
612.0
 30
0.0
 11
923.0
 21
612.0
 31
0.0
  0
LINE
  5
263
330
1F
100
AcDbEntity
  8
DP-350_0_15_大阪支店
  6
EXLTYPE2
 62
     1
100
AcDbLine
 10
744.0
 20
687.0
 30
0.0
 11
782.4
 21
687.0
 31
0.0
  0
LINE
  5
264
330
1F
100
AcDbEntity
  8
DP-350_0_15_大阪支店
  6
EXLTYPE2
 62
     1
100
AcDbLine
 10
877.9
 20
738.0
 30
0.0
 11
914.9
 21
738.0
 31
0.0
  0
LINE
  5
265
330
1F
100
AcDbEntity
  8
DP-350_0_15_大阪支店
  6
EXLTYPE2
 62
     1
100
AcDbLine
 10
914.9
 20
712.0
 30
0.0
 11
877.9
 21
712.0
 31
0.0
  0
LINE
  5
266
330
1F
100
AcDbEntity
  8
DP-350_0_15_大阪支店
  6
EXLTYPE2
 62
     1
100
AcDbLine
 10
914.9
 20
687.0
 30
0.0
 11
877.9
 21
687.0
 31
0.0
  0
LINE
  5
267
330
1F
100
AcDbEntity
  8
DP-350_0_15_大阪支店
  6
EXLTYPE2
 62
     1
100
AcDbLine
 10
782.4
 20
733.0
 30
0.0
 11
744.0
 21
733.0
 31
0.0
  0
LINE
  5
268
330
1F
100
AcDbEntity
  8
DP-350_0_15_大阪支店
  6
EXLTYPE2
 62
     1
100
AcDbLine
 10
744.0
 20
712.0
 30
0.0
 11
782.4
 21
712.0
 31
0.0
  0
LINE
  5
269
330
1F
100
AcDbEntity
  8
DP-350_0_15_大阪支店
  6
EXLTYPE2
 62
     1
100
AcDbLine
 10
1140.0
 20
612.0
 30
0.0
 11
1502.0
 21
612.0
 31
0.0
  0
LINE
  5
26A
330
1F
100
AcDbEntity
  8
DP-350_0_15_大阪支店
  6
EXLTYPE2
 62
     1
100
AcDbLine
 10
1324.0
 20
428.0
 30
0.0
 11
1324.0
 21
794.0
 31
0.0
  0
LINE
  5
26B
330
1F
100
AcDbEntity
  8
DP-350_0_15_大阪支店
  6
EXLTYPE2
 62
     1
100
AcDbLine
 10
1200.0
 20
717.0
 30
0.0
 11
1200.0
 21
757.6
 31
0.0
  0
LINE
  5
26C
330
1F
100
AcDbEntity
  8
DP-350_0_15_大阪支店
  6
EXLTYPE2
 62
     1
100
AcDbLine
 10
1180.0
 20
737.0
 30
0.0
 11
1220.1
 21
737.0
 31
0.0
  0
LINE
  5
26D
330
1F
100
AcDbEntity
  8
DP-350_0_15_大阪支店
  6
EXLTYPE2
 62
     1
100
AcDbLine
 10
1243.9
 20
712.0
 30
0.0
 11
1204.0
 21
712.0
 31
0.0
  0
LINE
  5
26E
330
1F
100
AcDbEntity
  8
DP-350_0_15_大阪支店
  6
EXLTYPE2
 62
     1
100
AcDbLine
 10
1224.0
 20
692.0
 30
0.0
 11
1224.0
 21
732.0
 31
0.0
  0
LINE
  5
26F
330
1F
100
AcDbEntity
  8
DP-350_0_15_大阪支店
  6
EXLTYPE2
 62
     1
100
AcDbLine
 10
1269.0
 20
687.0
 30
0.0
 11
1229.0
 21
687.0
 31
0.0
  0
LINE
  5
270
330
1F
100
AcDbEntity
  8
DP-350_0_15_大阪支店
  6
EXLTYPE2
 62
     1
100
AcDbLine
 10
1249.0
 20
707.0
 30
0.0
 11
1249.0
 21
667.0
 31
0.0
  0
LINE
  5
271
330
1F
100
AcDbEntity
  8
DP-350_0_15_大阪支店
  6
EXLTYPE2
 62
     1
100
AcDbLine
 10
1249.0
 20
517.0
 30
0.0
 11
1249.0
 21
557.0
 31
0.0
  0
LINE
  5
272
330
1F
100
AcDbEntity
  8
DP-350_0_15_大阪支店
  6
EXLTYPE2
 62
     1
100
AcDbLine
 10
1269.0
 20
537.0
 30
0.0
 11
1229.0
 21
537.0
 31
0.0
  0
LINE
  5
273
330
1F
100
AcDbEntity
  8
DP-350_0_15_大阪支店
  6
EXLTYPE2
 62
     1
100
AcDbLine
 10
1224.0
 20
532.0
 30
0.0
 11
1224.0
 21
492.0
 31
0.0
  0
LINE
  5
274
330
1F
100
AcDbEntity
  8
DP-350_0_15_大阪支店
  6
EXLTYPE2
 62
     1
100
AcDbLine
 10
1243.9
 20
512.0
 30
0.0
 11
1204.0
 21
512.0
 31
0.0
  0
LINE
  5
275
330
1F
100
AcDbEntity
  8
DP-350_0_15_大阪支店
  6
EXLTYPE2
 62
     1
100
AcDbLine
 10
1379.0
 20
537.0
 30
0.0
 11
1419.0
 21
537.0
 31
0.0
  0
LINE
  5
276
330
1F
100
AcDbEntity
  8
DP-350_0_15_大阪支店
  6
EXLTYPE2
 62
     1
100
AcDbLine
 10
1399.0
 20
517.0
 30
0.0
 11
1399.0
 21
557.0
 31
0.0
  0
LINE
  5
277
330
1F
100
AcDbEntity
  8
DP-350_0_15_大阪支店
  6
EXLTYPE2
 62
     1
100
AcDbLine
 10
1404.1
 20
512.0
 30
0.0
 11
1444.0
 21
512.0
 31
0.0
  0
LINE
  5
278
330
1F
100
AcDbEntity
  8
DP-350_0_15_大阪支店
  6
EXLTYPE2
 62
     1
100
AcDbLine
 10
1424.0
 20
532.0
 30
0.0
 11
1424.0
 21
492.0
 31
0.0
  0
LINE
  5
279
330
1F
100
AcDbEntity
  8
DP-350_0_15_大阪支店
  6
EXLTYPE2
 62
     1
100
AcDbLine
 10
1200.0
 20
507.0
 30
0.0
 11
1200.0
 21
466.4
 31
0.0
  0
LINE
  5
27A
330
1F
100
AcDbEntity
  8
DP-350_0_15_大阪支店
  6
EXLTYPE2
 62
     1
100
AcDbLine
 10
1180.0
 20
487.0
 30
0.0
 11
1220.1
 21
487.0
 31
0.0
  0
LINE
  5
27B
330
1F
100
AcDbEntity
  8
DP-350_0_15_大阪支店
  6
EXLTYPE2
 62
     1
100
AcDbLine
 10
1448.0
 20
507.0
 30
0.0
 11
1448.0
 21
466.4
 31
0.0
  0
LINE
  5
27C
330
1F
100
AcDbEntity
  8
DP-350_0_15_大阪支店
  6
EXLTYPE2
 62
     1
100
AcDbLine
 10
1468.0
 20
487.0
 30
0.0
 11
1427.9
 21
487.0
 31
0.0
  0
LINE
  5
27D
330
1F
100
AcDbEntity
  8
DP-350_0_15_大阪支店
  6
EXLTYPE2
 62
     1
100
AcDbLine
 10
1448.0
 20
717.0
 30
0.0
 11
1448.0
 21
757.6
 31
0.0
  0
LINE
  5
27E
330
1F
100
AcDbEntity
  8
DP-350_0_15_大阪支店
  6
EXLTYPE2
 62
     1
100
AcDbLine
 10
1468.0
 20
737.0
 30
0.0
 11
1427.9
 21
737.0
 31
0.0
  0
LINE
  5
27F
330
1F
100
AcDbEntity
  8
DP-350_0_15_大阪支店
  6
EXLTYPE2
 62
     1
100
AcDbLine
 10
1424.0
 20
692.0
 30
0.0
 11
1424.0
 21
732.0
 31
0.0
  0
LINE
  5
280
330
1F
100
AcDbEntity
  8
DP-350_0_15_大阪支店
  6
EXLTYPE2
 62
     1
100
AcDbLine
 10
1404.1
 20
712.0
 30
0.0
 11
1444.0
 21
712.0
 31
0.0
  0
LINE
  5
281
330
1F
100
AcDbEntity
  8
DP-350_0_15_大阪支店
  6
EXLTYPE2
 62
     1
100
AcDbLine
 10
1399.0
 20
707.0
 30
0.0
 11
1399.0
 21
667.0
 31
0.0
  0
LINE
  5
282
330
1F
100
AcDbEntity
  8
DP-350_0_15_大阪支店
  6
EXLTYPE2
 62
     1
100
AcDbLine
 10
1379.0
 20
687.0
 30
0.0
 11
1419.0
 21
687.0
 31
0.0
  0
LINE
  5
283
330
1F
100
AcDbEntity
  8
DP-350_0_15_大阪支店
  6
CONTINUOUS
 62
     1
100
AcDbLine
 10
755.0
 20
392.0
 30
0.0
 11
771.0
 21
392.0
 31
0.0
  0
LINE
  5
284
330
1F
100
AcDbEntity
  8
DP-350_0_15_大阪支店
  6
CONTINUOUS
 62
     1
100
AcDbLine
 10
889.0
 20
392.0
 30
0.0
 11
905.0
 21
392.0
 31
0.0
  0
LINE
  5
285
330
1F
100
AcDbEntity
  8
DP-350_0_15_大阪支店
  6
CONTINUOUS
 62
     1
100
AcDbLine
 10
955.0
 20
461.0
 30
0.0
 11
955.0
 21
442.0
 31
0.0
  0
LINE
  5
286
330
1F
100
AcDbEntity
  8
DP-350_0_15_大阪支店
  6
CONTINUOUS
 62
     1
100
AcDbLine
 10
955.0
 20
543.0
 30
0.0
 11
955.0
 21
562.0
 31
0.0
  0
LINE
  5
287
330
1F
100
AcDbEntity
  8
DP-350_0_15_大阪支店
  6
CONTINUOUS
 62
     1
100
AcDbLine
 10
955.0
 20
662.0
 30
0.0
 11
955.0
 21
681.0
 31
0.0
  0
LINE
  5
288
330
1F
100
AcDbEntity
  8
DP-350_0_15_大阪支店
  6
CONTINUOUS
 62
     1
100
AcDbLine
 10
955.0
 20
763.0
 30
0.0
 11
955.0
 21
782.0
 31
0.0
  0
LINE
  5
289
330
1F
100
AcDbEntity
  8
DP-350_0_15_大阪支店
  6
CONTINUOUS
 62
     1
100
AcDbLine
 10
705.0
 20
782.0
 30
0.0
 11
705.0
 21
777.0
 31
0.0
  0
LINE
  5
28A
330
1F
100
AcDbEntity
  8
DP-350_0_15_大阪支店
  6
CONTINUOUS
 62
     1
100
AcDbLine
 10
705.0
 20
442.0
 30
0.0
 11
705.0
 21
447.0
 31
0.0
  0
LINE
  5
28B
330
1F
100
AcDbEntity
  8
DP-350_0_15_大阪支店
  6
CONTINUOUS
 62
     1
100
AcDbLine
 10
306.6987298108
 20
587.0
 30
0.0
 11
263.4163522035
 21
562.0109076373001
 31
0.0
  0
POLYLINE
  5
28C
330
1F
100
AcDbEntity
  8
DP-350_0_15_大阪支店
  6
CONTINUOUS
 62
     7
100
AcDb2dPolyline
 66
     1
 10
0.0
 20
0.0
 30
0.0
 70
   128
  0
VERTEX
  5
28D
330
28C
100
AcDbEntity
  8
DP-350_0_15_大阪支店
  6
CONTINUOUS
 62
     7
100
AcDbVertex
100
AcDb2dVertex
 10
521.0
 20
782.0
 30
0.0
  0
VERTEX
  5
28E
330
28C
100
AcDbEntity
  8
DP-350_0_15_大阪支店
  6
CONTINUOUS
 62
     7
100
AcDbVertex
100
AcDb2dVertex
 10
521.0
 20
442.0
 30
0.0
  0
VERTEX
  5
28F
330
28C
100
AcDbEntity
  8
DP-350_0_15_大阪支店
  6
CONTINUOUS
 62
     7
100
AcDbVertex
100
AcDb2dVertex
 10
181.0
 20
442.0
 30
0.0
  0
VERTEX
  5
290
330
28C
100
AcDbEntity
  8
DP-350_0_15_大阪支店
  6
CONTINUOUS
 62
     7
100
AcDbVertex
100
AcDb2dVertex
 10
181.0
 20
782.0
 30
0.0
  0
VERTEX
  5
291
330
28C
100
AcDbEntity
  8
DP-350_0_15_大阪支店
  6
CONTINUOUS
 62
     7
100
AcDbVertex
100
AcDb2dVertex
 10
521.0
 20
782.0
 30
0.0
  0
SEQEND
  5
292
330
28C
100
AcDbEntity
  8
DP-350_0_15_大阪支店
  6
CONTINUOUS
 62
     7
  0
LINE
  5
293
330
1F
100
AcDbEntity
  8
DP-350_0_15_大阪支店
  6
CONTINUOUS
 62
     7
100
AcDbLine
 10
181.0
 20
777.0
 30
0.0
 11
521.0
 21
777.0
 31
0.0
  0
CIRCLE
  5
294
330
1F
100
AcDbEntity
  8
DP-350_0_15_大阪支店
  6
CONTINUOUS
 62
     7
100
AcDbCircle
 10
350.0
 20
612.0
 30
0.0
 40
50.00000000000004
  0
LINE
  5
295
330
1F
100
AcDbEntity
  8
DP-350_0_15_大阪支店
  6
CONTINUOUS
 62
     7
100
AcDbLine
 10
521.0
 20
447.0
 30
0.0
 11
181.0
 21
447.0
 31
0.0
  0
CIRCLE
  5
296
330
1F
100
AcDbEntity
  8
DP-350_0_15_大阪支店
  6
CONTINUOUS
 62
     7
100
AcDbCircle
 10
425.0
 20
537.0
 30
0.0
 40
12.50000000000001
  0
CIRCLE
  5
297
330
1F
100
AcDbEntity
  8
DP-350_0_15_大阪支店
  6
CONTINUOUS
 62
     7
100
AcDbCircle
 10
450.0
 20
512.0
 30
0.0
 40
12.50000000000001
  0
CIRCLE
  5
298
330
1F
100
AcDbEntity
  8
DP-350_0_15_大阪支店
  6
CONTINUOUS
 62
     7
100
AcDbCircle
 10
469.0
 20
492.0
 30
0.0
 40
12.50000000000001
  0
CIRCLE
  5
299
330
1F
100
AcDbEntity
  8
DP-350_0_15_大阪支店
  6
CONTINUOUS
 62
     7
100
AcDbCircle
 10
275.0
 20
537.0
 30
0.0
 40
12.50000000000001
  0
CIRCLE
  5
29A
330
1F
100
AcDbEntity
  8
DP-350_0_15_大阪支店
  6
CONTINUOUS
 62
     7
100
AcDbCircle
 10
250.0
 20
512.0
 30
0.0
 40
12.50000000000001
  0
CIRCLE
  5
29B
330
1F
100
AcDbEntity
  8
DP-350_0_15_大阪支店
  6
CONTINUOUS
 62
     7
100
AcDbCircle
 10
231.0
 20
492.0
 30
0.0
 40
12.50000000000001
  0
CIRCLE
  5
29C
330
1F
100
AcDbEntity
  8
DP-350_0_15_大阪支店
  6
CONTINUOUS
 62
     7
100
AcDbCircle
 10
425.0
 20
687.0
 30
0.0
 40
12.50000000000001
  0
CIRCLE
  5
29D
330
1F
100
AcDbEntity
  8
DP-350_0_15_大阪支店
  6
CONTINUOUS
 62
     7
100
AcDbCircle
 10
450.0
 20
712.0
 30
0.0
 40
12.50000000000001
  0
CIRCLE
  5
29E
330
1F
100
AcDbEntity
  8
DP-350_0_15_大阪支店
  6
CONTINUOUS
 62
     7
100
AcDbCircle
 10
469.0
 20
732.0
 30
0.0
 40
12.50000000000001
  0
CIRCLE
  5
29F
330
1F
100
AcDbEntity
  8
DP-350_0_15_大阪支店
  6
CONTINUOUS
 62
     7
100
AcDbCircle
 10
275.0
 20
687.0
 30
0.0
 40
12.50000000000001
  0
CIRCLE
  5
2A0
330
1F
100
AcDbEntity
  8
DP-350_0_15_大阪支店
  6
CONTINUOUS
 62
     7
100
AcDbCircle
 10
250.0
 20
712.0
 30
0.0
 40
12.50000000000001
  0
CIRCLE
  5
2A1
330
1F
100
AcDbEntity
  8
DP-350_0_15_大阪支店
  6
CONTINUOUS
 62
     7
100
AcDbCircle
 10
231.0
 20
732.0
 30
0.0
 40
12.50000000000001
  0
LINE
  5
2A2
330
1F
100
AcDbEntity
  8
DP-350_0_15_大阪支店
  6
CONTINUOUS
 62
     7
100
AcDbLine
 10
889.0
 20
543.0
 30
0.0
 11
771.0
 21
543.0
 31
0.0
  0
LINE
  5
2A3
330
1F
100
AcDbEntity
  8
DP-350_0_15_大阪支店
  6
CONTINUOUS
 62
     7
100
AcDbLine
 10
771.0
 20
562.0
 30
0.0
 11
889.0
 21
562.0
 31
0.0
  0
LINE
  5
2A4
330
1F
100
AcDbEntity
  8
DP-350_0_15_大阪支店
  6
CONTINUOUS
 62
     7
100
AcDbLine
 10
755.0
 20
777.0
 30
0.0
 11
755.0
 21
447.0
 31
0.0
  0
LINE
  5
2A5
330
1F
100
AcDbEntity
  8
DP-350_0_15_大阪支店
  6
CONTINUOUS
 62
     7
100
AcDbLine
 10
771.0
 20
782.0
 30
0.0
 11
771.0
 21
442.0
 31
0.0
  0
LINE
  5
2A6
330
1F
100
AcDbEntity
  8
DP-350_0_15_大阪支店
  6
CONTINUOUS
 62
     7
100
AcDbLine
 10
889.0
 20
461.0
 30
0.0
 11
771.0
 21
461.0
 31
0.0
  0
LINE
  5
2A7
330
1F
100
AcDbEntity
  8
DP-350_0_15_大阪支店
  6
CONTINUOUS
 62
     7
100
AcDbLine
 10
771.0
 20
442.0
 30
0.0
 11
889.0
 21
442.0
 31
0.0
  0
LINE
  5
2A8
330
1F
100
AcDbEntity
  8
DP-350_0_15_大阪支店
  6
CONTINUOUS
 62
     7
100
AcDbLine
 10
771.0
 20
447.0
 30
0.0
 11
755.0
 21
447.0
 31
0.0
  0
LINE
  5
2A9
330
1F
100
AcDbEntity
  8
DP-350_0_15_大阪支店
  6
CONTINUOUS
 62
     7
100
AcDbLine
 10
905.0
 20
447.0
 30
0.0
 11
889.0
 21
447.0
 31
0.0
  0
LINE
  5
2AA
330
1F
100
AcDbEntity
  8
DP-350_0_15_大阪支店
  6
CONTINUOUS
 62
     7
100
AcDbLine
 10
889.0
 20
782.0
 30
0.0
 11
889.0
 21
442.0
 31
0.0
  0
LINE
  5
2AB
330
1F
100
AcDbEntity
  8
DP-350_0_15_大阪支店
  6
CONTINUOUS
 62
     7
100
AcDbLine
 10
905.0
 20
447.0
 30
0.0
 11
905.0
 21
777.0
 31
0.0
  0
LINE
  5
2AC
330
1F
100
AcDbEntity
  8
DP-350_0_15_大阪支店
  6
CONTINUOUS
 62
     7
100
AcDbLine
 10
771.0
 20
782.0
 30
0.0
 11
889.0
 21
782.0
 31
0.0
  0
LINE
  5
2AD
330
1F
100
AcDbEntity
  8
DP-350_0_15_大阪支店
  6
CONTINUOUS
 62
     7
100
AcDbLine
 10
889.0
 20
763.0
 30
0.0
 11
771.0
 21
763.0
 31
0.0
  0
LINE
  5
2AE
330
1F
100
AcDbEntity
  8
DP-350_0_15_大阪支店
  6
CONTINUOUS
 62
     7
100
AcDbLine
 10
771.0
 20
777.0
 30
0.0
 11
755.0
 21
777.0
 31
0.0
  0
LINE
  5
2AF
330
1F
100
AcDbEntity
  8
DP-350_0_15_大阪支店
  6
CONTINUOUS
 62
     7
100
AcDbLine
 10
905.0
 20
777.0
 30
0.0
 11
889.0
 21
777.0
 31
0.0
  0
LINE
  5
2B0
330
1F
100
AcDbEntity
  8
DP-350_0_15_大阪支店
  6
CONTINUOUS
 62
     7
100
AcDbLine
 10
889.0
 20
681.0
 30
0.0
 11
771.0
 21
681.0
 31
0.0
  0
LINE
  5
2B1
330
1F
100
AcDbEntity
  8
DP-350_0_15_大阪支店
  6
CONTINUOUS
 62
     7
100
AcDbLine
 10
771.0
 20
662.0
 30
0.0
 11
889.0
 21
662.0
 31
0.0
  0
POLYLINE
  5
2B2
330
1F
100
AcDbEntity
  8
DP-350_0_15_大阪支店
  6
CONTINUOUS
 62
     7
100
AcDb2dPolyline
 66
     1
 10
0.0
 20
0.0
 30
0.0
 70
   128
  0
VERTEX
  5
2B3
330
2B2
100
AcDbEntity
  8
DP-350_0_15_大阪支店
  6
CONTINUOUS
 62
     7
100
AcDbVertex
100
AcDb2dVertex
 10
1495.0
 20
442.0
 30
0.0
  0
VERTEX
  5
2B4
330
2B2
100
AcDbEntity
  8
DP-350_0_15_大阪支店
  6
CONTINUOUS
 62
     7
100
AcDbVertex
100
AcDb2dVertex
 10
1495.0
 20
782.0
 30
0.0
  0
VERTEX
  5
2B5
330
2B2
100
AcDbEntity
  8
DP-350_0_15_大阪支店
  6
CONTINUOUS
 62
     7
100
AcDbVertex
100
AcDb2dVertex
 10
1155.0
 20
782.0
 30
0.0
  0
VERTEX
  5
2B6
330
2B2
100
AcDbEntity
  8
DP-350_0_15_大阪支店
  6
CONTINUOUS
 62
     7
100
AcDbVertex
100
AcDb2dVertex
 10
1155.0
 20
442.0
 30
0.0
  0
VERTEX
  5
2B7
330
2B2
100
AcDbEntity
  8
DP-350_0_15_大阪支店
  6
CONTINUOUS
 62
     7
100
AcDbVertex
100
AcDb2dVertex
 10
1495.0
 20
442.0
 30
0.0
  0
SEQEND
  5
2B8
330
2B2
100
AcDbEntity
  8
DP-350_0_15_大阪支店
  6
CONTINUOUS
 62
     7
  0
LINE
  5
2B9
330
1F
100
AcDbEntity
  8
DP-350_0_15_大阪支店
  6
CONTINUOUS
 62
     7
100
AcDbLine
 10
1495.0
 20
777.0
 30
0.0
 11
1155.0
 21
777.0
 31
0.0
  0
CIRCLE
  5
2BA
330
1F
100
AcDbEntity
  8
DP-350_0_15_大阪支店
  6
CONTINUOUS
 62
     7
100
AcDbCircle
 10
1200.0
 20
737.0
 30
0.0
 40
12.50000000000001
  0
CIRCLE
  5
2BB
330
1F
100
AcDbEntity
  8
DP-350_0_15_大阪支店
  6
CONTINUOUS
 62
     7
100
AcDbCircle
 10
1224.0
 20
712.0
 30
0.0
 40
12.50000000000001
  0
CIRCLE
  5
2BC
330
1F
100
AcDbEntity
  8
DP-350_0_15_大阪支店
  6
CONTINUOUS
 62
     7
100
AcDbCircle
 10
1249.0
 20
687.0
 30
0.0
 40
12.50000000000001
  0
CIRCLE
  5
2BD
330
1F
100
AcDbEntity
  8
DP-350_0_15_大阪支店
  6
CONTINUOUS
 62
     7
100
AcDbCircle
 10
1249.0
 20
537.0
 30
0.0
 40
12.50000000000001
  0
CIRCLE
  5
2BE
330
1F
100
AcDbEntity
  8
DP-350_0_15_大阪支店
  6
CONTINUOUS
 62
     7
100
AcDbCircle
 10
1224.0
 20
512.0
 30
0.0
 40
12.50000000000001
  0
CIRCLE
  5
2BF
330
1F
100
AcDbEntity
  8
DP-350_0_15_大阪支店
  6
CONTINUOUS
 62
     7
100
AcDbCircle
 10
1200.0
 20
487.0
 30
0.0
 40
12.50000000000001
  0
CIRCLE
  5
2C0
330
1F
100
AcDbEntity
  8
DP-350_0_15_大阪支店
  6
CONTINUOUS
 62
     7
100
AcDbCircle
 10
1399.0
 20
537.0
 30
0.0
 40
12.50000000000001
  0
CIRCLE
  5
2C1
330
1F
100
AcDbEntity
  8
DP-350_0_15_大阪支店
  6
CONTINUOUS
 62
     7
100
AcDbCircle
 10
1424.0
 20
512.0
 30
0.0
 40
12.50000000000001
  0
CIRCLE
  5
2C2
330
1F
100
AcDbEntity
  8
DP-350_0_15_大阪支店
  6
CONTINUOUS
 62
     7
100
AcDbCircle
 10
1448.0
 20
487.0
 30
0.0
 40
12.50000000000001
  0
LINE
  5
2C3
330
1F
100
AcDbEntity
  8
DP-350_0_15_大阪支店
  6
CONTINUOUS
 62
     7
100
AcDbLine
 10
1155.0
 20
447.0
 30
0.0
 11
1495.0
 21
447.0
 31
0.0
  0
CIRCLE
  5
2C4
330
1F
100
AcDbEntity
  8
DP-350_0_15_大阪支店
  6
CONTINUOUS
 62
     7
100
AcDbCircle
 10
1399.0
 20
687.0
 30
0.0
 40
12.50000000000001
  0
CIRCLE
  5
2C5
330
1F
100
AcDbEntity
  8
DP-350_0_15_大阪支店
  6
CONTINUOUS
 62
     7
100
AcDbCircle
 10
1424.0
 20
712.0
 30
0.0
 40
12.50000000000001
  0
CIRCLE
  5
2C6
330
1F
100
AcDbEntity
  8
DP-350_0_15_大阪支店
  6
CONTINUOUS
 62
     7
100
AcDbCircle
 10
1448.0
 20
737.0
 30
0.0
 40
12.50000000000001
  0
LINE
  5
2C7
330
1F
100
AcDbEntity
  8
DP-350_0_15_大阪支店
  6
EXLTYPE0
 62
     2
100
AcDbLine
 10
1495.0
 20
763.0
 30
0.0
 11
1155.0
 21
763.0
 31
0.0
  0
LINE
  5
2C8
330
1F
100
AcDbEntity
  8
DP-350_0_15_大阪支店
  6
EXLTYPE0
 62
     2
100
AcDbLine
 10
1314.5
 20
763.0
 30
0.0
 11
1314.5
 21
681.0
 31
0.0
  0
LINE
  5
2C9
330
1F
100
AcDbEntity
  8
DP-350_0_15_大阪支店
  6
EXLTYPE0
 62
     2
100
AcDbLine
 10
1333.5
 20
763.0
 30
0.0
 11
1333.5
 21
681.0
 31
0.0
  0
LINE
  5
2CA
330
1F
100
AcDbEntity
  8
DP-350_0_15_大阪支店
  6
EXLTYPE0
 62
     2
100
AcDbLine
 10
1274.0
 20
681.0
 30
0.0
 11
1374.0
 21
681.0
 31
0.0
  0
LINE
  5
2CB
330
1F
100
AcDbEntity
  8
DP-350_0_15_大阪支店
  6
EXLTYPE0
 62
     2
100
AcDbLine
 10
1339.612494996
 20
662.0
 30
0.0
 11
1374.0
 21
662.0
 31
0.0
  0
LINE
  5
2CC
330
1F
100
AcDbEntity
  8
DP-350_0_15_大阪支店
  6
EXLTYPE0
 62
     2
100
AcDbLine
 10
1374.0
 20
662.0
 30
0.0
 11
1374.0
 21
681.0
 31
0.0
  0
LINE
  5
2CD
330
1F
100
AcDbEntity
  8
DP-350_0_15_大阪支店
  6
EXLTYPE0
 62
     2
100
AcDbLine
 10
1274.0
 20
662.0
 30
0.0
 11
1339.612494996
 21
662.0
 31
0.0
  0
LINE
  5
2CE
330
1F
100
AcDbEntity
  8
DP-350_0_15_大阪支店
  6
EXLTYPE0
 62
     2
100
AcDbLine
 10
1274.0
 20
681.0
 30
0.0
 11
1274.0
 21
662.0
 31
0.0
  0
LINE
  5
2CF
330
1F
100
AcDbEntity
  8
DP-350_0_15_大阪支店
  6
EXLTYPE0
 62
     2
100
AcDbLine
 10
1339.612494996
 20
562.0
 30
0.0
 11
1274.0
 21
562.0
 31
0.0
  0
LINE
  5
2D0
330
1F
100
AcDbEntity
  8
DP-350_0_15_大阪支店
  6
EXLTYPE0
 62
     2
100
AcDbLine
 10
1374.0
 20
562.0
 30
0.0
 11
1339.612494996
 21
562.0
 31
0.0
  0
LINE
  5
2D1
330
1F
100
AcDbEntity
  8
DP-350_0_15_大阪支店
  6
EXLTYPE0
 62
     2
100
AcDbLine
 10
1374.0
 20
543.0
 30
0.0
 11
1374.0
 21
562.0
 31
0.0
  0
LINE
  5
2D2
330
1F
100
AcDbEntity
  8
DP-350_0_15_大阪支店
  6
EXLTYPE0
 62
     2
100
AcDbLine
 10
1374.0
 20
543.0
 30
0.0
 11
1274.0
 21
543.0
 31
0.0
  0
LINE
  5
2D3
330
1F
100
AcDbEntity
  8
DP-350_0_15_大阪支店
  6
EXLTYPE0
 62
     2
100
AcDbLine
 10
1274.0
 20
562.0
 30
0.0
 11
1274.0
 21
543.0
 31
0.0
  0
LINE
  5
2D4
330
1F
100
AcDbEntity
  8
DP-350_0_15_大阪支店
  6
EXLTYPE0
 62
     2
100
AcDbLine
 10
1314.5
 20
543.0
 30
0.0
 11
1314.5
 21
461.0
 31
0.0
  0
LINE
  5
2D5
330
1F
100
AcDbEntity
  8
DP-350_0_15_大阪支店
  6
EXLTYPE0
 62
     2
100
AcDbLine
 10
1333.5
 20
543.0
 30
0.0
 11
1333.5
 21
461.0
 31
0.0
  0
LINE
  5
2D6
330
1F
100
AcDbEntity
  8
DP-350_0_15_大阪支店
  6
EXLTYPE0
 62
     2
100
AcDbLine
 10
1155.0
 20
461.0
 30
0.0
 11
1495.0
 21
461.0
 31
0.0
  0
LINE
  5
2D7
330
1F
100
AcDbEntity
  8
DP-350_0_15_大阪支店
  6
EXLTYPE0
 62
     2
100
AcDbLine
 10
771.0
 20
662.0
 30
0.0
 11
755.0
 21
662.0
 31
0.0
  0
LINE
  5
2D8
330
1F
100
AcDbEntity
  8
DP-350_0_15_大阪支店
  6
EXLTYPE0
 62
     2
100
AcDbLine
 10
771.0
 20
562.0
 30
0.0
 11
755.0
 21
562.0
 31
0.0
  0
LINE
  5
2D9
330
1F
100
AcDbEntity
  8
DP-350_0_15_大阪支店
  6
EXLTYPE0
 62
     2
100
AcDbLine
 10
181.0
 20
763.0
 30
0.0
 11
521.0
 21
763.0
 31
0.0
  0
LINE
  5
2DA
330
1F
100
AcDbEntity
  8
DP-350_0_15_大阪支店
  6
EXLTYPE0
 62
     2
100
AcDbLine
 10
340.5
 20
763.0
 30
0.0
 11
340.5
 21
681.0
 31
0.0
  0
LINE
  5
2DB
330
1F
100
AcDbEntity
  8
DP-350_0_15_大阪支店
  6
EXLTYPE0
 62
     2
100
AcDbLine
 10
359.5
 20
763.0
 30
0.0
 11
359.5
 21
681.0
 31
0.0
  0
LINE
  5
2DC
330
1F
100
AcDbEntity
  8
DP-350_0_15_大阪支店
  6
EXLTYPE0
 62
     2
100
AcDbLine
 10
400.0
 20
681.0
 30
0.0
 11
300.0
 21
681.0
 31
0.0
  0
LINE
  5
2DD
330
1F
100
AcDbEntity
  8
DP-350_0_15_大阪支店
  6
EXLTYPE0
 62
     2
100
AcDbLine
 10
365.612494996
 20
662.0
 30
0.0
 11
300.0
 21
662.0
 31
0.0
  0
LINE
  5
2DE
330
1F
100
AcDbEntity
  8
DP-350_0_15_大阪支店
  6
EXLTYPE0
 62
     2
100
AcDbLine
 10
300.0
 20
662.0
 30
0.0
 11
300.0
 21
681.0
 31
0.0
  0
LINE
  5
2DF
330
1F
100
AcDbEntity
  8
DP-350_0_15_大阪支店
  6
EXLTYPE0
 62
     2
100
AcDbLine
 10
400.0
 20
662.0
 30
0.0
 11
365.612494996
 21
662.0
 31
0.0
  0
LINE
  5
2E0
330
1F
100
AcDbEntity
  8
DP-350_0_15_大阪支店
  6
EXLTYPE0
 62
     2
100
AcDbLine
 10
400.0
 20
681.0
 30
0.0
 11
400.0
 21
662.0
 31
0.0
  0
LINE
  5
2E1
330
1F
100
AcDbEntity
  8
DP-350_0_15_大阪支店
  6
EXLTYPE0
 62
     2
100
AcDbLine
 10
365.612494996
 20
562.0
 30
0.0
 11
400.0
 21
562.0
 31
0.0
  0
LINE
  5
2E2
330
1F
100
AcDbEntity
  8
DP-350_0_15_大阪支店
  6
EXLTYPE0
 62
     2
100
AcDbLine
 10
300.0
 20
543.0
 30
0.0
 11
400.0
 21
543.0
 31
0.0
  0
LINE
  5
2E3
330
1F
100
AcDbEntity
  8
DP-350_0_15_大阪支店
  6
EXLTYPE0
 62
     2
100
AcDbLine
 10
400.0
 20
562.0
 30
0.0
 11
400.0
 21
543.0
 31
0.0
  0
LINE
  5
2E4
330
1F
100
AcDbEntity
  8
DP-350_0_15_大阪支店
  6
EXLTYPE0
 62
     2
100
AcDbLine
 10
300.0
 20
543.0
 30
0.0
 11
300.0
 21
562.0
 31
0.0
  0
LINE
  5
2E5
330
1F
100
AcDbEntity
  8
DP-350_0_15_大阪支店
  6
EXLTYPE0
 62
     2
100
AcDbLine
 10
300.0
 20
562.0
 30
0.0
 11
365.612494996
 21
562.0
 31
0.0
  0
LINE
  5
2E6
330
1F
100
AcDbEntity
  8
DP-350_0_15_大阪支店
  6
EXLTYPE0
 62
     2
100
AcDbLine
 10
340.5
 20
543.0
 30
0.0
 11
340.5
 21
461.0
 31
0.0
  0
LINE
  5
2E7
330
1F
100
AcDbEntity
  8
DP-350_0_15_大阪支店
  6
EXLTYPE0
 62
     2
100
AcDbLine
 10
359.5
 20
543.0
 30
0.0
 11
359.5
 21
461.0
 31
0.0
  0
LINE
  5
2E8
330
1F
100
AcDbEntity
  8
DP-350_0_15_大阪支店
  6
EXLTYPE0
 62
     2
100
AcDbLine
 10
521.0
 20
461.0
 30
0.0
 11
181.0
 21
461.0
 31
0.0
  0
LINE
  5
2E9
330
1F
100
AcDbEntity
  8
DP-350_0_15_大阪支店
  6
CONTINUOUS
 62
   134
100
AcDbLine
 10
36.0
 20
60.0
 30
0.0
 11
1746.0
 21
60.0
 31
0.0
  0
LINE
  5
2EA
330
1F
100
AcDbEntity
  8
DP-350_0_15_大阪支店
  6
CONTINUOUS
 62
    54
100
AcDbLine
 10
36.0
 20
30.0
 30
0.0
 11
1746.0
 21
30.0
 31
0.0
  0
LINE
  5
2EB
330
1F
100
AcDbEntity
  8
DP-350_0_15_大阪支店
  6
CONTINUOUS
 62
   134
100
AcDbLine
 10
36.0
 20
1230.0
 30
0.0
 11
36.0
 21
30.0
 31
0.0
  0
LINE
  5
2EC
330
1F
100
AcDbEntity
  8
DP-350_0_15_大阪支店
  6
CONTINUOUS
 62
   134
100
AcDbLine
 10
1746.0
 20
30.0
 30
0.0
 11
1746.0
 21
1230.0
 31
0.0
  0
LINE
  5
2ED
330
1F
100
AcDbEntity
  8
DP-350_0_15_大阪支店
  6
CONTINUOUS
 62
   134
100
AcDbLine
 10
1746.0
 20
1230.0
 30
0.0
 11
36.0
 21
1230.0
 31
0.0
  0
LINE
  5
2EE
330
1F
100
AcDbEntity
  8
DP-350_0_15_大阪支店
  6
CONTINUOUS
 62
    54
100
AcDbLine
 10
1683.0
 20
60.0
 30
0.0
 11
1683.0
 21
30.0
 31
0.0
  0
LINE
  5
2EF
330
1F
100
AcDbEntity
  8
DP-350_0_15_大阪支店
  6
CONTINUOUS
 62
    54
100
AcDbLine
 10
1668.0
 20
60.0
 30
0.0
 11
1668.0
 21
30.0
 31
0.0
  0
LINE
  5
2F0
330
1F
100
AcDbEntity
  8
DP-350_0_15_大阪支店
  6
CONTINUOUS
 62
    54
100
AcDbLine
 10
1608.0
 20
60.0
 30
0.0
 11
1608.0
 21
30.0
 31
0.0
  0
LINE
  5
2F1
330
1F
100
AcDbEntity
  8
DP-350_0_15_大阪支店
  6
CONTINUOUS
 62
    54
100
AcDbLine
 10
1593.0
 20
60.0
 30
0.0
 11
1593.0
 21
30.0
 31
0.0
  0
LINE
  5
2F2
330
1F
100
AcDbEntity
  8
DP-350_0_15_大阪支店
  6
CONTINUOUS
 62
    54
100
AcDbLine
 10
1353.0
 20
60.0
 30
0.0
 11
1353.0
 21
30.0
 31
0.0
  0
LINE
  5
2F3
330
1F
100
AcDbEntity
  8
DP-350_0_15_大阪支店
  6
CONTINUOUS
 62
    54
100
AcDbLine
 10
1338.0
 20
60.0
 30
0.0
 11
1338.0
 21
30.0
 31
0.0
  0
LINE
  5
2F4
330
1F
100
AcDbEntity
  8
DP-350_0_15_大阪支店
  6
CONTINUOUS
 62
   134
100
AcDbLine
 10
1203.0
 20
60.0
 30
0.0
 11
1203.0
 21
30.0
 31
0.0
  0
LINE
  5
2F5
330
1F
100
AcDbEntity
  8
DP-350_0_15_大阪支店
  6
CONTINUOUS
 62
   134
100
AcDbLine
 10
933.0
 20
60.0
 30
0.0
 11
933.0
 21
30.0
 31
0.0
  0
TEXT
  5
2F6
330
1F
100
AcDbEntity
  8
DP-350_0_15_大阪支店
  6
CONTINUOUS
 62
    54
100
AcDbText
 10
1675.5
 20
57.00000000000001
 30
0.0
 40
16.57458563535912
  1
図面
  7
EXCADVERT
 72
     3
 11
1675.5
 21
33.00000000000001
 31
0.0
100
AcDbText
  0
TEXT
  5
2F7
330
1F
100
AcDbEntity
  8
DP-350_0_15_大阪支店
  6
CONTINUOUS
 62
    54
100
AcDbText
 10
1600.8
 20
57.00000000000001
 30
0.0
 40
15.42416452442159
  1
尺度
  7
EXCADVERT
 72
     3
 11
1600.8
 21
33.00000000000001
 31
0.0
100
AcDbText
  0
TEXT
  5
2F8
330
1F
100
AcDbEntity
  8
DP-350_0_15_大阪支店
  6
CONTINUOUS
 62
    54
100
AcDbText
 10
1345.2
 20
57.00000000000001
 30
0.0
 40
15.49386701097482
  1
名称
  7
EXCADVERT
 72
     3
 11
1345.2
 21
33.00000000000001
 31
0.0
100
AcDbText
  0
TEXT
  5
2F9
330
1F
100
AcDbEntity
  8
DP-350_0_15_大阪支店
  6
CONTINUOUS
 62
    54
100
AcDbText
 10
1332.0
 20
51.00000000000001
 30
0.0
 40
9.23076923076923
  1
日
  7
EXCADVERT
 72
     3
 11
1332.0
 21
39.00000000000001
 31
0.0
100
AcDbText
  0
TEXT
  5
2FA
330
1F
100
AcDbEntity
  8
DP-350_0_15_大阪支店
  6
CONTINUOUS
 62
    54
100
AcDbText
 10
1290.0
 20
51.00000000000001
 30
0.0
 40
8.135593220338983
  1
月
  7
EXCADVERT
 72
     3
 11
1290.0
 21
39.00000000000001
 31
0.0
100
AcDbText
  0
TEXT
  5
2FB
330
1F
100
AcDbEntity
  8
DP-350_0_15_大阪支店
  6
CONTINUOUS
 62
    54
100
AcDbText
 10
1248.3
 20
51.00000000000001
 30
0.0
 40
7.853403141361256
  1
年
  7
EXCADVERT
 72
     3
 11
1248.3
 21
39.00000000000001
 31
0.0
100
AcDbText
  0
TEXT
  5
2FC
330
1F
100
AcDbEntity
  8
DP-350_0_15_大阪支店
  6
CONTINUOUS
 62
    94
100
AcDbText
 10
1012.950000000001
 20
39.50787450000001
 30
0.0
 40
11.692914
  1
大 和 建 工 株 式 会 社
 41
0.6977778186480039
  7
EXCADSTD
 72
     5
 11
1183.05
 21
39.50787450000001
 31
0.0
100
AcDbText
  0
LINE
  5
2FD
330
1F
100
AcDbEntity
  8
DP-350_0_15_大阪支店
  6
CONTINUOUS
 62
    54
100
AcDbLine
 10
951.5999999999999
 20
57.75000000000001
 30
0.0
 11
956.0999999999991
 21
57.75000000000001
 31
0.0
  0
LINE
  5
2FE
330
1F
100
AcDbEntity
  8
DP-350_0_15_大阪支店
  6
CONTINUOUS
 62
    54
100
AcDbLine
 10
951.5999999999999
 20
32.25000000000001
 30
0.0
 11
956.0999999999991
 21
32.25000000000001
 31
0.0
  0
LINE
  5
2FF
330
1F
100
AcDbEntity
  8
DP-350_0_15_大阪支店
  6
CONTINUOUS
 62
    54
100
AcDbLine
 10
951.5999999999999
 20
32.25000000000001
 30
0.0
 11
951.5999999999999
 21
57.75000000000001
 31
0.0
  0
LINE
  5
300
330
1F
100
AcDbEntity
  8
DP-350_0_15_大阪支店
  6
CONTINUOUS
 62
    54
100
AcDbLine
 10
954.6000000000004
 20
54.74999999999999
 30
0.0
 11
954.6000000000004
 21
35.25000000000006
 31
0.0
  0
LINE
  5
301
330
1F
100
AcDbEntity
  8
DP-350_0_15_大阪支店
  6
CONTINUOUS
 62
    54
100
AcDbLine
 10
959.0999999999997
 20
54.74999999999999
 30
0.0
 11
959.0999999999997
 21
35.25000000000006
 31
0.0
  0
LINE
  5
302
330
1F
100
AcDbEntity
  8
DP-350_0_15_大阪支店
  6
CONTINUOUS
 62
    54
100
AcDbLine
 10
956.0999999999991
 20
53.24999999999999
 30
0.0
 11
956.0999999999991
 21
36.75000000000006
 31
0.0
  0
LINE
  5
303
330
1F
100
AcDbEntity
  8
DP-350_0_15_大阪支店
  6
CONTINUOUS
 62
    54
100
AcDbLine
 10
960.5999999999997
 20
54.74999999999999
 30
0.0
 11
960.5999999999997
 21
32.25000000000001
 31
0.0
  0
LINE
  5
304
330
1F
100
AcDbEntity
  8
DP-350_0_15_大阪支店
  6
CONTINUOUS
 62
    54
100
AcDbLine
 10
968.0999999999997
 20
54.74999999999999
 30
0.0
 11
968.0999999999997
 21
32.25000000000001
 31
0.0
  0
LINE
  5
305
330
1F
100
AcDbEntity
  8
DP-350_0_15_大阪支店
  6
CONTINUOUS
 62
    54
100
AcDbLine
 10
963.5999999999991
 20
53.99999999999964
 30
0.0
 11
963.5999999999991
 21
39.75000000000342
 31
0.0
  0
LINE
  5
306
330
1F
100
AcDbEntity
  8
DP-350_0_15_大阪支店
  6
CONTINUOUS
 62
    54
100
AcDbLine
 10
965.0999999999997
 20
53.99999999999964
 30
0.0
 11
965.0999999999997
 21
39.75000000000342
 31
0.0
  0
LINE
  5
307
330
1F
100
AcDbEntity
  8
DP-350_0_15_大阪支店
  6
CONTINUOUS
 62
    54
100
AcDbLine
 10
969.5999999999997
 20
57.75000000000001
 30
0.0
 11
969.5999999999997
 21
32.25000000000001
 31
0.0
  0
LINE
  5
308
330
1F
100
AcDbEntity
  8
DP-350_0_15_大阪支店
  6
CONTINUOUS
 62
    54
100
AcDbLine
 10
972.5999999999997
 20
57.75000000000001
 30
0.0
 11
972.5999999999997
 21
32.25000000000001
 31
0.0
  0
LINE
  5
309
330
1F
100
AcDbEntity
  8
DP-350_0_15_大阪支店
  6
CONTINUOUS
 62
    54
100
AcDbLine
 10
974.0999999999997
 20
57.75000000000001
 30
0.0
 11
974.0999999999997
 21
35.25000000000006
 31
0.0
  0
LINE
  5
30A
330
1F
100
AcDbEntity
  8
DP-350_0_15_大阪支店
  6
CONTINUOUS
 62
    54
100
AcDbLine
 10
977.0999999999997
 20
57.75000000000001
 30
0.0
 11
977.0999999999997
 21
36.00000000000003
 31
0.0
  0
LINE
  5
30B
330
1F
100
AcDbEntity
  8
DP-350_0_15_大阪支店
  6
CONTINUOUS
 62
    54
100
AcDbLine
 10
978.5999999999997
 20
57.75000000000001
 30
0.0
 11
978.5999999999997
 21
36.00000000000003
 31
0.0
  0
LINE
  5
30C
330
1F
100
AcDbEntity
  8
DP-350_0_15_大阪支店
  6
CONTINUOUS
 62
    54
100
AcDbLine
 10
981.5999999999997
 20
57.75000000000001
 30
0.0
 11
981.5999999999997
 21
36.00000000000003
 31
0.0
  0
LINE
  5
30D
330
1F
100
AcDbEntity
  8
DP-350_0_15_大阪支店
  6
CONTINUOUS
 62
    54
100
AcDbLine
 10
983.0999999999997
 20
57.75000000000001
 30
0.0
 11
983.0999999999997
 21
36.00000000000003
 31
0.0
  0
LINE
  5
30E
330
1F
100
AcDbEntity
  8
DP-350_0_15_大阪支店
  6
CONTINUOUS
 62
    54
100
AcDbLine
 10
986.0999999999997
 20
57.75000000000001
 30
0.0
 11
986.0999999999997
 21
35.25000000000003
 31
0.0
  0
LINE
  5
30F
330
1F
100
AcDbEntity
  8
DP-350_0_15_大阪支店
  6
CONTINUOUS
 62
    54
100
AcDbLine
 10
987.5999999999997
 20
54.74999999999999
 30
0.0
 11
987.5999999999997
 21
32.25000000000001
 31
0.0
  0
LINE
  5
310
330
1F
100
AcDbEntity
  8
DP-350_0_15_大阪支店
  6
CONTINUOUS
 62
    54
100
AcDbLine
 10
990.5999999999997
 20
53.99999999999964
 30
0.0
 11
990.5999999999997
 21
39.75000000000342
 31
0.0
  0
LINE
  5
311
330
1F
100
AcDbEntity
  8
DP-350_0_15_大阪支店
  6
CONTINUOUS
 62
    54
100
AcDbLine
 10
992.0999999999997
 20
53.99999999999964
 30
0.0
 11
992.0999999999997
 21
39.75000000000342
 31
0.0
  0
LINE
  5
312
330
1F
100
AcDbEntity
  8
DP-350_0_15_大阪支店
  6
CONTINUOUS
 62
    54
100
AcDbLine
 10
995.0999999999997
 20
54.74999999999999
 30
0.0
 11
995.0999999999997
 21
32.25000000000001
 31
0.0
  0
ARC
  5
313
330
1F
100
AcDbEntity
  8
DP-350_0_15_大阪支店
  6
CONTINUOUS
 62
    54
100
AcDbCircle
 10
956.0999999999991
 20
54.74999999999999
 30
0.0
 40
3.000000000000513
100
AcDbArc
 50
0.0
 51
90.00000000000004
  0
ARC
  5
314
330
1F
100
AcDbEntity
  8
DP-350_0_15_大阪支店
  6
CONTINUOUS
 62
    54
100
AcDbCircle
 10
954.5999999999991
 20
53.24999999999999
 30
0.0
 40
1.5
100
AcDbArc
 50
0.0
 51
90.00000000000004
  0
ARC
  5
315
330
1F
100
AcDbEntity
  8
DP-350_0_15_大阪支店
  6
CONTINUOUS
 62
    54
100
AcDbCircle
 10
963.5999999999991
 20
54.74999999999999
 30
0.0
 40
3.000000000000022
100
AcDbArc
 50
90.00000000000004
 51
180.0
  0
ARC
  5
316
330
1F
100
AcDbEntity
  8
DP-350_0_15_大阪支店
  6
CONTINUOUS
 62
    54
100
AcDbCircle
 10
965.0999999999997
 20
54.74999999999999
 30
0.0
 40
3.0
100
AcDbArc
 50
0.0
 51
90.00000000000004
  0
ARC
  5
317
330
1F
100
AcDbEntity
  8
DP-350_0_15_大阪支店
  6
CONTINUOUS
 62
    54
100
AcDbCircle
 10
964.3499999999995
 20
53.99999999999964
 30
0.0
 40
0.7500000000003421
100
AcDbArc
 50
0.0
 51
180.0
  0
LINE
  5
318
330
1F
100
AcDbEntity
  8
DP-350_0_15_大阪支店
  6
CONTINUOUS
 62
    54
100
AcDbLine
 10
963.5999999999991
 20
36.75000000000006
 30
0.0
 11
965.0999999999997
 21
36.75000000000006
 31
0.0
  0
LINE
  5
319
330
1F
100
AcDbEntity
  8
DP-350_0_15_大阪支店
  6
CONTINUOUS
 62
    54
100
AcDbLine
 10
963.5999999999991
 20
39.75000000000342
 30
0.0
 11
965.0999999999997
 21
39.75000000000342
 31
0.0
  0
ARC
  5
31A
330
1F
100
AcDbEntity
  8
DP-350_0_15_大阪支店
  6
CONTINUOUS
 62
    54
100
AcDbCircle
 10
977.0999999999997
 20
35.25000000000006
 30
0.0
 40
3.0
100
AcDbArc
 50
180.0
 51
270.0000000000002
  0
ARC
  5
31B
330
1F
100
AcDbEntity
  8
DP-350_0_15_大阪支店
  6
CONTINUOUS
 62
    54
100
AcDbCircle
 10
983.0999999999997
 20
35.25000000000006
 30
0.0
 40
3.000000000000042
100
AcDbArc
 50
270.0000000000002
 51
0.0
  0
ARC
  5
31C
330
1F
100
AcDbEntity
  8
DP-350_0_15_大阪支店
  6
CONTINUOUS
 62
    54
100
AcDbCircle
 10
982.3499999999997
 20
36.00000000000003
 30
0.0
 40
0.7500000000000001
100
AcDbArc
 50
180.0
 51
0.0
  0
ARC
  5
31D
330
1F
100
AcDbEntity
  8
DP-350_0_15_大阪支店
  6
CONTINUOUS
 62
    54
100
AcDbCircle
 10
977.8499999999997
 20
36.00000000000003
 30
0.0
 40
0.7500000000000001
100
AcDbArc
 50
180.0
 51
0.0
  0
ARC
  5
31E
330
1F
100
AcDbEntity
  8
DP-350_0_15_大阪支店
  6
CONTINUOUS
 62
    54
100
AcDbCircle
 10
982.3499999999997
 20
35.25000000000006
 30
0.0
 40
3.000000000000042
100
AcDbArc
 50
221.4096221092718
 51
270.0000000000002
  0
ARC
  5
31F
330
1F
100
AcDbEntity
  8
DP-350_0_15_大阪支店
  6
CONTINUOUS
 62
    54
100
AcDbCircle
 10
977.8499999999997
 20
35.25000000000006
 30
0.0
 40
3.000000000000042
100
AcDbArc
 50
270.0000000000002
 51
318.5903778907281
  0
ARC
  5
320
330
1F
100
AcDbEntity
  8
DP-350_0_15_大阪支店
  6
CONTINUOUS
 62
    54
100
AcDbCircle
 10
954.5999999999991
 20
36.75000000000003
 30
0.0
 40
1.5
100
AcDbArc
 50
270.0000000000002
 51
0.0
  0
ARC
  5
321
330
1F
100
AcDbEntity
  8
DP-350_0_15_大阪支店
  6
CONTINUOUS
 62
    54
100
AcDbCircle
 10
956.0999999999991
 20
35.25000000000003
 30
0.0
 40
3.000000000000513
100
AcDbArc
 50
270.0000000000002
 51
0.0
  0
ARC
  5
322
330
1F
100
AcDbEntity
  8
DP-350_0_15_大阪支店
  6
CONTINUOUS
 62
    54
100
AcDbCircle
 10
990.5999999999991
 20
54.74999999999999
 30
0.0
 40
3.000000000000022
100
AcDbArc
 50
90.00000000000004
 51
180.0
  0
ARC
  5
323
330
1F
100
AcDbEntity
  8
DP-350_0_15_大阪支店
  6
CONTINUOUS
 62
    54
100
AcDbCircle
 10
992.0999999999997
 20
54.74999999999999
 30
0.0
 40
3.0
100
AcDbArc
 50
0.0
 51
90.00000000000004
  0
ARC
  5
324
330
1F
100
AcDbEntity
  8
DP-350_0_15_大阪支店
  6
CONTINUOUS
 62
    54
100
AcDbCircle
 10
991.3499999999995
 20
53.99999999999964
 30
0.0
 40
0.7500000000003421
100
AcDbArc
 50
0.0
 51
180.0
  0
LINE
  5
325
330
1F
100
AcDbEntity
  8
DP-350_0_15_大阪支店
  6
CONTINUOUS
 62
    54
100
AcDbLine
 10
990.5999999999991
 20
36.75000000000006
 30
0.0
 11
992.0999999999997
 21
36.75000000000006
 31
0.0
  0
LINE
  5
326
330
1F
100
AcDbEntity
  8
DP-350_0_15_大阪支店
  6
CONTINUOUS
 62
    54
100
AcDbLine
 10
990.5999999999991
 20
39.75000000000342
 30
0.0
 11
992.0999999999997
 21
39.75000000000342
 31
0.0
  0
LINE
  5
327
330
1F
100
AcDbEntity
  8
DP-350_0_15_大阪支店
  6
CONTINUOUS
 62
    54
100
AcDbLine
 10
963.5999999999991
 20
57.75000000000001
 30
0.0
 11
965.0999999999997
 21
57.75000000000001
 31
0.0
  0
LINE
  5
328
330
1F
100
AcDbEntity
  8
DP-350_0_15_大阪支店
  6
CONTINUOUS
 62
    54
100
AcDbLine
 10
963.5999999999991
 20
36.75000000000006
 30
0.0
 11
963.5999999999991
 21
32.25000000000001
 31
0.0
  0
LINE
  5
329
330
1F
100
AcDbEntity
  8
DP-350_0_15_大阪支店
  6
CONTINUOUS
 62
    54
100
AcDbLine
 10
965.0999999999997
 20
36.75000000000006
 30
0.0
 11
965.0999999999997
 21
32.25000000000001
 31
0.0
  0
LINE
  5
32A
330
1F
100
AcDbEntity
  8
DP-350_0_15_大阪支店
  6
CONTINUOUS
 62
    54
100
AcDbLine
 10
960.5999999999997
 20
32.25000000000001
 30
0.0
 11
963.5999999999991
 21
32.25000000000001
 31
0.0
  0
LINE
  5
32B
330
1F
100
AcDbEntity
  8
DP-350_0_15_大阪支店
  6
CONTINUOUS
 62
    54
100
AcDbLine
 10
965.0999999999997
 20
32.25000000000001
 30
0.0
 11
968.0999999999997
 21
32.25000000000001
 31
0.0
  0
LINE
  5
32C
330
1F
100
AcDbEntity
  8
DP-350_0_15_大阪支店
  6
CONTINUOUS
 62
    54
100
AcDbLine
 10
969.5999999999997
 20
32.25000000000001
 30
0.0
 11
972.5999999999997
 21
32.25000000000001
 31
0.0
  0
LINE
  5
32D
330
1F
100
AcDbEntity
  8
DP-350_0_15_大阪支店
  6
CONTINUOUS
 62
    54
100
AcDbLine
 10
969.5999999999997
 20
57.75000000000001
 30
0.0
 11
972.5999999999997
 21
57.75000000000001
 31
0.0
  0
LINE
  5
32E
330
1F
100
AcDbEntity
  8
DP-350_0_15_大阪支店
  6
CONTINUOUS
 62
    54
100
AcDbLine
 10
974.0999999999997
 20
57.75000000000001
 30
0.0
 11
977.0999999999997
 21
57.75000000000001
 31
0.0
  0
LINE
  5
32F
330
1F
100
AcDbEntity
  8
DP-350_0_15_大阪支店
  6
CONTINUOUS
 62
    54
100
AcDbLine
 10
978.5999999999997
 20
57.75000000000001
 30
0.0
 11
981.5999999999997
 21
57.75000000000001
 31
0.0
  0
LINE
  5
330
330
1F
100
AcDbEntity
  8
DP-350_0_15_大阪支店
  6
CONTINUOUS
 62
    54
100
AcDbLine
 10
983.0999999999997
 20
57.75000000000001
 30
0.0
 11
986.0999999999997
 21
57.75000000000001
 31
0.0
  0
LINE
  5
331
330
1F
100
AcDbEntity
  8
DP-350_0_15_大阪支店
  6
CONTINUOUS
 62
    54
100
AcDbLine
 10
990.5999999999991
 20
57.75000000000001
 30
0.0
 11
992.0999999999997
 21
57.75000000000001
 31
0.0
  0
LINE
  5
332
330
1F
100
AcDbEntity
  8
DP-350_0_15_大阪支店
  6
CONTINUOUS
 62
    54
100
AcDbLine
 10
977.0999999999997
 20
32.25000000000001
 30
0.0
 11
977.8499999999997
 21
32.25000000000001
 31
0.0
  0
LINE
  5
333
330
1F
100
AcDbEntity
  8
DP-350_0_15_大阪支店
  6
CONTINUOUS
 62
    54
100
AcDbLine
 10
982.3499999999997
 20
32.25000000000001
 30
0.0
 11
983.0999999999997
 21
32.25000000000001
 31
0.0
  0
LINE
  5
334
330
1F
100
AcDbEntity
  8
DP-350_0_15_大阪支店
  6
CONTINUOUS
 62
    54
100
AcDbLine
 10
987.5999999999997
 20
32.25000000000001
 30
0.0
 11
990.5999999999997
 21
32.25000000000001
 31
0.0
  0
LINE
  5
335
330
1F
100
AcDbEntity
  8
DP-350_0_15_大阪支店
  6
CONTINUOUS
 62
    54
100
AcDbLine
 10
992.0999999999997
 20
32.25000000000001
 30
0.0
 11
995.0999999999997
 21
32.25000000000001
 31
0.0
  0
LINE
  5
336
330
1F
100
AcDbEntity
  8
DP-350_0_15_大阪支店
  6
CONTINUOUS
 62
    54
100
AcDbLine
 10
990.5999999999997
 20
36.75000000000006
 30
0.0
 11
990.5999999999997
 21
32.25000000000001
 31
0.0
  0
LINE
  5
337
330
1F
100
AcDbEntity
  8
DP-350_0_15_大阪支店
  6
CONTINUOUS
 62
    54
100
AcDbLine
 10
992.0999999999997
 20
36.75000000000006
 30
0.0
 11
992.0999999999997
 21
32.25000000000001
 31
0.0
  0
LINE
  5
338
330
1F
100
AcDbEntity
  8
DP-350_0_15_大阪支店
  6
CONTINUOUS
 62
    54
100
AcDbLine
 10
951.6000000000015
 20
57.70584412271725
 30
0.0
 11
951.6441558772863
 21
57.75000000000202
 31
0.0
  0
LINE
  5
339
330
1F
100
AcDbEntity
  8
DP-350_0_15_大阪支店
  6
CONTINUOUS
 62
    54
100
AcDbLine
 10
951.5999999999998
 20
56.8573159852919
 30
0.0
 11
952.4926840147116
 21
57.75000000000355
 31
0.0
  0
LINE
  5
33A
330
1F
100
AcDbEntity
  8
DP-350_0_15_大阪支店
  6
CONTINUOUS
 62
    54
100
AcDbLine
 10
951.6000000000022
 20
56.00878784787031
 30
0.0
 11
953.341212152133
 21
57.75000000000125
 31
0.0
  0
LINE
  5
33B
330
1F
100
AcDbEntity
  8
DP-350_0_15_大阪支店
  6
CONTINUOUS
 62
    54
100
AcDbLine
 10
951.6000000000046
 20
55.16025971044888
 30
0.0
 11
954.1897402895547
 21
57.74999999999903
 31
0.0
  0
LINE
  5
33C
330
1F
100
AcDbEntity
  8
DP-350_0_15_大阪支店
  6
CONTINUOUS
 62
    54
100
AcDbLine
 10
951.5999999999991
 20
54.31173157301961
 30
0.0
 11
955.0382684269839
 21
57.75000000000441
 31
0.0
  0
LINE
  5
33D
330
1F
100
AcDbEntity
  8
DP-350_0_15_大阪支店
  6
CONTINUOUS
 62
    54
100
AcDbLine
 10
951.5999999999974
 20
53.46320343559427
 30
0.0
 11
955.8867965644052
 21
57.7500000000021
 31
0.0
  0
LINE
  5
33E
330
1F
100
AcDbEntity
  8
DP-350_0_15_大阪支店
  6
CONTINUOUS
 62
    54
100
AcDbLine
 10
951.5999999999998
 20
52.61467529817276
 30
0.0
 11
956.678933960735
 21
57.69360925890786
 31
0.0
  0
LINE
  5
33F
330
1F
100
AcDbEntity
  8
DP-350_0_15_大阪支店
  6
CONTINUOUS
 62
    54
100
AcDbLine
 10
951.6000000000022
 20
51.76614716075125
 30
0.0
 11
957.3231695765211
 21
57.48931673727023
 31
0.0
  0
LINE
  5
340
330
1F
100
AcDbEntity
  8
DP-350_0_15_大阪支店
  6
CONTINUOUS
 62
    54
100
AcDbLine
 10
951.6000000000005
 20
50.9176190233259
 30
0.0
 11
954.6000000000004
 21
53.91761902332568
 31
0.0
  0
LINE
  5
341
330
1F
100
AcDbEntity
  8
DP-350_0_15_大阪支店
  6
CONTINUOUS
 62
    54
100
AcDbLine
 10
951.599999999999
 20
50.06909088590047
 30
0.0
 11
954.6000000000004
 21
53.06909088590172
 31
0.0
  0
LINE
  5
342
330
1F
100
AcDbEntity
  8
DP-350_0_15_大阪支店
  6
CONTINUOUS
 62
    54
100
AcDbLine
 10
951.6000000000012
 20
49.22056274847895
 30
0.0
 11
954.6000000000004
 21
52.22056274847812
 31
0.0
  0
LINE
  5
343
330
1F
100
AcDbEntity
  8
DP-350_0_15_大阪支店
  6
CONTINUOUS
 62
    54
100
AcDbLine
 10
951.5999999999997
 20
48.37203461105352
 30
0.0
 11
954.6000000000004
 21
51.37203461105416
 31
0.0
  0
LINE
  5
344
330
1F
100
AcDbEntity
  8
DP-350_0_15_大阪支店
  6
CONTINUOUS
 62
    54
100
AcDbLine
 10
951.600000000002
 20
47.5235064736321
 30
0.0
 11
954.6000000000004
 21
50.52350647363048
 31
0.0
  0
LINE
  5
345
330
1F
100
AcDbEntity
  8
DP-350_0_15_大阪支店
  6
CONTINUOUS
 62
    54
100
AcDbLine
 10
951.6000000000005
 20
46.67497833620666
 30
0.0
 11
954.6000000000004
 21
49.67497833620658
 31
0.0
  0
LINE
  5
346
330
1F
100
AcDbEntity
  8
DP-350_0_15_大阪支店
  6
CONTINUOUS
 62
    54
100
AcDbLine
 10
951.6000000000026
 20
45.82645019878515
 30
0.0
 11
954.6000000000004
 21
48.82645019878285
 31
0.0
  0
LINE
  5
347
330
1F
100
AcDbEntity
  8
DP-350_0_15_大阪支店
  6
CONTINUOUS
 62
    54
100
AcDbLine
 10
951.6000000000012
 20
44.97792206135972
 30
0.0
 11
954.6000000000004
 21
47.97792206135888
 31
0.0
  0
LINE
  5
348
330
1F
100
AcDbEntity
  8
DP-350_0_15_大阪支店
  6
CONTINUOUS
 62
    54
100
AcDbLine
 10
951.5999999999997
 20
44.12939392393446
 30
0.0
 11
954.6000000000004
 21
47.12939392393518
 31
0.0
  0
LINE
  5
349
330
1F
100
AcDbEntity
  8
DP-350_0_15_大阪支店
  6
CONTINUOUS
 62
    54
100
AcDbLine
 10
951.6000000000018
 20
43.28086578651286
 30
0.0
 11
954.6000000000004
 21
46.28086578651133
 31
0.0
  0
LINE
  5
34A
330
1F
100
AcDbEntity
  8
DP-350_0_15_大阪支店
  6
CONTINUOUS
 62
    54
100
AcDbLine
 10
951.600000000004
 20
42.43233764909135
 30
0.0
 11
954.6000000000004
 21
45.43233764908761
 31
0.0
  0
LINE
  5
34B
330
1F
100
AcDbEntity
  8
DP-350_0_15_大阪支店
  6
CONTINUOUS
 62
    54
100
AcDbLine
 10
951.6000000000025
 20
41.583809511666
 30
0.0
 11
954.6000000000004
 21
44.5838095116638
 31
0.0
  0
LINE
  5
34C
330
1F
100
AcDbEntity
  8
DP-350_0_15_大阪支店
  6
CONTINUOUS
 62
    54
100
AcDbLine
 10
951.6000000000049
 20
40.73528137424449
 30
0.0
 11
954.6000000000004
 21
43.73528137423993
 31
0.0
  0
LINE
  5
34D
330
1F
100
AcDbEntity
  8
DP-350_0_15_大阪支店
  6
CONTINUOUS
 62
    54
100
AcDbLine
 10
951.5999999999995
 20
39.88675323681522
 30
0.0
 11
954.6000000000004
 21
42.88675323681605
 31
0.0
  0
LINE
  5
34E
330
1F
100
AcDbEntity
  8
DP-350_0_15_大阪支店
  6
CONTINUOUS
 62
    54
100
AcDbLine
 10
951.6000000000017
 20
39.03822509939371
 30
0.0
 11
954.6000000000004
 21
42.03822509939231
 31
0.0
  0
LINE
  5
34F
330
1F
100
AcDbEntity
  8
DP-350_0_15_大阪支店
  6
CONTINUOUS
 62
    54
100
AcDbLine
 10
951.6000000000001
 20
38.18969696196828
 30
0.0
 11
954.6000000000004
 21
41.18969696196849
 31
0.0
  0
LINE
  5
350
330
1F
100
AcDbEntity
  8
DP-350_0_15_大阪支店
  6
CONTINUOUS
 62
    54
100
AcDbLine
 10
951.6000000000025
 20
37.34116882454686
 30
0.0
 11
954.6000000000004
 21
40.34116882454468
 31
0.0
  0
LINE
  5
351
330
1F
100
AcDbEntity
  8
DP-350_0_15_大阪支店
  6
CONTINUOUS
 62
    54
100
AcDbLine
 10
951.6000000000047
 20
36.49264068712526
 30
0.0
 11
954.6000000000004
 21
39.49264068712093
 31
0.0
  0
LINE
  5
352
330
1F
100
AcDbEntity
  8
DP-350_0_15_大阪支店
  6
CONTINUOUS
 62
    54
100
AcDbLine
 10
951.5999999999992
 20
35.64411254969608
 30
0.0
 11
954.6000000000004
 21
38.6441125496971
 31
0.0
  0
LINE
  5
353
330
1F
100
AcDbEntity
  8
DP-350_0_15_大阪支店
  6
CONTINUOUS
 62
    54
100
AcDbLine
 10
951.6000000000015
 20
34.79558441227448
 30
0.0
 11
954.6000000000004
 21
37.79558441227317
 31
0.0
  0
LINE
  5
354
330
1F
100
AcDbEntity
  8
DP-350_0_15_大阪支店
  6
CONTINUOUS
 62
    54
100
AcDbLine
 10
951.6000000000039
 20
33.94705627485305
 30
0.0
 11
954.6000000000004
 21
36.94705627484947
 31
0.0
  0
LINE
  5
355
330
1F
100
AcDbEntity
  8
DP-350_0_15_大阪支店
  6
CONTINUOUS
 62
    54
100
AcDbLine
 10
951.6000000000024
 20
33.09852813742771
 30
0.0
 11
954.6000000000004
 21
36.09852813742572
 31
0.0
  0
LINE
  5
356
330
1F
100
AcDbEntity
  8
DP-350_0_15_大阪支店
  6
CONTINUOUS
 62
    54
100
AcDbLine
 10
951.599999999997
 20
32.24999999999844
 30
0.0
 11
954.6000000000004
 21
35.2500000000019
 31
0.0
  0
LINE
  5
357
330
1F
100
AcDbEntity
  8
DP-350_0_15_大阪支店
  6
CONTINUOUS
 62
    54
100
AcDbLine
 10
952.4485281374223
 20
32.25000000000006
 30
0.0
 11
959.0999999999967
 21
38.90147186257437
 31
0.0
  0
LINE
  5
358
330
1F
100
AcDbEntity
  8
DP-350_0_15_大阪支店
  6
CONTINUOUS
 62
    54
100
AcDbLine
 10
953.2970562748438
 20
32.24999999999767
 30
0.0
 11
959.0999999999988
 21
38.05294372515277
 31
0.0
  0
LINE
  5
359
330
1F
100
AcDbEntity
  8
DP-350_0_15_大阪支店
  6
CONTINUOUS
 62
    54
100
AcDbLine
 10
954.1455844122693
 20
32.24999999999929
 30
0.0
 11
959.1000000000012
 21
37.20441558773135
 31
0.0
  0
LINE
  5
35A
330
1F
100
AcDbEntity
  8
DP-350_0_15_大阪支店
  6
CONTINUOUS
 62
    54
100
AcDbLine
 10
954.9941125496906
 20
32.24999999999699
 30
0.0
 11
959.0999999999997
 21
36.35588745030591
 31
0.0
  0
LINE
  5
35B
330
1F
100
AcDbEntity
  8
DP-350_0_15_大阪支店
  6
CONTINUOUS
 62
    54
100
AcDbLine
 10
955.8426406871123
 20
32.24999999999469
 30
0.0
 11
959.1000000000018
 21
35.5073593128844
 31
0.0
  0
LINE
  5
35C
330
1F
100
AcDbEntity
  8
DP-350_0_15_大阪支店
  6
CONTINUOUS
 62
    54
100
AcDbLine
 10
956.7660373267489
 20
32.32486850220766
 30
0.0
 11
959.0251314977927
 21
34.58396267325145
 31
0.0
  0
LINE
  5
35D
330
1F
100
AcDbEntity
  8
DP-350_0_15_大阪支店
  6
CONTINUOUS
 62
    54
100
AcDbLine
 10
952.4485281374239
 20
32.24999999999989
 30
0.0
 11
951.5999999999967
 21
33.09852813742685
 31
0.0
  0
LINE
  5
35E
330
1F
100
AcDbEntity
  8
DP-350_0_15_大阪支店
  6
CONTINUOUS
 62
    54
100
AcDbLine
 10
953.2970562748493
 20
32.24999999999844
 30
0.0
 11
951.5999999999991
 21
33.94705627484845
 31
0.0
  0
LINE
  5
35F
330
1F
100
AcDbEntity
  8
DP-350_0_15_大阪支店
  6
CONTINUOUS
 62
    54
100
AcDbLine
 10
954.1455844122706
 20
32.25000000000065
 30
0.0
 11
951.6000000000015
 21
34.79558441226987
 31
0.0
  0
LINE
  5
360
330
1F
100
AcDbEntity
  8
DP-350_0_15_大阪支店
  6
CONTINUOUS
 62
    54
100
AcDbLine
 10
954.9941125496961
 20
32.24999999999912
 30
0.0
 11
951.5999999999998
 21
35.64411254969531
 31
0.0
  0
LINE
  5
361
330
1F
100
AcDbEntity
  8
DP-350_0_15_大阪支店
  6
CONTINUOUS
 62
    54
100
AcDbLine
 10
955.8426406871215
 20
32.2499999999975
 30
0.0
 11
951.6000000000022
 21
36.49264068711682
 31
0.0
  0
LINE
  5
362
330
1F
100
AcDbEntity
  8
DP-350_0_15_大阪支店
  6
CONTINUOUS
 62
    54
100
AcDbLine
 10
956.6418327027608
 20
32.29933612178212
 30
0.0
 11
951.5999999999967
 21
37.34116882454609
 31
0.0
  0
LINE
  5
363
330
1F
100
AcDbEntity
  8
DP-350_0_15_大阪支店
  6
CONTINUOUS
 62
    54
100
AcDbLine
 10
957.2925024312191
 20
32.49719453074738
 30
0.0
 11
951.5999999999991
 21
38.1896969619676
 31
0.0
  0
LINE
  5
364
330
1F
100
AcDbEntity
  8
DP-350_0_15_大阪支店
  6
CONTINUOUS
 62
    54
100
AcDbLine
 10
957.835366748192
 20
32.80285835119847
 30
0.0
 11
955.2432842680275
 21
35.394940831363
 31
0.0
  0
LINE
  5
365
330
1F
100
AcDbEntity
  8
DP-350_0_15_大阪支店
  6
CONTINUOUS
 62
    54
100
AcDbLine
 10
958.2885946822042
 20
33.19815855460993
 30
0.0
 11
955.7268305087841
 21
35.75992272803013
 31
0.0
  0
LINE
  5
366
330
1F
100
AcDbEntity
  8
DP-350_0_15_大阪支店
  6
CONTINUOUS
 62
    54
100
AcDbLine
 10
958.6559644991735
 20
33.67931687506447
 30
0.0
 11
956.0319516864124
 21
36.30332968782548
 31
0.0
  0
LINE
  5
367
330
1F
100
AcDbEntity
  8
DP-350_0_15_大阪支店
  6
CONTINUOUS
 62
    54
100
AcDbLine
 10
958.9298307002271
 20
34.25397881143468
 30
0.0
 11
956.0999999999991
 21
37.08380951166278
 31
0.0
  0
LINE
  5
368
330
1F
100
AcDbEntity
  8
DP-350_0_15_大阪支店
  6
CONTINUOUS
 62
    54
100
AcDbLine
 10
959.0847217394422
 20
34.9476159096433
 30
0.0
 11
956.0999999999991
 21
37.93233764908632
 31
0.0
  0
LINE
  5
369
330
1F
100
AcDbEntity
  8
DP-350_0_15_大阪支店
  6
CONTINUOUS
 62
    54
100
AcDbLine
 10
959.0999999999985
 20
35.78086578651082
 30
0.0
 11
956.0999999999991
 21
38.78086578651026
 31
0.0
  0
LINE
  5
36A
330
1F
100
AcDbEntity
  8
DP-350_0_15_大阪支店
  6
CONTINUOUS
 62
    54
100
AcDbLine
 10
959.1000000000008
 20
36.62939392393233
 30
0.0
 11
956.0999999999991
 21
39.62939392393403
 31
0.0
  0
LINE
  5
36B
330
1F
100
AcDbEntity
  8
DP-350_0_15_大阪支店
  6
CONTINUOUS
 62
    54
100
AcDbLine
 10
959.1000000000032
 20
37.47792206135392
 30
0.0
 11
956.0999999999991
 21
40.47792206135797
 31
0.0
  0
LINE
  5
36C
330
1F
100
AcDbEntity
  8
DP-350_0_15_大阪支店
  6
CONTINUOUS
 62
    54
100
AcDbLine
 10
959.1000000000015
 20
38.32645019877918
 30
0.0
 11
956.0999999999991
 21
41.32645019878153
 31
0.0
  0
LINE
  5
36D
330
1F
100
AcDbEntity
  8
DP-350_0_15_大阪支店
  6
CONTINUOUS
 62
    54
100
AcDbLine
 10
959.1000000000001
 20
39.17497833620462
 30
0.0
 11
956.0999999999991
 21
42.1749783362056
 31
0.0
  0
LINE
  5
36E
330
1F
100
AcDbEntity
  8
DP-350_0_15_大阪支店
  6
CONTINUOUS
 62
    54
100
AcDbLine
 10
959.0999999999984
 20
40.02350647362996
 30
0.0
 11
956.0999999999991
 21
43.02350647362941
 31
0.0
  0
LINE
  5
36F
330
1F
100
AcDbEntity
  8
DP-350_0_15_大阪支店
  6
CONTINUOUS
 62
    54
100
AcDbLine
 10
959.1000000000008
 20
40.87203461105156
 30
0.0
 11
956.0999999999991
 21
43.87203461105322
 31
0.0
  0
LINE
  5
370
330
1F
100
AcDbEntity
  8
DP-350_0_15_大阪支店
  6
CONTINUOUS
 62
    54
100
AcDbLine
 10
959.1000000000031
 20
41.72056274847299
 30
0.0
 11
956.0999999999991
 21
44.72056274847682
 31
0.0
  0
LINE
  5
371
330
1F
100
AcDbEntity
  8
DP-350_0_15_大阪支店
  6
CONTINUOUS
 62
    54
100
AcDbLine
 10
959.1000000000015
 20
42.56909088589842
 30
0.0
 11
956.0999999999991
 21
45.56909088590078
 31
0.0
  0
LINE
  5
372
330
1F
100
AcDbEntity
  8
DP-350_0_15_大阪支店
  6
CONTINUOUS
 62
    54
100
AcDbLine
 10
959.0999999999998
 20
43.41761902332377
 30
0.0
 11
956.0999999999991
 21
46.41761902332445
 31
0.0
  0
LINE
  5
373
330
1F
100
AcDbEntity
  8
DP-350_0_15_大阪支店
  6
CONTINUOUS
 62
    54
100
AcDbLine
 10
959.1000000000022
 20
44.26614716074536
 30
0.0
 11
956.0999999999991
 21
47.26614716074845
 31
0.0
  0
LINE
  5
374
330
1F
100
AcDbEntity
  8
DP-350_0_15_大阪支店
  6
CONTINUOUS
 62
    54
100
AcDbLine
 10
959.1000000000006
 20
45.11467529817071
 30
0.0
 11
956.0999999999991
 21
48.11467529817224
 31
0.0
  0
LINE
  5
375
330
1F
100
AcDbEntity
  8
DP-350_0_15_大阪支店
  6
CONTINUOUS
 62
    54
100
AcDbLine
 10
959.1000000000029
 20
45.96320343559222
 30
0.0
 11
956.0999999999991
 21
48.96320343559599
 31
0.0
  0
LINE
  5
376
330
1F
100
AcDbEntity
  8
DP-350_0_15_大阪支店
  6
CONTINUOUS
 62
    54
100
AcDbLine
 10
959.1000000000013
 20
46.81173157301757
 30
0.0
 11
956.0999999999991
 21
49.81173157301984
 31
0.0
  0
LINE
  5
377
330
1F
100
AcDbEntity
  8
DP-350_0_15_大阪支店
  6
CONTINUOUS
 62
    54
100
AcDbLine
 10
959.0999999999998
 20
47.660259710443
 30
0.0
 11
956.0999999999991
 21
50.66025971044368
 31
0.0
  0
LINE
  5
378
330
1F
100
AcDbEntity
  8
DP-350_0_15_大阪支店
  6
CONTINUOUS
 62
    54
100
AcDbLine
 10
959.1000000000022
 20
48.50878784786443
 30
0.0
 11
956.0999999999991
 21
51.50878784786745
 31
0.0
  0
LINE
  5
379
330
1F
100
AcDbEntity
  8
DP-350_0_15_大阪支店
  6
CONTINUOUS
 62
    54
100
AcDbLine
 10
959.1000000000005
 20
49.35731598528986
 30
0.0
 11
956.0999999999991
 21
52.35731598529131
 31
0.0
  0
LINE
  5
37A
330
1F
100
AcDbEntity
  8
DP-350_0_15_大阪支店
  6
CONTINUOUS
 62
    54
100
AcDbLine
 10
959.1000000000029
 20
50.20584412271137
 30
0.0
 11
956.0999999999991
 21
53.20584412271521
 31
0.0
  0
LINE
  5
37B
330
1F
100
AcDbEntity
  8
DP-350_0_15_大阪支店
  6
CONTINUOUS
 62
    54
100
AcDbLine
 10
959.1000000000012
 20
51.05437226013672
 30
0.0
 11
952.4043722601343
 21
57.75000000000347
 31
0.0
  0
LINE
  5
37C
330
1F
100
AcDbEntity
  8
DP-350_0_15_大阪支店
  6
CONTINUOUS
 62
    54
100
AcDbLine
 10
959.0999999999998
 20
51.90290039756215
 30
0.0
 11
953.2529003975598
 21
57.75000000000193
 31
0.0
  0
LINE
  5
37D
330
1F
100
AcDbEntity
  8
DP-350_0_15_大阪支店
  6
CONTINUOUS
 62
    54
100
AcDbLine
 10
959.1000000000018
 20
52.75142853498357
 30
0.0
 11
954.1014285349852
 21
57.75000000000031
 31
0.0
  0
LINE
  5
37E
330
1F
100
AcDbEntity
  8
DP-350_0_15_大阪支店
  6
CONTINUOUS
 62
    54
100
AcDbLine
 10
959.1000000000005
 20
53.59995667240901
 30
0.0
 11
954.9499566724069
 21
57.7500000000027
 31
0.0
  0
LINE
  5
37F
330
1F
100
AcDbEntity
  8
DP-350_0_15_大阪支店
  6
CONTINUOUS
 62
    54
100
AcDbLine
 10
959.1000000000026
 20
54.44848480983052
 30
0.0
 11
955.798484809832
 21
57.75000000000108
 31
0.0
  0
LINE
  5
380
330
1F
100
AcDbEntity
  8
DP-350_0_15_大阪支店
  6
CONTINUOUS
 62
    54
100
AcDbLine
 10
959.0374114474178
 20
55.35960149983919
 30
0.0
 11
956.7096014998446
 21
57.68741144741239
 31
0.0
  0
LINE
  5
381
330
1F
100
AcDbEntity
  8
DP-350_0_15_大阪支店
  6
CONTINUOUS
 62
    54
100
AcDbLine
 10
954.6000000000004
 20
54.70584412271386
 30
0.0
 11
951.5999999999977
 21
57.70584412271648
 31
0.0
  0
LINE
  5
382
330
1F
100
AcDbEntity
  8
DP-350_0_15_大阪支店
  6
CONTINUOUS
 62
    54
100
AcDbLine
 10
955.747250645757
 20
54.21634153165849
 30
0.0
 11
958.3098455009533
 21
56.77893638685475
 31
0.0
  0
LINE
  5
383
330
1F
100
AcDbEntity
  8
DP-350_0_15_大阪支店
  6
CONTINUOUS
 62
    54
100
AcDbLine
 10
956.042115378124
 20
53.66267812660185
 30
0.0
 11
958.6726459170653
 21
56.29320866554312
 31
0.0
  0
LINE
  5
384
330
1F
100
AcDbEntity
  8
DP-350_0_15_大阪支店
  6
CONTINUOUS
 62
    54
100
AcDbLine
 10
954.6000000000004
 20
53.00878784786623
 30
0.0
 11
951.6000000000008
 21
56.0087878478657
 31
0.0
  0
LINE
  5
385
330
1F
100
AcDbEntity
  8
DP-350_0_15_大阪支店
  6
CONTINUOUS
 62
    54
100
AcDbLine
 10
956.0999999999991
 20
52.02350647362917
 30
0.0
 11
959.0885338955616
 21
55.01204036919174
 31
0.0
  0
LINE
  5
386
330
1F
100
AcDbEntity
  8
DP-350_0_15_大阪支店
  6
CONTINUOUS
 62
    54
100
AcDbLine
 10
954.6000000000004
 20
51.3117315730186
 30
0.0
 11
951.6000000000001
 21
54.31173157301885
 31
0.0
  0
LINE
  5
387
330
1F
100
AcDbEntity
  8
DP-350_0_15_大阪支店
  6
CONTINUOUS
 62
    54
100
AcDbLine
 10
956.0999999999991
 20
51.17497833620536
 30
0.0
 11
959.1000000000017
 21
54.17497833620794
 31
0.0
  0
LINE
  5
388
330
1F
100
AcDbEntity
  8
DP-350_0_15_大阪支店
  6
CONTINUOUS
 62
    54
100
AcDbLine
 10
956.0999999999991
 20
50.32645019878153
 30
0.0
 11
959.1000000000001
 21
53.3264501987826
 31
0.0
  0
LINE
  5
389
330
1F
100
AcDbEntity
  8
DP-350_0_15_大阪支店
  6
CONTINUOUS
 62
    54
100
AcDbLine
 10
954.6000000000004
 20
49.61467529817101
 30
0.0
 11
951.5999999999956
 21
52.61467529817583
 31
0.0
  0
LINE
  5
38A
330
1F
100
AcDbEntity
  8
DP-350_0_15_大阪支店
  6
CONTINUOUS
 62
    54
100
AcDbLine
 10
954.6000000000004
 20
48.76614716074729
 30
0.0
 11
951.5999999999971
 21
51.76614716075048
 31
0.0
  0
LINE
  5
38B
330
1F
100
AcDbEntity
  8
DP-350_0_15_大阪支店
  6
CONTINUOUS
 62
    54
100
AcDbLine
 10
954.6000000000004
 20
47.91761902332334
 30
0.0
 11
951.6000000000025
 21
50.91761902332121
 31
0.0
  0
LINE
  5
38C
330
1F
100
AcDbEntity
  8
DP-350_0_15_大阪支店
  6
CONTINUOUS
 62
    54
100
AcDbLine
 10
954.6000000000004
 20
47.0690908858995
 30
0.0
 11
951.6000000000001
 21
50.0690908858997
 31
0.0
  0
LINE
  5
38D
330
1F
100
AcDbEntity
  8
DP-350_0_15_大阪支店
  6
CONTINUOUS
 62
    54
100
AcDbLine
 10
956.0999999999991
 20
46.08380951166251
 30
0.0
 11
959.0999999999999
 21
49.08380951166336
 31
0.0
  0
LINE
  5
38E
330
1F
100
AcDbEntity
  8
DP-350_0_15_大阪支店
  6
CONTINUOUS
 62
    54
100
AcDbLine
 10
954.6000000000004
 20
46.22056274847571
 30
0.0
 11
951.5999999999979
 21
49.2205627484781
 31
0.0
  0
LINE
  5
38F
330
1F
100
AcDbEntity
  8
DP-350_0_15_大阪支店
  6
CONTINUOUS
 62
    54
100
AcDbLine
 10
954.6000000000004
 20
45.372034611052
 30
0.0
 11
951.5999999999995
 21
48.37203461105284
 31
0.0
  0
LINE
  5
390
330
1F
100
AcDbEntity
  8
DP-350_0_15_大阪支店
  6
CONTINUOUS
 62
    54
100
AcDbLine
 10
956.0999999999991
 20
44.38675323681493
 30
0.0
 11
959.0999999999967
 21
47.38675323681258
 31
0.0
  0
LINE
  5
391
330
1F
100
AcDbEntity
  8
DP-350_0_15_大阪支店
  6
CONTINUOUS
 62
    54
100
AcDbLine
 10
954.6000000000004
 20
44.52350647362815
 30
0.0
 11
951.6000000000012
 21
47.52350647362741
 31
0.0
  0
LINE
  5
392
330
1F
100
AcDbEntity
  8
DP-350_0_15_大阪支店
  6
CONTINUOUS
 62
    54
100
AcDbLine
 10
956.0999999999991
 20
43.53822509939113
 30
0.0
 11
959.0999999999991
 21
46.53822509939116
 31
0.0
  0
LINE
  5
393
330
1F
100
AcDbEntity
  8
DP-350_0_15_大阪支店
  6
CONTINUOUS
 62
    54
100
AcDbLine
 10
956.0999999999991
 20
42.68969696196726
 30
0.0
 11
959.1000000000015
 21
45.68969696196956
 31
0.0
  0
LINE
  5
394
330
1F
100
AcDbEntity
  8
DP-350_0_15_大阪支店
  6
CONTINUOUS
 62
    54
100
AcDbLine
 10
954.6000000000004
 20
42.82645019878039
 30
0.0
 11
951.6000000000004
 21
45.82645019878046
 31
0.0
  0
LINE
  5
395
330
1F
100
AcDbEntity
  8
DP-350_0_15_大阪支店
  6
CONTINUOUS
 62
    54
100
AcDbLine
 10
956.0999999999991
 20
41.84116882454353
 30
0.0
 11
959.0999999999998
 21
44.84116882454421
 31
0.0
  0
LINE
  5
396
330
1F
100
AcDbEntity
  8
DP-350_0_15_大阪支店
  6
CONTINUOUS
 62
    54
100
AcDbLine
 10
954.6000000000004
 20
41.97792206135688
 30
0.0
 11
951.5999999999981
 21
44.97792206135904
 31
0.0
  0
LINE
  5
397
330
1F
100
AcDbEntity
  8
DP-350_0_15_大阪支店
  6
CONTINUOUS
 62
    54
100
AcDbLine
 10
956.0999999999991
 20
40.99264068711965
 30
0.0
 11
959.1000000000022
 21
43.9926406871227
 31
0.0
  0
LINE
  5
398
330
1F
100
AcDbEntity
  8
DP-350_0_15_大阪支店
  6
CONTINUOUS
 62
    54
100
AcDbLine
 10
954.6000000000004
 20
40.28086578650908
 30
0.0
 11
951.6000000000012
 21
43.28086578650826
 31
0.0
  0
LINE
  5
399
330
1F
100
AcDbEntity
  8
DP-350_0_15_大阪支店
  6
CONTINUOUS
 62
    54
100
AcDbLine
 10
956.0999999999991
 20
40.14411254969599
 30
0.0
 11
959.0999999999967
 21
43.14411254969352
 31
0.0
  0
LINE
  5
39A
330
1F
100
AcDbEntity
  8
DP-350_0_15_大阪支店
  6
CONTINUOUS
 62
    54
100
AcDbLine
 10
954.6000000000004
 20
39.43233764908518
 30
0.0
 11
951.5999999999988
 21
42.43233764908666
 31
0.0
  0
LINE
  5
39B
330
1F
100
AcDbEntity
  8
DP-350_0_15_大阪支店
  6
CONTINUOUS
 62
    54
100
AcDbLine
 10
954.6000000000004
 20
38.58380951166158
 30
0.0
 11
951.5999999999967
 21
41.58380951166524
 31
0.0
  0
LINE
  5
39C
330
1F
100
AcDbEntity
  8
DP-350_0_15_大阪支店
  6
CONTINUOUS
 62
    54
100
AcDbLine
 10
956.0999999999991
 20
38.44705627484834
 30
0.0
 11
959.1000000000012
 21
41.44705627485041
 31
0.0
  0
LINE
  5
39D
330
1F
100
AcDbEntity
  8
DP-350_0_15_大阪支店
  6
CONTINUOUS
 62
    54
100
AcDbLine
 10
954.6000000000004
 20
37.73528137423759
 30
0.0
 11
951.5999999999981
 21
40.7352813742398
 31
0.0
  0
LINE
  5
39E
330
1F
100
AcDbEntity
  8
DP-350_0_15_大阪支店
  6
CONTINUOUS
 62
    54
100
AcDbLine
 10
956.0999999999991
 20
37.59852813742448
 30
0.0
 11
959.0999999999998
 21
40.59852813742515
 31
0.0
  0
LINE
  5
39F
330
1F
100
AcDbEntity
  8
DP-350_0_15_大阪支店
  6
CONTINUOUS
 62
    54
100
AcDbLine
 10
954.6000000000004
 20
36.88675323681386
 30
0.0
 11
951.5999999999998
 21
39.88675323681446
 31
0.0
  0
LINE
  5
3A0
330
1F
100
AcDbEntity
  8
DP-350_0_15_大阪支店
  6
CONTINUOUS
 62
    54
100
AcDbLine
 10
955.2729532259884
 20
54.59057224931387
 30
0.0
 11
957.8610821824185
 21
57.17870120574383
 31
0.0
  0
LINE
  5
3A1
330
1F
100
AcDbEntity
  8
DP-350_0_15_大阪支店
  6
CONTINUOUS
 62
    54
100
AcDbLine
 10
954.6000000000004
 20
53.85731598529007
 30
0.0
 11
951.5999999999992
 21
56.85731598529114
 31
0.0
  0
LINE
  5
3A2
330
1F
100
AcDbEntity
  8
DP-350_0_15_大阪支店
  6
CONTINUOUS
 62
    54
100
AcDbLine
 10
956.0999999999991
 20
52.8720346110531
 30
0.0
 11
958.9411686736822
 21
55.71320328473621
 31
0.0
  0
LINE
  5
3A3
330
1F
100
AcDbEntity
  8
DP-350_0_15_大阪支店
  6
CONTINUOUS
 62
    54
100
AcDbLine
 10
954.6000000000004
 20
52.16025971044253
 30
0.0
 11
951.5999999999985
 21
55.16025971044428
 31
0.0
  0
LINE
  5
3A4
330
1F
100
AcDbEntity
  8
DP-350_0_15_大阪支店
  6
CONTINUOUS
 62
    54
100
AcDbLine
 10
954.6000000000004
 20
50.46320343559478
 30
0.0
 11
951.5999999999977
 21
53.46320343559734
 31
0.0
  0
LINE
  5
3A5
330
1F
100
AcDbEntity
  8
DP-350_0_15_大阪支店
  6
CONTINUOUS
 62
    54
100
AcDbLine
 10
956.0999999999991
 20
49.47792206135772
 30
0.0
 11
959.1000000000024
 21
52.477922061361
 31
0.0
  0
LINE
  5
3A6
330
1F
100
AcDbEntity
  8
DP-350_0_15_大阪支店
  6
CONTINUOUS
 62
    54
100
AcDbLine
 10
956.0999999999991
 20
48.62939392393392
 30
0.0
 11
959.1000000000008
 21
51.62939392393565
 31
0.0
  0
LINE
  5
3A7
330
1F
100
AcDbEntity
  8
DP-350_0_15_大阪支店
  6
CONTINUOUS
 62
    54
100
AcDbLine
 10
956.0999999999991
 20
47.78086578651013
 30
0.0
 11
959.0999999999992
 21
50.7808657865103
 31
0.0
  0
LINE
  5
3A8
330
1F
100
AcDbEntity
  8
DP-350_0_15_大阪支店
  6
CONTINUOUS
 62
    54
100
AcDbLine
 10
956.0999999999991
 20
46.93233764908641
 30
0.0
 11
959.1000000000015
 21
49.93233764908879
 31
0.0
  0
LINE
  5
3A9
330
1F
100
AcDbEntity
  8
DP-350_0_15_大阪支店
  6
CONTINUOUS
 62
    54
100
AcDbLine
 10
956.0999999999991
 20
45.2352813742388
 30
0.0
 11
959.1000000000022
 21
48.23528137424194
 31
0.0
  0
LINE
  5
3AA
330
1F
100
AcDbEntity
  8
DP-350_0_15_大阪支店
  6
CONTINUOUS
 62
    54
100
AcDbLine
 10
954.6000000000004
 20
43.67497833620445
 30
0.0
 11
951.5999999999988
 21
46.6749783362059
 31
0.0
  0
LINE
  5
3AB
330
1F
100
AcDbEntity
  8
DP-350_0_15_大阪支店
  6
CONTINUOUS
 62
    54
100
AcDbLine
 10
954.6000000000004
 20
41.12939392393281
 30
0.0
 11
951.5999999999957
 21
44.12939392393744
 31
0.0
  0
LINE
  5
3AC
330
1F
100
AcDbEntity
  8
DP-350_0_15_大阪支店
  6
CONTINUOUS
 62
    54
100
AcDbLine
 10
956.0999999999991
 20
39.29558441227201
 30
0.0
 11
959.0999999999991
 21
42.29558441227192
 31
0.0
  0
LINE
  5
3AD
330
1F
100
AcDbEntity
  8
DP-350_0_15_大阪支店
  6
CONTINUOUS
 62
    54
100
AcDbLine
 10
956.0999999999991
 20
36.75000000000061
 30
0.0
 11
959.100000000002
 21
39.75000000000355
 31
0.0
  0
LINE
  5
3AE
330
1F
100
AcDbEntity
  8
DP-350_0_15_大阪支店
  6
CONTINUOUS
 62
    54
100
AcDbLine
 10
954.6000000000004
 20
36.03822509939006
 30
0.0
 11
951.5999999999974
 21
39.03822509939295
 31
0.0
  0
LINE
  5
3AF
330
1F
100
AcDbEntity
  8
DP-350_0_15_大阪支店
  6
CONTINUOUS
 62
    54
100
AcDbLine
 10
960.6329144495057
 20
55.19317415995039
 30
0.0
 11
963.1568258400468
 21
57.71708555049156
 31
0.0
  0
LINE
  5
3B0
330
1F
100
AcDbEntity
  8
DP-350_0_15_大阪支店
  6
CONTINUOUS
 62
    54
100
AcDbLine
 10
960.5999999999957
 20
54.31173157301663
 30
0.0
 11
964.0382684269767
 21
57.74999999999758
 31
0.0
  0
LINE
  5
3B1
330
1F
100
AcDbEntity
  8
DP-350_0_15_大阪支店
  6
CONTINUOUS
 62
    54
100
AcDbLine
 10
960.5999999999981
 20
53.4632034355952
 30
0.0
 11
964.8867965643984
 21
57.74999999999537
 31
0.0
  0
LINE
  5
3B2
330
1F
100
AcDbEntity
  8
DP-350_0_15_大阪支店
  6
CONTINUOUS
 62
    54
100
AcDbLine
 10
960.5999999999965
 20
52.61467529816977
 30
0.0
 11
965.6789339607316
 21
57.69360925890479
 31
0.0
  0
LINE
  5
3B3
330
1F
100
AcDbEntity
  8
DP-350_0_15_大阪支店
  6
CONTINUOUS
 62
    54
100
AcDbLine
 10
960.6000000000029
 20
51.76614716075218
 30
0.0
 11
966.3231695765218
 21
57.48931673727117
 31
0.0
  0
LINE
  5
3B4
330
1F
100
AcDbEntity
  8
DP-350_0_15_大阪支店
  6
CONTINUOUS
 62
    54
100
AcDbLine
 10
960.6000000000012
 20
50.91761902332675
 30
0.0
 11
963.5999999999991
 21
53.91761902332459
 31
0.0
  0
LINE
  5
3B5
330
1F
100
AcDbEntity
  8
DP-350_0_15_大阪支店
  6
CONTINUOUS
 62
    54
100
AcDbLine
 10
960.5999999999997
 20
50.0690908859014
 30
0.0
 11
963.5999999999991
 21
53.06909088590085
 31
0.0
  0
LINE
  5
3B6
330
1F
100
AcDbEntity
  8
DP-350_0_15_大阪支店
  6
CONTINUOUS
 62
    54
100
AcDbLine
 10
960.5999999999981
 20
49.22056274847597
 30
0.0
 11
963.5999999999991
 21
52.22056274847704
 31
0.0
  0
LINE
  5
3B7
330
1F
100
AcDbEntity
  8
DP-350_0_15_大阪支店
  6
CONTINUOUS
 62
    54
100
AcDbLine
 10
960.6000000000001
 20
48.37203461105446
 30
0.0
 11
963.5999999999991
 21
51.37203461105339
 31
0.0
  0
LINE
  5
3B8
330
1F
100
AcDbEntity
  8
DP-350_0_15_大阪支店
  6
CONTINUOUS
 62
    54
100
AcDbLine
 10
960.5999999999988
 20
47.52350647362903
 30
0.0
 11
963.5999999999991
 21
50.52350647362945
 31
0.0
  0
LINE
  5
3B9
330
1F
100
AcDbEntity
  8
DP-350_0_15_大阪支店
  6
CONTINUOUS
 62
    54
100
AcDbLine
 10
960.600000000001
 20
46.6749783362076
 30
0.0
 11
963.5999999999991
 21
49.67497833620573
 31
0.0
  0
LINE
  5
3BA
330
1F
100
AcDbEntity
  8
DP-350_0_15_大阪支店
  6
CONTINUOUS
 62
    54
100
AcDbLine
 10
960.6000000000032
 20
45.82645019878601
 30
0.0
 11
963.5999999999991
 21
48.82645019878183
 31
0.0
  0
LINE
  5
3BB
330
1F
100
AcDbEntity
  8
DP-350_0_15_大阪支店
  6
CONTINUOUS
 62
    54
100
AcDbLine
 10
960.5999999999977
 20
44.97792206135682
 30
0.0
 11
963.5999999999991
 21
47.97792206135816
 31
0.0
  0
LINE
  5
3BC
330
1F
100
AcDbEntity
  8
DP-350_0_15_大阪支店
  6
CONTINUOUS
 62
    54
100
AcDbLine
 10
960.6000000000001
 20
44.12939392393531
 30
0.0
 11
963.5999999999991
 21
47.12939392393424
 31
0.0
  0
LINE
  5
3BD
330
1F
100
AcDbEntity
  8
DP-350_0_15_大阪支店
  6
CONTINUOUS
 62
    54
100
AcDbLine
 10
960.5999999999985
 20
43.28086578650996
 30
0.0
 11
963.5999999999991
 21
46.28086578651049
 31
0.0
  0
LINE
  5
3BE
330
1F
100
AcDbEntity
  8
DP-350_0_15_大阪支店
  6
CONTINUOUS
 62
    54
100
AcDbLine
 10
960.6000000000008
 20
42.43233764908837
 30
0.0
 11
963.5999999999991
 21
45.43233764908666
 31
0.0
  0
LINE
  5
3BF
330
1F
100
AcDbEntity
  8
DP-350_0_15_大阪支店
  6
CONTINUOUS
 62
    54
100
AcDbLine
 10
960.6000000000032
 20
41.58380951166686
 30
0.0
 11
963.5999999999991
 21
44.58380951166285
 31
0.0
  0
LINE
  5
3C0
330
1F
100
AcDbEntity
  8
DP-350_0_15_大阪支店
  6
CONTINUOUS
 62
    54
100
AcDbLine
 10
960.5999999999977
 20
40.73528137423767
 30
0.0
 11
963.5999999999991
 21
43.73528137423897
 31
0.0
  0
LINE
  5
3C1
330
1F
100
AcDbEntity
  8
DP-350_0_15_大阪支店
  6
CONTINUOUS
 62
    54
100
AcDbLine
 10
960.6000000000001
 20
39.88675323681616
 30
0.0
 11
963.5999999999991
 21
42.88675323681515
 31
0.0
  0
LINE
  5
3C2
330
1F
100
AcDbEntity
  8
DP-350_0_15_大阪支店
  6
CONTINUOUS
 62
    54
100
AcDbLine
 10
960.5999999999984
 20
39.03822509939081
 30
0.0
 11
963.5999999999991
 21
42.03822509939147
 31
0.0
  0
LINE
  5
3C3
330
1F
100
AcDbEntity
  8
DP-350_0_15_大阪支店
  6
CONTINUOUS
 62
    54
100
AcDbLine
 10
960.6000000000008
 20
38.18969696196922
 30
0.0
 11
963.5999999999991
 21
41.18969696196757
 31
0.0
  0
LINE
  5
3C4
330
1F
100
AcDbEntity
  8
DP-350_0_15_大阪支店
  6
CONTINUOUS
 62
    54
100
AcDbLine
 10
960.5999999999954
 20
37.34116882454003
 30
0.0
 11
963.5999999999991
 21
40.34116882454383
 31
0.0
  0
LINE
  5
3C5
330
1F
100
AcDbEntity
  8
DP-350_0_15_大阪支店
  6
CONTINUOUS
 62
    54
100
AcDbLine
 10
960.5999999999977
 20
36.49264068711852
 30
0.0
 11
963.8573593128825
 21
39.75000000000342
 31
0.0
  0
LINE
  5
3C6
330
1F
100
AcDbEntity
  8
DP-350_0_15_大阪支店
  6
CONTINUOUS
 62
    54
100
AcDbLine
 10
960.5999999999999
 20
35.64411254969701
 30
0.0
 11
964.7058874503062
 21
39.75000000000342
 31
0.0
  0
LINE
  5
3C7
330
1F
100
AcDbEntity
  8
DP-350_0_15_大阪支店
  6
CONTINUOUS
 62
    54
100
AcDbLine
 10
960.5999999999984
 20
34.79558441227158
 30
0.0
 11
968.0999999999997
 21
42.29558441227286
 31
0.0
  0
LINE
  5
3C8
330
1F
100
AcDbEntity
  8
DP-350_0_15_大阪支店
  6
CONTINUOUS
 62
    54
100
AcDbLine
 10
960.6000000000006
 20
33.94705627485007
 30
0.0
 11
968.1000000000018
 21
41.44705627485135
 31
0.0
  0
LINE
  5
3C9
330
1F
100
AcDbEntity
  8
DP-350_0_15_大阪支店
  6
CONTINUOUS
 62
    54
100
AcDbLine
 10
960.5999999999951
 20
33.0985281374208
 30
0.0
 11
963.5999999999997
 21
36.09852813742523
 31
0.0
  0
LINE
  5
3CA
330
1F
100
AcDbEntity
  8
DP-350_0_15_大阪支店
  6
CONTINUOUS
 62
    54
100
AcDbLine
 10
964.2514718625768
 20
36.75000000000236
 30
0.0
 11
968.1000000000004
 21
40.59852813742592
 31
0.0
  0
LINE
  5
3CB
330
1F
100
AcDbEntity
  8
DP-350_0_15_大阪支店
  6
CONTINUOUS
 62
    54
100
AcDbLine
 10
960.5999999999937
 20
32.24999999999554
 30
0.0
 11
963.6000000000018
 21
35.25000000000372
 31
0.0
  0
LINE
  5
3CC
330
1F
100
AcDbEntity
  8
DP-350_0_15_大阪支店
  6
CONTINUOUS
 62
    54
100
AcDbLine
 10
965.0999999999984
 20
36.75000000000014
 30
0.0
 11
968.1000000000026
 21
39.75000000000449
 31
0.0
  0
LINE
  5
3CD
330
1F
100
AcDbEntity
  8
DP-350_0_15_大阪支店
  6
CONTINUOUS
 62
    54
100
AcDbLine
 10
961.4485281374191
 20
32.24999999999699
 30
0.0
 11
963.6000000000042
 21
34.40147186258213
 31
0.0
  0
LINE
  5
3CE
330
1F
100
AcDbEntity
  8
DP-350_0_15_大阪支店
  6
CONTINUOUS
 62
    54
100
AcDbLine
 10
965.1000000000005
 20
35.90147186257855
 30
0.0
 11
968.0999999999972
 21
38.90147186257522
 31
0.0
  0
LINE
  5
3CF
330
1F
100
AcDbEntity
  8
DP-350_0_15_大阪支店
  6
CONTINUOUS
 62
    54
100
AcDbLine
 10
962.2970562748444
 20
32.24999999999861
 30
0.0
 11
963.5999999999988
 21
33.55294372515294
 31
0.0
  0
LINE
  5
3D0
330
1F
100
AcDbEntity
  8
DP-350_0_15_大阪支店
  6
CONTINUOUS
 62
    54
100
AcDbLine
 10
965.1000000000029
 20
35.05294372515704
 30
0.0
 11
968.0999999999995
 21
38.05294372515371
 31
0.0
  0
LINE
  5
3D1
330
1F
100
AcDbEntity
  8
DP-350_0_15_大阪支店
  6
CONTINUOUS
 62
    54
100
AcDbLine
 10
963.1455844122659
 20
32.24999999999631
 30
0.0
 11
963.6000000000012
 21
32.70441558773143
 31
0.0
  0
LINE
  5
3D2
330
1F
100
AcDbEntity
  8
DP-350_0_15_大阪支店
  6
CONTINUOUS
 62
    54
100
AcDbLine
 10
965.1000000000013
 20
34.20441558773169
 30
0.0
 11
968.1000000000018
 21
37.2044155877322
 31
0.0
  0
LINE
  5
3D3
330
1F
100
AcDbEntity
  8
DP-350_0_15_大阪支店
  6
CONTINUOUS
 62
    54
100
AcDbLine
 10
965.1000000000035
 20
33.35588745031018
 30
0.0
 11
968.1000000000001
 21
36.35588745030685
 31
0.0
  0
LINE
  5
3D4
330
1F
100
AcDbEntity
  8
DP-350_0_15_大阪支店
  6
CONTINUOUS
 62
    54
100
AcDbLine
 10
965.1000000000059
 20
32.50735931288858
 30
0.0
 11
968.1000000000025
 21
35.50735931288526
 31
0.0
  0
LINE
  5
3D5
330
1F
100
AcDbEntity
  8
DP-350_0_15_大阪支店
  6
CONTINUOUS
 62
    54
100
AcDbLine
 10
965.6911688245381
 20
32.24999999999716
 30
0.0
 11
968.0999999999971
 21
34.65883117545607
 31
0.0
  0
LINE
  5
3D6
330
1F
100
AcDbEntity
  8
DP-350_0_15_大阪支店
  6
CONTINUOUS
 62
    54
100
AcDbLine
 10
966.5396969619674
 20
32.25000000000253
 30
0.0
 11
968.0999999999995
 21
33.81030303803448
 31
0.0
  0
LINE
  5
3D7
330
1F
100
AcDbEntity
  8
DP-350_0_15_大阪支店
  6
CONTINUOUS
 62
    54
100
AcDbLine
 10
967.3882250993889
 20
32.25000000000031
 30
0.0
 11
968.1000000000017
 21
32.96177490061305
 31
0.0
  0
LINE
  5
3D8
330
1F
100
AcDbEntity
  8
DP-350_0_15_大阪支店
  6
CONTINUOUS
 62
    54
100
AcDbLine
 10
961.4485281374243
 20
32.24999999999895
 30
0.0
 11
960.5999999999974
 21
33.09852813742592
 31
0.0
  0
LINE
  5
3D9
330
1F
100
AcDbEntity
  8
DP-350_0_15_大阪支店
  6
CONTINUOUS
 62
    54
100
AcDbLine
 10
962.2970562748459
 20
32.25000000000134
 30
0.0
 11
960.5999999999958
 21
33.94705627485135
 31
0.0
  0
LINE
  5
3DA
330
1F
100
AcDbEntity
  8
DP-350_0_15_大阪支店
  6
CONTINUOUS
 62
    54
100
AcDbLine
 10
963.1455844122713
 20
32.24999999999972
 30
0.0
 11
960.5999999999943
 21
34.7955844122767
 31
0.0
  0
LINE
  5
3DB
330
1F
100
AcDbEntity
  8
DP-350_0_15_大阪支店
  6
CONTINUOUS
 62
    54
100
AcDbLine
 10
963.600000000001
 20
32.64411254969386
 30
0.0
 11
960.5999999999967
 21
35.64411254969829
 31
0.0
  0
LINE
  5
3DC
330
1F
100
AcDbEntity
  8
DP-350_0_15_大阪支店
  6
CONTINUOUS
 62
    54
100
AcDbLine
 10
963.5999999999995
 20
33.49264068711921
 30
0.0
 11
960.599999999995
 21
36.49264068712355
 31
0.0
  0
LINE
  5
3DD
330
1F
100
AcDbEntity
  8
DP-350_0_15_大阪支店
  6
CONTINUOUS
 62
    54
100
AcDbLine
 10
965.6911688245398
 20
32.25000000000279
 30
0.0
 11
965.0999999999981
 21
32.84116882454438
 31
0.0
  0
LINE
  5
3DE
330
1F
100
AcDbEntity
  8
DP-350_0_15_大阪支店
  6
CONTINUOUS
 62
    54
100
AcDbLine
 10
963.6000000000017
 20
34.3411688245408
 30
0.0
 11
960.5999999999974
 21
37.34116882454515
 31
0.0
  0
LINE
  5
3DF
330
1F
100
AcDbEntity
  8
DP-350_0_15_大阪支店
  6
CONTINUOUS
 62
    54
100
AcDbLine
 10
966.5396969619611
 20
32.250000000005
 30
0.0
 11
965.0999999999964
 21
33.68969696196973
 31
0.0
  0
LINE
  5
3E0
330
1F
100
AcDbEntity
  8
DP-350_0_15_大阪支店
  6
CONTINUOUS
 62
    54
100
AcDbLine
 10
963.5999999999963
 20
35.18969696196999
 30
0.0
 11
960.5999999999957
 21
38.1896969619705
 31
0.0
  0
LINE
  5
3E1
330
1F
100
AcDbEntity
  8
DP-350_0_15_大阪支店
  6
CONTINUOUS
 62
    54
100
AcDbLine
 10
967.3882250993865
 20
32.25000000000347
 30
0.0
 11
965.099999999995
 21
34.53822509939516
 31
0.0
  0
LINE
  5
3E2
330
1F
100
AcDbEntity
  8
DP-350_0_15_大阪支店
  6
CONTINUOUS
 62
    54
100
AcDbLine
 10
963.5999999999985
 20
36.03822509939158
 30
0.0
 11
960.5999999999943
 21
39.03822509939593
 31
0.0
  0
LINE
  5
3E3
330
1F
100
AcDbEntity
  8
DP-350_0_15_大阪支店
  6
CONTINUOUS
 62
    54
100
AcDbLine
 10
968.099999999994
 20
32.38675323682
 30
0.0
 11
965.0999999999972
 21
35.38675323681659
 31
0.0
  0
LINE
  5
3E4
330
1F
100
AcDbEntity
  8
DP-350_0_15_大阪支店
  6
CONTINUOUS
 62
    54
100
AcDbLine
 10
963.736753236815
 20
36.74999999999878
 30
0.0
 11
960.5999999999964
 21
39.88675323681736
 31
0.0
  0
LINE
  5
3E5
330
1F
100
AcDbEntity
  8
DP-350_0_15_大阪支店
  6
CONTINUOUS
 62
    54
100
AcDbLine
 10
968.0999999999963
 20
33.23528137424151
 30
0.0
 11
965.0999999999995
 21
36.23528137423818
 31
0.0
  0
LINE
  5
3E6
330
1F
100
AcDbEntity
  8
DP-350_0_15_大阪支店
  6
CONTINUOUS
 62
    54
100
AcDbLine
 10
964.5852813742405
 20
36.74999999999724
 30
0.0
 11
960.5999999999988
 21
40.73528137423895
 31
0.0
  0
LINE
  5
3E7
330
1F
100
AcDbEntity
  8
DP-350_0_15_大阪支店
  6
CONTINUOUS
 62
    54
100
AcDbLine
 10
968.0999999999984
 20
34.08380951166302
 30
0.0
 11
960.5999999999971
 21
41.5838095116643
 31
0.0
  0
LINE
  5
3E8
330
1F
100
AcDbEntity
  8
DP-350_0_15_大阪支店
  6
CONTINUOUS
 62
    54
100
AcDbLine
 10
968.099999999997
 20
34.93233764908845
 30
0.0
 11
960.5999999999995
 21
42.43233764908581
 31
0.0
  0
LINE
  5
3E9
330
1F
100
AcDbEntity
  8
DP-350_0_15_大阪支店
  6
CONTINUOUS
 62
    54
100
AcDbLine
 10
968.0999999999954
 20
35.7808657865138
 30
0.0
 11
964.1308657865056
 21
39.75000000000342
 31
0.0
  0
LINE
  5
3EA
330
1F
100
AcDbEntity
  8
DP-350_0_15_大阪支店
  6
CONTINUOUS
 62
    54
100
AcDbLine
 10
968.0999999999938
 20
36.62939392393923
 30
0.0
 11
964.9793939239296
 21
39.75000000000342
 31
0.0
  0
LINE
  5
3EB
330
1F
100
AcDbEntity
  8
DP-350_0_15_大阪支店
  6
CONTINUOUS
 62
    54
100
AcDbLine
 10
968.099999999996
 20
37.47792206136066
 30
0.0
 11
965.0999999999997
 21
40.47792206135713
 31
0.0
  0
LINE
  5
3EC
330
1F
100
AcDbEntity
  8
DP-350_0_15_大阪支店
  6
CONTINUOUS
 62
    54
100
AcDbLine
 10
968.0999999999984
 20
38.32645019878225
 30
0.0
 11
965.0999999999997
 21
41.32645019878102
 31
0.0
  0
LINE
  5
3ED
330
1F
100
AcDbEntity
  8
DP-350_0_15_大阪支店
  6
CONTINUOUS
 62
    54
100
AcDbLine
 10
968.1000000000006
 20
39.17497833620368
 30
0.0
 11
965.0999999999997
 21
42.17497833620475
 31
0.0
  0
LINE
  5
3EE
330
1F
100
AcDbEntity
  8
DP-350_0_15_大阪支店
  6
CONTINUOUS
 62
    54
100
AcDbLine
 10
968.0999999999991
 20
40.02350647362911
 30
0.0
 11
965.0999999999997
 21
43.02350647362856
 31
0.0
  0
LINE
  5
3EF
330
1F
100
AcDbEntity
  8
DP-350_0_15_大阪支店
  6
CONTINUOUS
 62
    54
100
AcDbLine
 10
968.0999999999974
 20
40.87203461105446
 30
0.0
 11
965.0999999999997
 21
43.87203461105229
 31
0.0
  0
LINE
  5
3F0
330
1F
100
AcDbEntity
  8
DP-350_0_15_大阪支店
  6
CONTINUOUS
 62
    54
100
AcDbLine
 10
968.099999999996
 20
41.72056274847989
 30
0.0
 11
965.0999999999997
 21
44.72056274847631
 31
0.0
  0
LINE
  5
3F1
330
1F
100
AcDbEntity
  8
DP-350_0_15_大阪支店
  6
CONTINUOUS
 62
    54
100
AcDbLine
 10
968.0999999999983
 20
42.5690908859014
 30
0.0
 11
965.0999999999997
 21
45.56909088590004
 31
0.0
  0
LINE
  5
3F2
330
1F
100
AcDbEntity
  8
DP-350_0_15_大阪支店
  6
CONTINUOUS
 62
    54
100
AcDbLine
 10
968.0999999999967
 20
43.41761902332675
 30
0.0
 11
965.0999999999997
 21
46.41761902332381
 31
0.0
  0
LINE
  5
3F3
330
1F
100
AcDbEntity
  8
DP-350_0_15_大阪支店
  6
CONTINUOUS
 62
    54
100
AcDbLine
 10
968.099999999999
 20
44.26614716074826
 30
0.0
 11
965.0999999999997
 21
47.26614716074762
 31
0.0
  0
LINE
  5
3F4
330
1F
100
AcDbEntity
  8
DP-350_0_15_大阪支店
  6
CONTINUOUS
 62
    54
100
AcDbLine
 10
968.0999999999974
 20
45.11467529817361
 30
0.0
 11
965.0999999999997
 21
48.11467529817135
 31
0.0
  0
LINE
  5
3F5
330
1F
100
AcDbEntity
  8
DP-350_0_15_大阪支店
  6
CONTINUOUS
 62
    54
100
AcDbLine
 10
968.0999999999958
 20
45.96320343559904
 30
0.0
 11
965.0999999999997
 21
48.96320343559525
 31
0.0
  0
LINE
  5
3F6
330
1F
100
AcDbEntity
  8
DP-350_0_15_大阪支店
  6
CONTINUOUS
 62
    54
100
AcDbLine
 10
968.0999999999981
 20
46.81173157302047
 30
0.0
 11
965.0999999999997
 21
49.81173157301885
 31
0.0
  0
LINE
  5
3F7
330
1F
100
AcDbEntity
  8
DP-350_0_15_大阪支店
  6
CONTINUOUS
 62
    54
100
AcDbLine
 10
968.0999999999965
 20
47.6602597104459
 30
0.0
 11
965.0999999999997
 21
50.66025971044276
 31
0.0
  0
LINE
  5
3F8
330
1F
100
AcDbEntity
  8
DP-350_0_15_大阪支店
  6
CONTINUOUS
 62
    54
100
AcDbLine
 10
968.099999999995
 20
48.50878784787125
 30
0.0
 11
965.0999999999997
 21
51.50878784786664
 31
0.0
  0
LINE
  5
3F9
330
1F
100
AcDbEntity
  8
DP-350_0_15_大阪支店
  6
CONTINUOUS
 62
    54
100
AcDbLine
 10
968.0999999999974
 20
49.35731598529284
 30
0.0
 11
965.0999999999997
 21
52.35731598529055
 31
0.0
  0
LINE
  5
3FA
330
1F
100
AcDbEntity
  8
DP-350_0_15_大阪支店
  6
CONTINUOUS
 62
    54
100
AcDbLine
 10
968.0999999999995
 20
50.20584412271427
 30
0.0
 11
965.0999999999997
 21
53.20584412271415
 31
0.0
  0
LINE
  5
3FB
330
1F
100
AcDbEntity
  8
DP-350_0_15_大阪支店
  6
CONTINUOUS
 62
    54
100
AcDbLine
 10
968.0999999999981
 20
51.0543722601397
 30
0.0
 11
965.0978685229964
 21
54.05650373714147
 31
0.0
  0
LINE
  5
3FC
330
1F
100
AcDbEntity
  8
DP-350_0_15_大阪支店
  6
CONTINUOUS
 62
    54
100
AcDbLine
 10
968.0999999999964
 20
51.90290039756505
 30
0.0
 11
962.4727408885385
 21
57.53015950902287
 31
0.0
  0
LINE
  5
3FD
330
1F
100
AcDbEntity
  8
DP-350_0_15_大阪支店
  6
CONTINUOUS
 62
    54
100
AcDbLine
 10
968.0999999999949
 20
52.75142853499048
 30
0.0
 11
963.1373217785726
 21
57.71410675641275
 31
0.0
  0
LINE
  5
3FE
330
1F
100
AcDbEntity
  8
DP-350_0_15_大阪支店
  6
CONTINUOUS
 62
    54
100
AcDbLine
 10
968.0999999999971
 20
53.59995667241191
 30
0.0
 11
963.9499566724072
 21
57.75000000000176
 31
0.0
  0
LINE
  5
3FF
330
1F
100
AcDbEntity
  8
DP-350_0_15_大阪支店
  6
CONTINUOUS
 62
    54
100
AcDbLine
 10
968.0999999999995
 20
54.4484848098335
 30
0.0
 11
964.7984848098326
 21
57.75000000000023
 31
0.0
  0
LINE
  5
400
330
1F
100
AcDbEntity
  8
DP-350_0_15_大阪支店
  6
CONTINUOUS
 62
    54
100
AcDbLine
 10
968.0374114474146
 20
55.35960149984217
 30
0.0
 11
965.7096014998452
 21
57.68741144741145
 31
0.0
  0
LINE
  5
401
330
1F
100
AcDbEntity
  8
DP-350_0_15_大阪支店
  6
CONTINUOUS
 62
    54
100
AcDbLine
 10
964.418376618406
 20
54.73599564173165
 30
0.0
 11
966.8610821824192
 21
57.17870120574469
 31
0.0
  0
LINE
  5
402
330
1F
100
AcDbEntity
  8
DP-350_0_15_大阪支店
  6
CONTINUOUS
 62
    54
100
AcDbLine
 10
963.7980517332335
 20
54.50779238948033
 30
0.0
 11
961.4567166105289
 21
56.84912751218482
 31
0.0
  0
LINE
  5
403
330
1F
100
AcDbEntity
  8
DP-350_0_15_大阪支店
  6
CONTINUOUS
 62
    54
100
AcDbLine
 10
963.5999999999991
 20
53.85731598529107
 30
0.0
 11
961.0798260774563
 21
56.37748990783382
 31
0.0
  0
LINE
  5
404
330
1F
100
AcDbEntity
  8
DP-350_0_15_大阪支店
  6
CONTINUOUS
 62
    54
100
AcDbLine
 10
964.9630136188871
 20
54.43210450478864
 30
0.0
 11
967.309845500954
 21
56.77893638685569
 31
0.0
  0
LINE
  5
405
330
1F
100
AcDbEntity
  8
DP-350_0_15_大阪支店
  6
CONTINUOUS
 62
    54
100
AcDbLine
 10
964.418376618406
 20
54.73599564173166
 30
0.0
 11
961.9193404044377
 21
57.23503185570004
 31
0.0
  0
LINE
  5
406
330
1F
100
AcDbEntity
  8
DP-350_0_15_大阪支店
  6
CONTINUOUS
 62
    54
100
AcDbLine
 10
965.0999999999997
 20
53.72056274847756
 30
0.0
 11
967.672645917066
 21
56.29320866554397
 31
0.0
  0
LINE
  5
407
330
1F
100
AcDbEntity
  8
DP-350_0_15_大阪支店
  6
CONTINUOUS
 62
    54
100
AcDbLine
 10
963.5999999999991
 20
53.00878784786711
 30
0.0
 11
960.7949572978534
 21
55.81383055001268
 31
0.0
  0
LINE
  5
408
330
1F
100
AcDbEntity
  8
DP-350_0_15_大阪支店
  6
CONTINUOUS
 62
    54
100
AcDbLine
 10
963.5999999999991
 20
52.1602597104433
 30
0.0
 11
960.6248586544448
 21
55.13540105599759
 31
0.0
  0
LINE
  5
409
330
1F
100
AcDbEntity
  8
DP-350_0_15_大阪支店
  6
CONTINUOUS
 62
    54
100
AcDbLine
 10
963.5999999999991
 20
51.3117315730194
 30
0.0
 11
960.5999999999967
 21
54.31173157302175
 31
0.0
  0
LINE
  5
40A
330
1F
100
AcDbEntity
  8
DP-350_0_15_大阪支店
  6
CONTINUOUS
 62
    54
100
AcDbLine
 10
965.0999999999997
 20
52.87203461105391
 30
0.0
 11
967.9411686736829
 21
55.71320328473715
 31
0.0
  0
LINE
  5
40B
330
1F
100
AcDbEntity
  8
DP-350_0_15_大阪支店
  6
CONTINUOUS
 62
    54
100
AcDbLine
 10
965.0999999999997
 20
52.02350647362992
 30
0.0
 11
968.0885338955623
 21
55.01204036919259
 31
0.0
  0
LINE
  5
40C
330
1F
100
AcDbEntity
  8
DP-350_0_15_大阪支店
  6
CONTINUOUS
 62
    54
100
AcDbLine
 10
965.0999999999997
 20
51.17497833620628
 30
0.0
 11
968.1000000000022
 21
54.17497833620888
 31
0.0
  0
LINE
  5
40D
330
1F
100
AcDbEntity
  8
DP-350_0_15_大阪支店
  6
CONTINUOUS
 62
    54
100
AcDbLine
 10
965.0999999999997
 20
50.32645019878238
 30
0.0
 11
968.1000000000046
 21
53.32645019878728
 31
0.0
  0
LINE
  5
40E
330
1F
100
AcDbEntity
  8
DP-350_0_15_大阪支店
  6
CONTINUOUS
 62
    54
100
AcDbLine
 10
965.0999999999997
 20
49.4779220613587
 30
0.0
 11
968.1000000000029
 21
52.47792206136194
 31
0.0
  0
LINE
  5
40F
330
1F
100
AcDbEntity
  8
DP-350_0_15_大阪支店
  6
CONTINUOUS
 62
    54
100
AcDbLine
 10
965.0999999999997
 20
48.62939392393469
 30
0.0
 11
968.1000000000015
 21
51.6293939239365
 31
0.0
  0
LINE
  5
410
330
1F
100
AcDbEntity
  8
DP-350_0_15_大阪支店
  6
CONTINUOUS
 62
    54
100
AcDbLine
 10
965.0999999999997
 20
47.78086578651103
 30
0.0
 11
968.0999999999998
 21
50.78086578651124
 31
0.0
  0
LINE
  5
411
330
1F
100
AcDbEntity
  8
DP-350_0_15_大阪支店
  6
CONTINUOUS
 62
    54
100
AcDbLine
 10
965.0999999999997
 20
46.93233764908713
 30
0.0
 11
968.1000000000022
 21
49.93233764908965
 31
0.0
  0
LINE
  5
412
330
1F
100
AcDbEntity
  8
DP-350_0_15_大阪支店
  6
CONTINUOUS
 62
    54
100
AcDbLine
 10
965.0999999999997
 20
46.08380951166338
 30
0.0
 11
968.1000000000005
 21
49.0838095116643
 31
0.0
  0
LINE
  5
413
330
1F
100
AcDbEntity
  8
DP-350_0_15_大阪支店
  6
CONTINUOUS
 62
    54
100
AcDbLine
 10
965.0999999999997
 20
45.23528137423955
 30
0.0
 11
968.1000000000029
 21
48.23528137424279
 31
0.0
  0
LINE
  5
414
330
1F
100
AcDbEntity
  8
DP-350_0_15_大阪支店
  6
CONTINUOUS
 62
    54
100
AcDbLine
 10
965.0999999999997
 20
44.38675323681565
 30
0.0
 11
968.1000000000053
 21
47.38675323682128
 31
0.0
  0
LINE
  5
415
330
1F
100
AcDbEntity
  8
DP-350_0_15_大阪支店
  6
CONTINUOUS
 62
    54
100
AcDbLine
 10
965.0999999999997
 20
43.53822509939197
 30
0.0
 11
968.0999999999998
 21
46.53822509939209
 31
0.0
  0
LINE
  5
416
330
1F
100
AcDbEntity
  8
DP-350_0_15_大阪支店
  6
CONTINUOUS
 62
    54
100
AcDbLine
 10
965.0999999999997
 20
42.68969696196807
 30
0.0
 11
968.100000000002
 21
45.6896969619705
 31
0.0
  0
LINE
  5
417
330
1F
100
AcDbEntity
  8
DP-350_0_15_大阪支店
  6
CONTINUOUS
 62
    54
100
AcDbLine
 10
965.0999999999997
 20
41.8411688245443
 30
0.0
 11
968.1000000000005
 21
44.84116882454515
 31
0.0
  0
LINE
  5
418
330
1F
100
AcDbEntity
  8
DP-350_0_15_大阪支店
  6
CONTINUOUS
 62
    54
100
AcDbLine
 10
965.0999999999997
 20
40.9926406871204
 30
0.0
 11
968.1000000000029
 21
43.99264068712364
 31
0.0
  0
LINE
  5
419
330
1F
100
AcDbEntity
  8
DP-350_0_15_大阪支店
  6
CONTINUOUS
 62
    54
100
AcDbLine
 10
965.0999999999997
 20
40.14411254969667
 30
0.0
 11
968.1000000000051
 21
43.14411254970213
 31
0.0
  0
LINE
  5
41A
330
1F
100
AcDbEntity
  8
DP-350_0_15_大阪支店
  6
CONTINUOUS
 62
    54
100
AcDbLine
 10
963.5999999999991
 20
40.28086578651005
 30
0.0
 11
960.5999999999979
 21
43.28086578651116
 31
0.0
  0
LINE
  5
41B
330
1F
100
AcDbEntity
  8
DP-350_0_15_大阪支店
  6
CONTINUOUS
 62
    54
100
AcDbLine
 10
963.5999999999991
 20
41.12939392393388
 30
0.0
 11
960.5999999999964
 21
44.12939392393659
 31
0.0
  0
LINE
  5
41C
330
1F
100
AcDbEntity
  8
DP-350_0_15_大阪支店
  6
CONTINUOUS
 62
    54
100
AcDbLine
 10
963.5999999999991
 20
41.97792206135767
 30
0.0
 11
960.5999999999988
 21
44.9779220613581
 31
0.0
  0
LINE
  5
41D
330
1F
100
AcDbEntity
  8
DP-350_0_15_大阪支店
  6
CONTINUOUS
 62
    54
100
AcDbLine
 10
963.5999999999991
 20
42.8264501987815
 30
0.0
 11
960.600000000001
 21
45.82645019877961
 31
0.0
  0
LINE
  5
41E
330
1F
100
AcDbEntity
  8
DP-350_0_15_大阪支店
  6
CONTINUOUS
 62
    54
100
AcDbLine
 10
963.5999999999991
 20
43.67497833620526
 30
0.0
 11
960.5999999999995
 21
46.67497833620496
 31
0.0
  0
LINE
  5
41F
330
1F
100
AcDbEntity
  8
DP-350_0_15_大阪支店
  6
CONTINUOUS
 62
    54
100
AcDbLine
 10
963.5999999999991
 20
44.52350647362904
 30
0.0
 11
960.5999999999977
 21
47.52350647363039
 31
0.0
  0
LINE
  5
420
330
1F
100
AcDbEntity
  8
DP-350_0_15_大阪支店
  6
CONTINUOUS
 62
    54
100
AcDbLine
 10
963.5999999999991
 20
45.3720346110528
 30
0.0
 11
960.5999999999963
 21
48.37203461105574
 31
0.0
  0
LINE
  5
421
330
1F
100
AcDbEntity
  8
DP-350_0_15_大阪支店
  6
CONTINUOUS
 62
    54
100
AcDbLine
 10
963.5999999999991
 20
46.22056274847684
 30
0.0
 11
960.5999999999985
 21
49.22056274847733
 31
0.0
  0
LINE
  5
422
330
1F
100
AcDbEntity
  8
DP-350_0_15_大阪支店
  6
CONTINUOUS
 62
    54
100
AcDbLine
 10
963.5999999999991
 20
47.06909088590052
 30
0.0
 11
960.5999999999971
 21
50.0690908859026
 31
0.0
  0
LINE
  5
423
330
1F
100
AcDbEntity
  8
DP-350_0_15_大阪支店
  6
CONTINUOUS
 62
    54
100
AcDbLine
 10
963.5999999999991
 20
47.91761902332429
 30
0.0
 11
960.5999999999954
 21
50.91761902332803
 31
0.0
  0
LINE
  5
424
330
1F
100
AcDbEntity
  8
DP-350_0_15_大阪支店
  6
CONTINUOUS
 62
    54
100
AcDbLine
 10
963.5999999999991
 20
48.76614716074815
 30
0.0
 11
960.5999999999977
 21
51.76614716074954
 31
0.0
  0
LINE
  5
425
330
1F
100
AcDbEntity
  8
DP-350_0_15_大阪支店
  6
CONTINUOUS
 62
    54
100
AcDbLine
 10
963.5999999999991
 20
49.61467529817183
 30
0.0
 11
960.599999999996
 21
52.61467529817489
 31
0.0
  0
LINE
  5
426
330
1F
100
AcDbEntity
  8
DP-350_0_15_大阪支店
  6
CONTINUOUS
 62
    54
100
AcDbLine
 10
963.5999999999991
 20
50.46320343559576
 30
0.0
 11
960.5999999999984
 21
53.4632034355964
 31
0.0
  0
LINE
  5
427
330
1F
100
AcDbEntity
  8
DP-350_0_15_大阪支店
  6
CONTINUOUS
 62
    54
100
AcDbLine
 10
969.599999999999
 20
57.70584412271504
 30
0.0
 11
969.6441558772798
 21
57.74999999999596
 31
0.0
  0
LINE
  5
428
330
1F
100
AcDbEntity
  8
DP-350_0_15_大阪支店
  6
CONTINUOUS
 62
    54
100
AcDbLine
 10
969.5999999999974
 20
56.85731598528977
 30
0.0
 11
970.492684014709
 21
57.75000000000142
 31
0.0
  0
LINE
  5
429
330
1F
100
AcDbEntity
  8
DP-350_0_15_大阪支店
  6
CONTINUOUS
 62
    54
100
AcDbLine
 10
969.5999999999998
 20
56.00878784786818
 30
0.0
 11
971.3412121521307
 21
57.74999999999912
 31
0.0
  0
LINE
  5
42A
330
1F
100
AcDbEntity
  8
DP-350_0_15_大阪支店
  6
CONTINUOUS
 62
    54
100
AcDbLine
 10
969.5999999999981
 20
55.16025971044283
 30
0.0
 11
972.1897402895559
 21
57.75000000000065
 31
0.0
  0
LINE
  5
42B
330
1F
100
AcDbEntity
  8
DP-350_0_15_大阪支店
  6
CONTINUOUS
 62
    54
100
AcDbLine
 10
969.5999999999965
 20
54.3117315730174
 30
0.0
 11
972.6000000000008
 21
57.31173157302175
 31
0.0
  0
LINE
  5
42C
330
1F
100
AcDbEntity
  8
DP-350_0_15_大阪支店
  6
CONTINUOUS
 62
    54
100
AcDbLine
 10
969.5999999999988
 20
53.46320343559597
 30
0.0
 11
972.5999999999954
 21
56.46320343559256
 31
0.0
  0
LINE
  5
42D
330
1F
100
AcDbEntity
  8
DP-350_0_15_大阪支店
  6
CONTINUOUS
 62
    54
100
AcDbLine
 10
969.6000000000012
 20
52.61467529817438
 30
0.0
 11
972.5999999999977
 21
55.61467529817105
 31
0.0
  0
LINE
  5
42E
330
1F
100
AcDbEntity
  8
DP-350_0_15_大阪支店
  6
CONTINUOUS
 62
    54
100
AcDbLine
 10
969.5999999999995
 20
51.76614716074903
 30
0.0
 11
972.6000000000001
 21
54.76614716074954
 31
0.0
  0
LINE
  5
42F
330
1F
100
AcDbEntity
  8
DP-350_0_15_大阪支店
  6
CONTINUOUS
 62
    54
100
AcDbLine
 10
969.5999999999942
 20
50.91761902331984
 30
0.0
 11
972.5999999999984
 21
53.91761902332419
 31
0.0
  0
LINE
  5
430
330
1F
100
AcDbEntity
  8
DP-350_0_15_大阪支店
  6
CONTINUOUS
 62
    54
100
AcDbLine
 10
969.5999999999964
 20
50.06909088589825
 30
0.0
 11
972.6000000000008
 21
53.06909088590268
 31
0.0
  0
LINE
  5
431
330
1F
100
AcDbEntity
  8
DP-350_0_15_大阪支店
  6
CONTINUOUS
 62
    54
100
AcDbLine
 10
969.5999999999988
 20
49.22056274847682
 30
0.0
 11
972.5999999999954
 21
52.2205627484735
 31
0.0
  0
LINE
  5
432
330
1F
100
AcDbEntity
  8
DP-350_0_15_大阪支店
  6
CONTINUOUS
 62
    54
100
AcDbLine
 10
969.5999999999971
 20
48.37203461105139
 30
0.0
 11
972.5999999999977
 21
51.3720346110519
 31
0.0
  0
LINE
  5
433
330
1F
100
AcDbEntity
  8
DP-350_0_15_大阪支店
  6
CONTINUOUS
 62
    54
100
AcDbLine
 10
969.5999999999995
 20
47.52350647362988
 30
0.0
 11
972.5999999999999
 21
50.52350647363039
 31
0.0
  0
LINE
  5
434
330
1F
100
AcDbEntity
  8
DP-350_0_15_大阪支店
  6
CONTINUOUS
 62
    54
100
AcDbLine
 10
969.6000000000018
 20
46.67497833620837
 30
0.0
 11
972.5999999999984
 21
49.67497833620496
 31
0.0
  0
LINE
  5
435
330
1F
100
AcDbEntity
  8
DP-350_0_15_大阪支店
  6
CONTINUOUS
 62
    54
100
AcDbLine
 10
969.5999999999964
 20
45.82645019877918
 30
0.0
 11
972.6000000000008
 21
48.82645019878353
 31
0.0
  0
LINE
  5
436
330
1F
100
AcDbEntity
  8
DP-350_0_15_大阪支店
  6
CONTINUOUS
 62
    54
100
AcDbLine
 10
969.5999999999985
 20
44.97792206135759
 30
0.0
 11
972.6000000000029
 21
47.97792206136194
 31
0.0
  0
LINE
  5
437
330
1F
100
AcDbEntity
  8
DP-350_0_15_大阪支店
  6
CONTINUOUS
 62
    54
100
AcDbLine
 10
969.5999999999971
 20
44.12939392393224
 30
0.0
 11
972.5999999999976
 21
47.12939392393275
 31
0.0
  0
LINE
  5
438
330
1F
100
AcDbEntity
  8
DP-350_0_15_大阪支店
  6
CONTINUOUS
 62
    54
100
AcDbLine
 10
969.5999999999995
 20
43.28086578651073
 30
0.0
 11
972.599999999996
 21
46.28086578650732
 31
0.0
  0
LINE
  5
439
330
1F
100
AcDbEntity
  8
DP-350_0_15_大阪支店
  6
CONTINUOUS
 62
    54
100
AcDbLine
 10
969.6000000000017
 20
42.43233764908922
 30
0.0
 11
972.5999999999984
 21
45.43233764908589
 31
0.0
  0
LINE
  5
43A
330
1F
100
AcDbEntity
  8
DP-350_0_15_大阪支店
  6
CONTINUOUS
 62
    54
100
AcDbLine
 10
969.5999999999963
 20
41.58380951165995
 30
0.0
 11
972.6000000000005
 21
44.5838095116643
 31
0.0
  0
LINE
  5
43B
330
1F
100
AcDbEntity
  8
DP-350_0_15_大阪支店
  6
CONTINUOUS
 62
    54
100
AcDbLine
 10
969.5999999999984
 20
40.73528137423844
 30
0.0
 11
972.599999999995
 21
43.73528137423511
 31
0.0
  0
LINE
  5
43C
330
1F
100
AcDbEntity
  8
DP-350_0_15_大阪支店
  6
CONTINUOUS
 62
    54
100
AcDbLine
 10
969.599999999997
 20
39.88675323681301
 30
0.0
 11
972.5999999999974
 21
42.88675323681352
 31
0.0
  0
LINE
  5
43D
330
1F
100
AcDbEntity
  8
DP-350_0_15_大阪支店
  6
CONTINUOUS
 62
    54
100
AcDbLine
 10
969.5999999999991
 20
39.03822509939158
 30
0.0
 11
972.5999999999998
 21
42.03822509939209
 31
0.0
  0
LINE
  5
43E
330
1F
100
AcDbEntity
  8
DP-350_0_15_大阪支店
  6
CONTINUOUS
 62
    54
100
AcDbLine
 10
969.6000000000015
 20
38.18969696196999
 30
0.0
 11
972.5999999999981
 21
41.18969696196666
 31
0.0
  0
LINE
  5
43F
330
1F
100
AcDbEntity
  8
DP-350_0_15_大阪支店
  6
CONTINUOUS
 62
    54
100
AcDbLine
 10
969.599999999996
 20
37.3411688245408
 30
0.0
 11
972.6000000000005
 21
40.34116882454515
 31
0.0
  0
LINE
  5
440
330
1F
100
AcDbEntity
  8
DP-350_0_15_大阪支店
  6
CONTINUOUS
 62
    54
100
AcDbLine
 10
969.5999999999984
 20
36.49264068711921
 30
0.0
 11
972.6000000000029
 21
39.49264068712364
 31
0.0
  0
LINE
  5
441
330
1F
100
AcDbEntity
  8
DP-350_0_15_大阪支店
  6
CONTINUOUS
 62
    54
100
AcDbLine
 10
969.5999999999967
 20
35.64411254969394
 30
0.0
 11
972.5999999999974
 21
38.64411254969446
 31
0.0
  0
LINE
  5
442
330
1F
100
AcDbEntity
  8
DP-350_0_15_大阪支店
  6
CONTINUOUS
 62
    54
100
AcDbLine
 10
969.5999999999991
 20
34.79558441227235
 30
0.0
 11
972.5999999999957
 21
37.79558441226902
 31
0.0
  0
LINE
  5
443
330
1F
100
AcDbEntity
  8
DP-350_0_15_大阪支店
  6
CONTINUOUS
 62
    54
100
AcDbLine
 10
969.6000000000013
 20
33.94705627485084
 30
0.0
 11
972.5999999999981
 21
36.94705627484751
 31
0.0
  0
LINE
  5
444
330
1F
100
AcDbEntity
  8
DP-350_0_15_大阪支店
  6
CONTINUOUS
 62
    54
100
AcDbLine
 10
969.599999999996
 20
33.09852813742157
 30
0.0
 11
972.6000000000004
 21
36.09852813742592
 31
0.0
  0
LINE
  5
445
330
1F
100
AcDbEntity
  8
DP-350_0_15_大阪支店
  6
CONTINUOUS
 62
    54
100
AcDbLine
 10
969.5999999999983
 20
32.25000000000014
 30
0.0
 11
972.5999999999988
 21
35.25000000000065
 31
0.0
  0
LINE
  5
446
330
1F
100
AcDbEntity
  8
DP-350_0_15_大阪支店
  6
CONTINUOUS
 62
    54
100
AcDbLine
 10
970.4485281374198
 20
32.24999999999784
 30
0.0
 11
972.5999999999972
 21
34.40147186257531
 31
0.0
  0
LINE
  5
447
330
1F
100
AcDbEntity
  8
DP-350_0_15_大阪支店
  6
CONTINUOUS
 62
    54
100
AcDbLine
 10
971.2970562748452
 20
32.24999999999937
 30
0.0
 11
972.5999999999995
 21
33.55294372515371
 31
0.0
  0
LINE
  5
448
330
1F
100
AcDbEntity
  8
DP-350_0_15_大阪支店
  6
CONTINUOUS
 62
    54
100
AcDbLine
 10
972.1455844122706
 20
32.25000000000099
 30
0.0
 11
972.5999999999979
 21
32.70441558772836
 31
0.0
  0
LINE
  5
449
330
1F
100
AcDbEntity
  8
DP-350_0_15_大阪支店
  6
CONTINUOUS
 62
    54
100
AcDbLine
 10
970.4485281374252
 20
32.24999999999827
 30
0.0
 11
969.600000000002
 21
33.09852813742131
 31
0.0
  0
LINE
  5
44A
330
1F
100
AcDbEntity
  8
DP-350_0_15_大阪支店
  6
CONTINUOUS
 62
    54
100
AcDbLine
 10
971.2970562748466
 20
32.25000000000057
 30
0.0
 11
969.6000000000045
 21
33.94705627484291
 31
0.0
  0
LINE
  5
44B
330
1F
100
AcDbEntity
  8
DP-350_0_15_大阪支店
  6
CONTINUOUS
 62
    54
100
AcDbLine
 10
972.145584412272
 20
32.24999999999895
 30
0.0
 11
969.599999999999
 21
34.79558441227209
 31
0.0
  0
LINE
  5
44C
330
1F
100
AcDbEntity
  8
DP-350_0_15_大阪支店
  6
CONTINUOUS
 62
    54
100
AcDbLine
 10
972.6000000000018
 20
32.64411254969309
 30
0.0
 11
969.6000000000012
 21
35.6441125496936
 31
0.0
  0
LINE
  5
44D
330
1F
100
AcDbEntity
  8
DP-350_0_15_大阪支店
  6
CONTINUOUS
 62
    54
100
AcDbLine
 10
972.6000000000001
 20
33.49264068711844
 30
0.0
 11
969.6000000000035
 21
36.49264068711511
 31
0.0
  0
LINE
  5
44E
330
1F
100
AcDbEntity
  8
DP-350_0_15_大阪支店
  6
CONTINUOUS
 62
    54
100
AcDbLine
 10
972.6000000000025
 20
34.34116882454003
 30
0.0
 11
969.6000000000018
 21
37.34116882454055
 31
0.0
  0
LINE
  5
44F
330
1F
100
AcDbEntity
  8
DP-350_0_15_大阪支店
  6
CONTINUOUS
 62
    54
100
AcDbLine
 10
972.6000000000008
 20
35.18969696196538
 30
0.0
 11
969.6000000000005
 21
38.18969696196589
 31
0.0
  0
LINE
  5
450
330
1F
100
AcDbEntity
  8
DP-350_0_15_大阪支店
  6
CONTINUOUS
 62
    54
100
AcDbLine
 10
972.6000000000032
 20
36.03822509938689
 30
0.0
 11
969.6000000000026
 21
39.0382250993874
 31
0.0
  0
LINE
  5
451
330
1F
100
AcDbEntity
  8
DP-350_0_15_大阪支店
  6
CONTINUOUS
 62
    54
100
AcDbLine
 10
972.6000000000015
 20
36.88675323681224
 30
0.0
 11
969.6000000000012
 21
39.88675323681275
 31
0.0
  0
LINE
  5
452
330
1F
100
AcDbEntity
  8
DP-350_0_15_大阪支店
  6
CONTINUOUS
 62
    54
100
AcDbLine
 10
972.6000000000039
 20
37.73528137423384
 30
0.0
 11
969.6000000000032
 21
40.73528137423435
 31
0.0
  0
LINE
  5
453
330
1F
100
AcDbEntity
  8
DP-350_0_15_大阪支店
  6
CONTINUOUS
 62
    54
100
AcDbLine
 10
972.6000000000024
 20
38.58380951165918
 30
0.0
 11
969.5999999999979
 21
41.58380951166353
 31
0.0
  0
LINE
  5
454
330
1F
100
AcDbEntity
  8
DP-350_0_15_大阪支店
  6
CONTINUOUS
 62
    54
100
AcDbLine
 10
972.6000000000008
 20
39.43233764908453
 30
0.0
 11
969.6000000000001
 21
42.43233764908496
 31
0.0
  0
LINE
  5
455
330
1F
100
AcDbEntity
  8
DP-350_0_15_大阪支店
  6
CONTINUOUS
 62
    54
100
AcDbLine
 10
972.5999999999991
 20
40.28086578650988
 30
0.0
 11
969.6000000000025
 21
43.28086578650655
 31
0.0
  0
LINE
  5
456
330
1F
100
AcDbEntity
  8
DP-350_0_15_大阪支店
  6
CONTINUOUS
 62
    54
100
AcDbLine
 10
972.6000000000015
 20
41.12939392393139
 30
0.0
 11
969.6000000000008
 21
44.1293939239319
 31
0.0
  0
LINE
  5
457
330
1F
100
AcDbEntity
  8
DP-350_0_15_大阪支店
  6
CONTINUOUS
 62
    54
100
AcDbLine
 10
972.6000000000039
 20
41.97792206135298
 30
0.0
 11
969.6000000000032
 21
44.9779220613535
 31
0.0
  0
LINE
  5
458
330
1F
100
AcDbEntity
  8
DP-350_0_15_大阪支店
  6
CONTINUOUS
 62
    54
100
AcDbLine
 10
972.6000000000022
 20
42.82645019877825
 30
0.0
 11
969.6000000000017
 21
45.82645019877876
 31
0.0
  0
LINE
  5
459
330
1F
100
AcDbEntity
  8
DP-350_0_15_大阪支店
  6
CONTINUOUS
 62
    54
100
AcDbLine
 10
972.6000000000006
 20
43.67497833620368
 30
0.0
 11
969.6000000000001
 21
46.67497833620419
 31
0.0
  0
LINE
  5
45A
330
1F
100
AcDbEntity
  8
DP-350_0_15_大阪支店
  6
CONTINUOUS
 62
    54
100
AcDbLine
 10
972.6000000000029
 20
44.52350647362519
 30
0.0
 11
969.6000000000024
 21
47.5235064736257
 31
0.0
  0
LINE
  5
45B
330
1F
100
AcDbEntity
  8
DP-350_0_15_大阪支店
  6
CONTINUOUS
 62
    54
100
AcDbLine
 10
972.6000000000013
 20
45.37203461105062
 30
0.0
 11
969.6000000000008
 21
48.37203461105113
 31
0.0
  0
LINE
  5
45C
330
1F
100
AcDbEntity
  8
DP-350_0_15_大阪支店
  6
CONTINUOUS
 62
    54
100
AcDbLine
 10
972.5999999999998
 20
46.22056274847597
 30
0.0
 11
969.5999999999992
 21
49.22056274847648
 31
0.0
  0
LINE
  5
45D
330
1F
100
AcDbEntity
  8
DP-350_0_15_大阪支店
  6
CONTINUOUS
 62
    54
100
AcDbLine
 10
972.6000000000022
 20
47.06909088589748
 30
0.0
 11
969.6000000000015
 21
50.06909088589799
 31
0.0
  0
LINE
  5
45E
330
1F
100
AcDbEntity
  8
DP-350_0_15_大阪支店
  6
CONTINUOUS
 62
    54
100
AcDbLine
 10
972.6000000000005
 20
47.91761902332283
 30
0.0
 11
969.5999999999999
 21
50.91761902332334
 31
0.0
  0
LINE
  5
45F
330
1F
100
AcDbEntity
  8
DP-350_0_15_大阪支店
  6
CONTINUOUS
 62
    54
100
AcDbLine
 10
972.6000000000029
 20
48.76614716074442
 30
0.0
 11
969.6000000000024
 21
51.76614716074494
 31
0.0
  0
LINE
  5
460
330
1F
100
AcDbEntity
  8
DP-350_0_15_大阪支店
  6
CONTINUOUS
 62
    54
100
AcDbLine
 10
972.6000000000012
 20
49.61467529816977
 30
0.0
 11
969.6000000000008
 21
52.61467529817028
 31
0.0
  0
LINE
  5
461
330
1F
100
AcDbEntity
  8
DP-350_0_15_大阪支店
  6
CONTINUOUS
 62
    54
100
AcDbLine
 10
972.6000000000035
 20
50.46320343559128
 30
0.0
 11
969.6000000000031
 21
53.46320343559179
 31
0.0
  0
LINE
  5
462
330
1F
100
AcDbEntity
  8
DP-350_0_15_大阪支店
  6
CONTINUOUS
 62
    54
100
AcDbLine
 10
972.6000000000018
 20
51.31173157301663
 30
0.0
 11
969.6000000000015
 21
54.31173157301714
 31
0.0
  0
LINE
  5
463
330
1F
100
AcDbEntity
  8
DP-350_0_15_大阪支店
  6
CONTINUOUS
 62
    54
100
AcDbLine
 10
972.6000000000005
 20
52.16025971044206
 30
0.0
 11
969.5999999999998
 21
55.16025971044257
 31
0.0
  0
LINE
  5
464
330
1F
100
AcDbEntity
  8
DP-350_0_15_大阪支店
  6
CONTINUOUS
 62
    54
100
AcDbLine
 10
972.6000000000026
 20
53.00878784786357
 30
0.0
 11
969.6000000000022
 21
56.008787847864
 31
0.0
  0
LINE
  5
465
330
1F
100
AcDbEntity
  8
DP-350_0_15_大阪支店
  6
CONTINUOUS
 62
    54
100
AcDbLine
 10
972.6000000000012
 20
53.85731598528892
 30
0.0
 11
969.6000000000006
 21
56.85731598528943
 31
0.0
  0
LINE
  5
466
330
1F
100
AcDbEntity
  8
DP-350_0_15_大阪支店
  6
CONTINUOUS
 62
    54
100
AcDbLine
 10
972.5999999999995
 20
54.70584412271427
 30
0.0
 11
969.5999999999991
 21
57.70584412271478
 31
0.0
  0
LINE
  5
467
330
1F
100
AcDbEntity
  8
DP-350_0_15_大阪支店
  6
CONTINUOUS
 62
    54
100
AcDbLine
 10
972.6000000000018
 20
55.55437226013586
 30
0.0
 11
970.4043722601359
 21
57.75000000000185
 31
0.0
  0
LINE
  5
468
330
1F
100
AcDbEntity
  8
DP-350_0_15_大阪支店
  6
CONTINUOUS
 62
    54
100
AcDbLine
 10
972.6000000000004
 20
56.40290039756121
 30
0.0
 11
971.2529003975574
 21
57.75000000000415
 31
0.0
  0
LINE
  5
469
330
1F
100
AcDbEntity
  8
DP-350_0_15_大阪支店
  6
CONTINUOUS
 62
    54
100
AcDbLine
 10
972.6000000000025
 20
57.25142853498264
 30
0.0
 11
972.1014285349827
 21
57.75000000000253
 31
0.0
  0
LINE
  5
46A
330
1F
100
AcDbEntity
  8
DP-350_0_15_大阪支店
  6
CONTINUOUS
 62
    54
100
AcDbLine
 10
974.0999999999998
 20
56.9014718625765
 30
0.0
 11
974.948528137423
 21
57.74999999999963
 31
0.0
  0
LINE
  5
46B
330
1F
100
AcDbEntity
  8
DP-350_0_15_大阪支店
  6
CONTINUOUS
 62
    54
100
AcDbLine
 10
974.0999999999943
 20
56.05294372514732
 30
0.0
 11
975.7970562748483
 21
57.75000000000125
 31
0.0
  0
LINE
  5
46C
330
1F
100
AcDbEntity
  8
DP-350_0_15_大阪支店
  6
CONTINUOUS
 62
    54
100
AcDbLine
 10
974.0999999999967
 20
55.2044155877258
 30
0.0
 11
976.64558441227
 21
57.74999999999886
 31
0.0
  0
LINE
  5
46D
330
1F
100
AcDbEntity
  8
DP-350_0_15_大阪支店
  6
CONTINUOUS
 62
    54
100
AcDbLine
 10
974.0999999999991
 20
54.35588745030429
 30
0.0
 11
977.0999999999995
 21
57.35588745030481
 31
0.0
  0
LINE
  5
46E
330
1F
100
AcDbEntity
  8
DP-350_0_15_大阪支店
  6
CONTINUOUS
 62
    54
100
AcDbLine
 10
974.1000000000015
 20
53.50735931288278
 30
0.0
 11
977.1000000000018
 21
56.50735931288321
 31
0.0
  0
LINE
  5
46F
330
1F
100
AcDbEntity
  8
DP-350_0_15_大阪支店
  6
CONTINUOUS
 62
    54
100
AcDbLine
 10
974.0999999999998
 20
52.65883117545744
 30
0.0
 11
977.1000000000042
 21
55.65883117546178
 31
0.0
  0
LINE
  5
470
330
1F
100
AcDbEntity
  8
DP-350_0_15_大阪支店
  6
CONTINUOUS
 62
    54
100
AcDbLine
 10
978.6000000000045
 20
57.15883117546204
 30
0.0
 11
979.1911688245459
 21
57.75000000000364
 31
0.0
  0
LINE
  5
471
330
1F
100
AcDbEntity
  8
DP-350_0_15_大阪支店
  6
CONTINUOUS
 62
    54
100
AcDbLine
 10
974.0999999999983
 20
51.810303038032
 30
0.0
 11
977.1000000000025
 21
54.81030303803635
 31
0.0
  0
LINE
  5
472
330
1F
100
AcDbEntity
  8
DP-350_0_15_大阪支店
  6
CONTINUOUS
 62
    54
100
AcDbLine
 10
978.6000000000066
 20
56.31030303804044
 30
0.0
 11
980.0396969619676
 21
57.75000000000134
 31
0.0
  0
LINE
  5
473
330
1F
100
AcDbEntity
  8
DP-350_0_15_大阪支店
  6
CONTINUOUS
 62
    54
100
AcDbLine
 10
974.0999999999967
 20
50.96177490060666
 30
0.0
 11
977.1000000000049
 21
53.96177490061484
 31
0.0
  0
LINE
  5
474
330
1F
100
AcDbEntity
  8
DP-350_0_15_大阪支店
  6
CONTINUOUS
 62
    54
100
AcDbLine
 10
978.6000000000012
 20
55.46177490061126
 30
0.0
 11
980.8882250993889
 21
57.74999999999903
 31
0.0
  0
LINE
  5
475
330
1F
100
AcDbEntity
  8
DP-350_0_15_大阪支店
  6
CONTINUOUS
 62
    54
100
AcDbLine
 10
974.099999999999
 20
50.11324676318515
 30
0.0
 11
977.0999999999995
 21
53.11324676318566
 31
0.0
  0
LINE
  5
476
330
1F
100
AcDbEntity
  8
DP-350_0_15_大阪支店
  6
CONTINUOUS
 62
    54
100
AcDbLine
 10
978.6000000000035
 20
54.61324676318984
 30
0.0
 11
981.6000000000001
 21
57.61324676318642
 31
0.0
  0
LINE
  5
477
330
1F
100
AcDbEntity
  8
DP-350_0_15_大阪支店
  6
CONTINUOUS
 62
    54
100
AcDbLine
 10
974.1000000000012
 20
49.26471862576363
 30
0.0
 11
977.1000000000018
 21
52.26471862576415
 31
0.0
  0
LINE
  5
478
330
1F
100
AcDbEntity
  8
DP-350_0_15_大阪支店
  6
CONTINUOUS
 62
    54
100
AcDbLine
 10
978.600000000002
 20
53.7647186257644
 30
0.0
 11
981.5999999999985
 21
56.76471862576099
 31
0.0
  0
LINE
  5
479
330
1F
100
AcDbEntity
  8
DP-350_0_15_大阪支店
  6
CONTINUOUS
 62
    54
100
AcDbLine
 10
974.0999999999998
 20
48.41619048833829
 30
0.0
 11
977.1000000000001
 21
51.4161904883388
 31
0.0
  0
LINE
  5
47A
330
1F
100
AcDbEntity
  8
DP-350_0_15_大阪支店
  6
CONTINUOUS
 62
    54
100
AcDbLine
 10
978.6000000000042
 20
52.91619048834289
 30
0.0
 11
981.600000000001
 21
55.91619048833957
 31
0.0
  0
LINE
  5
47B
330
1F
100
AcDbEntity
  8
DP-350_0_15_大阪支店
  6
CONTINUOUS
 62
    54
100
AcDbLine
 10
983.1000000000012
 20
57.41619048833982
 30
0.0
 11
983.4338095116615
 21
57.74999999999997
 31
0.0
  0
LINE
  5
47C
330
1F
100
AcDbEntity
  8
DP-350_0_15_大阪支店
  6
CONTINUOUS
 62
    54
100
AcDbLine
 10
974.1000000000018
 20
47.56766235091669
 30
0.0
 11
977.1000000000025
 21
50.5676623509172
 31
0.0
  0
LINE
  5
47D
330
1F
100
AcDbEntity
  8
DP-350_0_15_大阪支店
  6
CONTINUOUS
 62
    54
100
AcDbLine
 10
978.5999999999988
 20
52.06766235091362
 30
0.0
 11
981.5999999999995
 21
55.06766235091413
 31
0.0
  0
LINE
  5
47E
330
1F
100
AcDbEntity
  8
DP-350_0_15_大阪支店
  6
CONTINUOUS
 62
    54
100
AcDbLine
 10
983.0999999999957
 20
56.56766235091055
 30
0.0
 11
984.2823376490828
 21
57.74999999999758
 31
0.0
  0
LINE
  5
47F
330
1F
100
AcDbEntity
  8
DP-350_0_15_大阪支店
  6
CONTINUOUS
 62
    54
100
AcDbLine
 10
974.0999999999965
 20
46.71913421348751
 30
0.0
 11
977.1000000000049
 21
49.71913421349578
 31
0.0
  0
LINE
  5
480
330
1F
100
AcDbEntity
  8
DP-350_0_15_大阪支店
  6
CONTINUOUS
 62
    54
100
AcDbLine
 10
978.6000000000012
 20
51.21913421349211
 30
0.0
 11
981.6000000000017
 21
54.21913421349262
 31
0.0
  0
LINE
  5
481
330
1F
100
AcDbEntity
  8
DP-350_0_15_大阪支店
  6
CONTINUOUS
 62
    54
100
AcDbLine
 10
983.1000000000018
 20
55.71913421349288
 30
0.0
 11
985.1308657865083
 21
57.7499999999992
 31
0.0
  0
LINE
  5
482
330
1F
100
AcDbEntity
  8
DP-350_0_15_大阪支店
  6
CONTINUOUS
 62
    54
100
AcDbLine
 10
974.0999999999988
 20
45.870606076066
 30
0.0
 11
977.100000000007
 21
48.87060607607418
 31
0.0
  0
LINE
  5
483
330
1F
100
AcDbEntity
  8
DP-350_0_15_大阪支店
  6
CONTINUOUS
 62
    54
100
AcDbLine
 10
978.6000000000035
 20
50.3706060760706
 30
0.0
 11
981.6000000000001
 21
53.37060607606719
 31
0.0
  0
LINE
  5
484
330
1F
100
AcDbEntity
  8
DP-350_0_15_大阪支店
  6
CONTINUOUS
 62
    54
100
AcDbLine
 10
983.1000000000004
 20
54.87060607606745
 30
0.0
 11
985.9793939239298
 21
57.7499999999969
 31
0.0
  0
LINE
  5
485
330
1F
100
AcDbEntity
  8
DP-350_0_15_大阪支店
  6
CONTINUOUS
 62
    54
100
AcDbLine
 10
974.0999999999974
 20
45.02207793864065
 30
0.0
 11
977.1000000000017
 21
48.022077938645
 31
0.0
  0
LINE
  5
486
330
1F
100
AcDbEntity
  8
DP-350_0_15_大阪支店
  6
CONTINUOUS
 62
    54
100
AcDbLine
 10
978.6000000000018
 20
49.52207793864525
 30
0.0
 11
981.5999999999985
 21
52.52207793864193
 31
0.0
  0
LINE
  5
487
330
1F
100
AcDbEntity
  8
DP-350_0_15_大阪支店
  6
CONTINUOUS
 62
    54
100
AcDbLine
 10
983.1000000000026
 20
54.02207793864602
 30
0.0
 11
986.0999999999992
 21
57.02207793864261
 31
0.0
  0
LINE
  5
488
330
1F
100
AcDbEntity
  8
DP-350_0_15_大阪支店
  6
CONTINUOUS
 62
    54
100
AcDbLine
 10
974.0999999999995
 20
44.17354980121905
 30
0.0
 11
977.1000000000039
 21
47.1735498012234
 31
0.0
  0
LINE
  5
489
330
1F
100
AcDbEntity
  8
DP-350_0_15_大阪支店
  6
CONTINUOUS
 62
    54
100
AcDbLine
 10
978.6000000000042
 20
48.67354980122366
 30
0.0
 11
981.6000000000008
 21
51.67354980122033
 31
0.0
  0
LINE
  5
48A
330
1F
100
AcDbEntity
  8
DP-350_0_15_大阪支店
  6
CONTINUOUS
 62
    54
100
AcDbLine
 10
983.1000000000012
 20
53.17354980122059
 30
0.0
 11
986.1000000000015
 21
56.1735498012211
 31
0.0
  0
LINE
  5
48B
330
1F
100
AcDbEntity
  8
DP-350_0_15_大阪支店
  6
CONTINUOUS
 62
    54
100
AcDbLine
 10
974.1000000000018
 20
43.32502166379754
 30
0.0
 11
977.1000000000024
 21
46.32502166379805
 31
0.0
  0
LINE
  5
48C
330
1F
100
AcDbEntity
  8
DP-350_0_15_大阪支店
  6
CONTINUOUS
 62
    54
100
AcDbLine
 10
978.6000000000025
 20
47.82502166379831
 30
0.0
 11
981.5999999999992
 21
50.82502166379498
 31
0.0
  0
LINE
  5
48D
330
1F
100
AcDbEntity
  8
DP-350_0_15_大阪支店
  6
CONTINUOUS
 62
    54
100
AcDbLine
 10
983.1000000000033
 20
52.32502166379908
 30
0.0
 11
986.1000000000001
 21
55.32502166379575
 31
0.0
  0
LINE
  5
48E
330
1F
100
AcDbEntity
  8
DP-350_0_15_大阪支店
  6
CONTINUOUS
 62
    54
100
AcDbLine
 10
974.0999999999964
 20
42.47649352636827
 30
0.0
 11
977.1000000000046
 21
45.47649352637654
 31
0.0
  0
LINE
  5
48F
330
1F
100
AcDbEntity
  8
DP-350_0_15_大阪支店
  6
CONTINUOUS
 62
    54
100
AcDbLine
 10
978.6000000000012
 20
46.97649352637296
 30
0.0
 11
981.6000000000015
 21
49.97649352637339
 31
0.0
  0
LINE
  5
490
330
1F
100
AcDbEntity
  8
DP-350_0_15_大阪支店
  6
CONTINUOUS
 62
    54
100
AcDbLine
 10
983.0999999999979
 20
51.47649352636981
 30
0.0
 11
986.1000000000022
 21
54.47649352637416
 31
0.0
  0
LINE
  5
491
330
1F
100
AcDbEntity
  8
DP-350_0_15_大阪支店
  6
CONTINUOUS
 62
    54
100
AcDbLine
 10
974.0999999999988
 20
41.62796538894685
 30
0.0
 11
977.1000000000031
 21
44.6279653889512
 31
0.0
  0
LINE
  5
492
330
1F
100
AcDbEntity
  8
DP-350_0_15_大阪支店
  6
CONTINUOUS
 62
    54
100
AcDbLine
 10
978.5999999999995
 20
46.12796538894762
 30
0.0
 11
981.599999999996
 21
49.1279653889442
 31
0.0
  0
LINE
  5
493
330
1F
100
AcDbEntity
  8
DP-350_0_15_大阪支店
  6
CONTINUOUS
 62
    54
100
AcDbLine
 10
983.1000000000001
 20
50.62796538894838
 30
0.0
 11
986.0999999999967
 21
53.62796538894497
 31
0.0
  0
LINE
  5
494
330
1F
100
AcDbEntity
  8
DP-350_0_15_大阪支店
  6
CONTINUOUS
 62
    54
100
AcDbLine
 10
974.0999999999971
 20
40.77943725152141
 30
0.0
 11
977.1000000000015
 21
43.77943725152576
 31
0.0
  0
LINE
  5
495
330
1F
100
AcDbEntity
  8
DP-350_0_15_大阪支店
  6
CONTINUOUS
 62
    54
100
AcDbLine
 10
978.6000000000018
 20
45.27943725152602
 30
0.0
 11
981.5999999999984
 21
48.27943725152269
 31
0.0
  0
LINE
  5
496
330
1F
100
AcDbEntity
  8
DP-350_0_15_大阪支店
  6
CONTINUOUS
 62
    54
100
AcDbLine
 10
983.0999999999988
 20
49.77943725152295
 30
0.0
 11
986.0999999999991
 21
52.77943725152346
 31
0.0
  0
LINE
  5
497
330
1F
100
AcDbEntity
  8
DP-350_0_15_大阪支店
  6
CONTINUOUS
 62
    54
100
AcDbLine
 10
974.0999999999995
 20
39.9309091140999
 30
0.0
 11
977.1000000000038
 21
42.93090911410425
 31
0.0
  0
LINE
  5
498
330
1F
100
AcDbEntity
  8
DP-350_0_15_大阪支店
  6
CONTINUOUS
 62
    54
100
AcDbLine
 10
978.6000000000039
 20
44.43090911410451
 30
0.0
 11
981.5999999999967
 21
47.43090911409735
 31
0.0
  0
LINE
  5
499
330
1F
100
AcDbEntity
  8
DP-350_0_15_大阪支店
  6
CONTINUOUS
 62
    54
100
AcDbLine
 10
983.1000000000008
 20
48.93090911410144
 30
0.0
 11
986.0999999999976
 21
51.93090911409811
 31
0.0
  0
LINE
  5
49A
330
1F
100
AcDbEntity
  8
DP-350_0_15_大阪支店
  6
CONTINUOUS
 62
    54
100
AcDbLine
 10
974.099999999994
 20
39.08238097667063
 30
0.0
 11
977.1000000000022
 21
42.08238097667891
 31
0.0
  0
LINE
  5
49B
330
1F
100
AcDbEntity
  8
DP-350_0_15_大阪支店
  6
CONTINUOUS
 62
    54
100
AcDbLine
 10
978.6000000000063
 20
43.582380976683
 30
0.0
 11
981.6000000000031
 21
46.58238097667967
 31
0.0
  0
LINE
  5
49C
330
1F
100
AcDbEntity
  8
DP-350_0_15_大阪支店
  6
CONTINUOUS
 62
    54
100
AcDbLine
 10
983.1000000000032
 20
48.08238097667993
 30
0.0
 11
986.0999999999998
 21
51.08238097667652
 31
0.0
  0
LINE
  5
49D
330
1F
100
AcDbEntity
  8
DP-350_0_15_大阪支店
  6
CONTINUOUS
 62
    54
100
AcDbLine
 10
974.0999999999964
 20
38.23385283924921
 30
0.0
 11
977.1000000000046
 21
41.23385283925739
 31
0.0
  0
LINE
  5
49E
330
1F
100
AcDbEntity
  8
DP-350_0_15_大阪支店
  6
CONTINUOUS
 62
    54
100
AcDbLine
 10
978.6000000000047
 20
42.73385283925765
 30
0.0
 11
981.6000000000015
 21
45.73385283925433
 31
0.0
  0
LINE
  5
49F
330
1F
100
AcDbEntity
  8
DP-350_0_15_大阪支店
  6
CONTINUOUS
 62
    54
100
AcDbLine
 10
983.0999999999977
 20
47.23385283925066
 30
0.0
 11
986.1000000000022
 21
50.23385283925509
 31
0.0
  0
LINE
  5
4A0
330
1F
100
AcDbEntity
  8
DP-350_0_15_大阪支店
  6
CONTINUOUS
 62
    54
100
AcDbLine
 10
974.0999999999985
 20
37.38532470182761
 30
0.0
 11
977.1000000000029
 21
40.38532470183196
 31
0.0
  0
LINE
  5
4A1
330
1F
100
AcDbEntity
  8
DP-350_0_15_大阪支店
  6
CONTINUOUS
 62
    54
100
AcDbLine
 10
978.6000000000032
 20
41.88532470183222
 30
0.0
 11
981.6000000000038
 21
44.88532470183273
 31
0.0
  0
LINE
  5
4A2
330
1F
100
AcDbEntity
  8
DP-350_0_15_大阪支店
  6
CONTINUOUS
 62
    54
100
AcDbLine
 10
983.1000000000001
 20
46.38532470182915
 30
0.0
 11
986.0999999999967
 21
49.38532470182574
 31
0.0
  0
LINE
  5
4A3
330
1F
100
AcDbEntity
  8
DP-350_0_15_大阪支店
  6
CONTINUOUS
 62
    54
100
AcDbLine
 10
974.0999999999971
 20
36.53679656440227
 30
0.0
 11
977.1000000000053
 21
39.53679656441054
 31
0.0
  0
LINE
  5
4A4
330
1F
100
AcDbEntity
  8
DP-350_0_15_大阪支店
  6
CONTINUOUS
 62
    54
100
AcDbLine
 10
978.6000000000015
 20
41.03679656440687
 30
0.0
 11
981.5999999999983
 21
44.03679656440355
 31
0.0
  0
LINE
  5
4A5
330
1F
100
AcDbEntity
  8
DP-350_0_15_大阪支店
  6
CONTINUOUS
 62
    54
100
AcDbLine
 10
983.0999999999984
 20
45.5367965644038
 30
0.0
 11
986.0999999999991
 21
48.53679656440431
 31
0.0
  0
LINE
  5
4A6
330
1F
100
AcDbEntity
  8
DP-350_0_15_大阪支店
  6
CONTINUOUS
 62
    54
100
AcDbLine
 10
974.0999999999992
 20
35.68826842698076
 30
0.0
 11
977.0999999999998
 21
38.68826842698118
 31
0.0
  0
LINE
  5
4A7
330
1F
100
AcDbEntity
  8
DP-350_0_15_大阪支店
  6
CONTINUOUS
 62
    54
100
AcDbLine
 10
978.6000000000039
 20
40.18826842698536
 30
0.0
 11
981.6000000000005
 21
43.18826842698195
 31
0.0
  0
LINE
  5
4A8
330
1F
100
AcDbEntity
  8
DP-350_0_15_大阪支店
  6
CONTINUOUS
 62
    54
100
AcDbLine
 10
983.1000000000008
 20
44.68826842698221
 30
0.0
 11
986.0999999999974
 21
47.68826842697888
 31
0.0
  0
LINE
  5
4A9
330
1F
100
AcDbEntity
  8
DP-350_0_15_大阪支店
  6
CONTINUOUS
 62
    54
100
AcDbLine
 10
974.1248586544357
 20
34.8645989439934
 30
0.0
 11
977.1000000000022
 21
37.83974028955976
 31
0.0
  0
LINE
  5
4AA
330
1F
100
AcDbEntity
  8
DP-350_0_15_大阪支店
  6
CONTINUOUS
 62
    54
100
AcDbLine
 10
978.6000000000024
 20
39.33974028956001
 30
0.0
 11
981.599999999999
 21
42.3397402895566
 31
0.0
  0
LINE
  5
4AB
330
1F
100
AcDbEntity
  8
DP-350_0_15_大阪支店
  6
CONTINUOUS
 62
    54
100
AcDbLine
 10
983.1000000000032
 20
43.83974028956078
 30
0.0
 11
986.0999999999998
 21
46.83974028955737
 31
0.0
  0
LINE
  5
4AC
330
1F
100
AcDbEntity
  8
DP-350_0_15_大阪支店
  6
CONTINUOUS
 62
    54
100
AcDbLine
 10
974.2949572978521
 20
34.1861694499859
 30
0.0
 11
977.1000000000005
 21
36.99121215213432
 31
0.0
  0
LINE
  5
4AD
330
1F
100
AcDbEntity
  8
DP-350_0_15_大阪支店
  6
CONTINUOUS
 62
    54
100
AcDbLine
 10
978.6000000000046
 20
38.49121215213842
 30
0.0
 11
981.6000000000013
 21
41.49121215213509
 31
0.0
  0
LINE
  5
4AE
330
1F
100
AcDbEntity
  8
DP-350_0_15_大阪支店
  6
CONTINUOUS
 62
    54
100
AcDbLine
 10
983.0999999999977
 20
42.99121215213151
 30
0.0
 11
986.0999999999943
 21
45.9912121521281
 31
0.0
  0
LINE
  5
4AF
330
1F
100
AcDbEntity
  8
DP-350_0_15_大阪支店
  6
CONTINUOUS
 62
    54
100
AcDbLine
 10
974.5798260774509
 20
33.62251009216101
 30
0.0
 11
977.1000000000029
 21
36.14268401471281
 31
0.0
  0
LINE
  5
4B0
330
1F
100
AcDbEntity
  8
DP-350_0_15_大阪支店
  6
CONTINUOUS
 62
    54
100
AcDbLine
 10
978.5999999999991
 20
37.64268401470923
 30
0.0
 11
981.5999999999958
 21
40.64268401470591
 31
0.0
  0
LINE
  5
4B1
330
1F
100
AcDbEntity
  8
DP-350_0_15_大阪支店
  6
CONTINUOUS
 62
    54
100
AcDbLine
 10
983.0999999999999
 20
42.14268401471
 30
0.0
 11
986.0999999999967
 21
45.14268401470667
 31
0.0
  0
LINE
  5
4B2
330
1F
100
AcDbEntity
  8
DP-350_0_15_大阪支店
  6
CONTINUOUS
 62
    54
100
AcDbLine
 10
974.9567166105276
 20
33.15087248781384
 30
0.0
 11
977.2980517332323
 21
35.49220761051851
 31
0.0
  0
LINE
  5
4B3
330
1F
100
AcDbEntity
  8
DP-350_0_15_大阪支店
  6
CONTINUOUS
 62
    54
100
AcDbLine
 10
978.6000000000015
 20
36.79415587728772
 30
0.0
 11
981.5999999999981
 21
39.7941558772844
 31
0.0
  0
LINE
  5
4B4
330
1F
100
AcDbEntity
  8
DP-350_0_15_大阪支店
  6
CONTINUOUS
 62
    54
100
AcDbLine
 10
983.1000000000022
 20
41.29415587728849
 30
0.0
 11
986.099999999999
 21
44.29415587728516
 31
0.0
  0
LINE
  5
4B5
330
1F
100
AcDbEntity
  8
DP-350_0_15_大阪支店
  6
CONTINUOUS
 62
    54
100
AcDbLine
 10
975.4193404044363
 20
32.76496814429871
 30
0.0
 11
977.9065037371445
 21
35.25213147700694
 31
0.0
  0
LINE
  5
4B6
330
1F
100
AcDbEntity
  8
DP-350_0_15_大阪支店
  6
CONTINUOUS
 62
    54
100
AcDbLine
 10
978.5978685229973
 20
35.94349626285975
 30
0.0
 11
981.6000000000005
 21
38.94562773986289
 31
0.0
  0
LINE
  5
4B7
330
1F
100
AcDbEntity
  8
DP-350_0_15_大阪支店
  6
CONTINUOUS
 62
    54
100
AcDbLine
 10
983.1000000000008
 20
40.44562773986314
 30
0.0
 11
986.0999999999974
 21
43.44562773985973
 31
0.0
  0
LINE
  5
4B8
330
1F
100
AcDbEntity
  8
DP-350_0_15_大阪支店
  6
CONTINUOUS
 62
    54
100
AcDbLine
 10
975.9727408885333
 20
32.46984049097196
 30
0.0
 11
981.599999999999
 21
38.09709960243754
 31
0.0
  0
LINE
  5
4B9
330
1F
100
AcDbEntity
  8
DP-350_0_15_大阪支店
  6
CONTINUOUS
 62
    54
100
AcDbLine
 10
983.1000000000031
 20
39.59709960244163
 30
0.0
 11
986.0999999999998
 21
42.59709960243831
 31
0.0
  0
LINE
  5
4BA
330
1F
100
AcDbEntity
  8
DP-350_0_15_大阪支店
  6
CONTINUOUS
 62
    54
100
AcDbLine
 10
976.6373217785673
 20
32.28589324358208
 30
0.0
 11
981.6000000000012
 21
37.24857146501594
 31
0.0
  0
LINE
  5
4BB
330
1F
100
AcDbEntity
  8
DP-350_0_15_大阪支店
  6
CONTINUOUS
 62
    54
100
AcDbLine
 10
983.0999999999976
 20
38.74857146501236
 30
0.0
 11
986.0999999999981
 21
41.74857146501287
 31
0.0
  0
LINE
  5
4BC
330
1F
100
AcDbEntity
  8
DP-350_0_15_大阪支店
  6
CONTINUOUS
 62
    54
100
AcDbLine
 10
977.4499566724099
 20
32.25000000000082
 30
0.0
 11
981.5999999999957
 21
36.40004332758676
 31
0.0
  0
LINE
  5
4BD
330
1F
100
AcDbEntity
  8
DP-350_0_15_大阪支店
  6
CONTINUOUS
 62
    54
100
AcDbLine
 10
983.0999999999998
 20
37.90004332759085
 30
0.0
 11
986.0999999999965
 21
40.90004332758753
 31
0.0
  0
LINE
  5
4BE
330
1F
100
AcDbEntity
  8
DP-350_0_15_大阪支店
  6
CONTINUOUS
 62
    54
100
AcDbLine
 10
978.3385287936462
 20
32.29004398381352
 30
0.0
 11
981.690791672272
 21
35.64230686243923
 31
0.0
  0
LINE
  5
4BF
330
1F
100
AcDbEntity
  8
DP-350_0_15_大阪支店
  6
CONTINUOUS
 62
    54
100
AcDbLine
 10
983.0999999999983
 20
37.05151519016542
 30
0.0
 11
986.0999999999988
 21
40.05151519016593
 31
0.0
  0
LINE
  5
4C0
330
1F
100
AcDbEntity
  8
DP-350_0_15_大阪支店
  6
CONTINUOUS
 62
    54
100
AcDbLine
 10
980.1296154749964
 20
33.23260252773983
 30
0.0
 11
982.1691451538784
 21
35.27213220662182
 31
0.0
  0
LINE
  5
4C1
330
1F
100
AcDbEntity
  8
DP-350_0_15_大阪支店
  6
CONTINUOUS
 62
    54
100
AcDbLine
 10
983.1000000000006
 20
36.20298705274399
 30
0.0
 11
986.1000000000012
 21
39.2029870527445
 31
0.0
  0
LINE
  5
4C2
330
1F
100
AcDbEntity
  8
DP-350_0_15_大阪支店
  6
CONTINUOUS
 62
    54
100
AcDbLine
 10
980.5761496474272
 20
32.83060856274682
 30
0.0
 11
986.0999999999995
 21
38.35445891531907
 31
0.0
  0
LINE
  5
4C3
330
1F
100
AcDbEntity
  8
DP-350_0_15_大阪支店
  6
CONTINUOUS
 62
    54
100
AcDbLine
 10
981.1116028469562
 20
32.51753362485184
 30
0.0
 11
986.1000000000018
 21
37.50593077789756
 31
0.0
  0
LINE
  5
4C4
330
1F
100
AcDbEntity
  8
DP-350_0_15_大阪支店
  6
CONTINUOUS
 62
    54
100
AcDbLine
 10
981.7526666087026
 20
32.31006924917446
 30
0.0
 11
986.1000000000001
 21
36.65740264047213
 31
0.0
  0
LINE
  5
4C5
330
1F
100
AcDbEntity
  8
DP-350_0_15_大阪支店
  6
CONTINUOUS
 62
    54
100
AcDbLine
 10
982.5411254969504
 20
32.24999999999861
 30
0.0
 11
986.0999999999985
 21
35.80887450304678
 31
0.0
  0
LINE
  5
4C6
330
1F
100
AcDbEntity
  8
DP-350_0_15_大阪支店
  6
CONTINUOUS
 62
    54
100
AcDbLine
 10
983.4052206282399
 20
32.2655669938643
 30
0.0
 11
986.0844330061291
 21
34.94477937175344
 31
0.0
  0
LINE
  5
4C7
330
1F
100
AcDbEntity
  8
DP-350_0_15_大阪支店
  6
CONTINUOUS
 62
    54
100
AcDbLine
 10
984.7012630266559
 20
32.71308125485649
 30
0.0
 11
985.6369187451447
 21
33.64873697334519
 31
0.0
  0
LINE
  5
4C8
330
1F
100
AcDbEntity
  8
DP-350_0_15_大阪支店
  6
CONTINUOUS
 62
    54
100
AcDbLine
 10
976.6568258400505
 20
32.28291444950472
 30
0.0
 11
974.1329144495016
 21
34.80682584005365
 31
0.0
  0
LINE
  5
4C9
330
1F
100
AcDbEntity
  8
DP-350_0_15_大阪支店
  6
CONTINUOUS
 62
    54
100
AcDbLine
 10
977.5382684269764
 20
32.25000000000261
 30
0.0
 11
974.0999999999957
 21
35.68826842698357
 31
0.0
  0
LINE
  5
4CA
330
1F
100
AcDbEntity
  8
DP-350_0_15_大阪支店
  6
CONTINUOUS
 62
    54
100
AcDbLine
 10
978.3455801512403
 20
32.2912164131626
 30
0.0
 11
974.0999999999977
 21
36.53679656440499
 31
0.0
  0
LINE
  5
4CB
330
1F
100
AcDbEntity
  8
DP-350_0_15_大阪支店
  6
CONTINUOUS
 62
    54
100
AcDbLine
 10
979.0043468108547
 20
32.4809778909721
 30
0.0
 11
974.0999999999964
 21
37.38532470183043
 31
0.0
  0
LINE
  5
4CC
330
1F
100
AcDbEntity
  8
DP-350_0_15_大阪支店
  6
CONTINUOUS
 62
    54
100
AcDbLine
 10
979.5533718735088
 20
32.78048096574156
 30
0.0
 11
974.0999999999985
 21
38.23385283925194
 31
0.0
  0
LINE
  5
4CD
330
1F
100
AcDbEntity
  8
DP-350_0_15_大阪支店
  6
CONTINUOUS
 62
    54
100
AcDbLine
 10
980.0121108884678
 20
33.17027008820668
 30
0.0
 11
977.9282841790466
 21
35.25409679762768
 31
0.0
  0
LINE
  5
4CE
330
1F
100
AcDbEntity
  8
DP-350_0_15_大阪支店
  6
CONTINUOUS
 62
    54
100
AcDbLine
 10
977.0999999999976
 20
36.08238097667686
 30
0.0
 11
974.0999999999971
 21
39.08238097667737
 31
0.0
  0
LINE
  5
4CF
330
1F
100
AcDbEntity
  8
DP-350_0_15_大阪支店
  6
CONTINUOUS
 62
    54
100
AcDbLine
 10
981.712362383355
 20
32.31854673074312
 30
0.0
 11
978.4630136188858
 21
35.56789549521224
 31
0.0
  0
LINE
  5
4D0
330
1F
100
AcDbEntity
  8
DP-350_0_15_大阪支店
  6
CONTINUOUS
 62
    54
100
AcDbLine
 10
977.0999999999998
 20
36.93090911409828
 30
0.0
 11
974.0999999999954
 21
39.93090911410263
 31
0.0
  0
LINE
  5
4D1
330
1F
100
AcDbEntity
  8
DP-350_0_15_大阪支店
  6
CONTINUOUS
 62
    54
100
AcDbLine
 10
982.6294372515212
 20
32.25000000000091
 30
0.0
 11
978.5999999999984
 21
36.27943725152346
 31
0.0
  0
LINE
  5
4D2
330
1F
100
AcDbEntity
  8
DP-350_0_15_大阪支店
  6
CONTINUOUS
 62
    54
100
AcDbLine
 10
977.0999999999983
 20
37.77943725152372
 30
0.0
 11
974.0999999999977
 21
40.77943725152423
 31
0.0
  0
LINE
  5
4D3
330
1F
100
AcDbEntity
  8
DP-350_0_15_大阪支店
  6
CONTINUOUS
 62
    54
100
AcDbLine
 10
983.4566857929295
 20
32.27127959601609
 30
0.0
 11
978.599999999997
 21
37.12796538894881
 31
0.0
  0
LINE
  5
4D4
330
1F
100
AcDbEntity
  8
DP-350_0_15_大阪支店
  6
CONTINUOUS
 62
    54
100
AcDbLine
 10
977.0999999999967
 20
38.62796538894906
 30
0.0
 11
974.099999999996
 21
41.62796538894958
 31
0.0
  0
LINE
  5
4D5
330
1F
100
AcDbEntity
  8
DP-350_0_15_大阪支店
  6
CONTINUOUS
 62
    54
100
AcDbLine
 10
984.1403349025811
 20
32.43615862378854
 30
0.0
 11
978.5999999999992
 21
37.9764935263704
 31
0.0
  0
LINE
  5
4D6
330
1F
100
AcDbEntity
  8
DP-350_0_15_大阪支店
  6
CONTINUOUS
 62
    54
100
AcDbLine
 10
977.0999999999991
 20
39.47649352637066
 30
0.0
 11
974.0999999999947
 21
42.47649352637501
 31
0.0
  0
LINE
  5
4D7
330
1F
100
AcDbEntity
  8
DP-350_0_15_大阪支店
  6
CONTINUOUS
 62
    54
100
AcDbLine
 10
984.7078015770267
 20
32.71722008676673
 30
0.0
 11
982.1470368795046
 21
35.27798478428878
 31
0.0
  0
LINE
  5
4D8
330
1F
100
AcDbEntity
  8
DP-350_0_15_大阪支店
  6
CONTINUOUS
 62
    54
100
AcDbLine
 10
981.6279847842902
 20
35.79703687950311
 30
0.0
 11
978.5999999999977
 21
38.82502166379567
 31
0.0
  0
LINE
  5
4D9
330
1F
100
AcDbEntity
  8
DP-350_0_15_大阪支店
  6
CONTINUOUS
 62
    54
100
AcDbLine
 10
977.0999999999974
 20
40.32502166379592
 30
0.0
 11
974.099999999997
 21
43.32502166379643
 31
0.0
  0
LINE
  5
4DA
330
1F
100
AcDbEntity
  8
DP-350_0_15_大阪支店
  6
CONTINUOUS
 62
    54
100
AcDbLine
 10
985.1827508179101
 20
33.09079898330705
 30
0.0
 11
982.8407255994236
 21
35.43282420179358
 31
0.0
  0
LINE
  5
4DB
330
1F
100
AcDbEntity
  8
DP-350_0_15_大阪支店
  6
CONTINUOUS
 62
    54
100
AcDbLine
 10
981.6000000000005
 20
36.67354980121675
 30
0.0
 11
978.599999999996
 21
39.6735498012211
 31
0.0
  0
LINE
  5
4DC
330
1F
100
AcDbEntity
  8
DP-350_0_15_大阪支店
  6
CONTINUOUS
 62
    54
100
AcDbLine
 10
977.0999999999958
 20
41.17354980122136
 30
0.0
 11
974.0999999999954
 21
44.17354980122187
 31
0.0
  0
LINE
  5
4DD
330
1F
100
AcDbEntity
  8
DP-350_0_15_大阪支店
  6
CONTINUOUS
 62
    54
100
AcDbLine
 10
985.5719377957616
 20
33.55014014287926
 30
0.0
 11
983.0999999999954
 21
36.02207793864568
 31
0.0
  0
LINE
  5
4DE
330
1F
100
AcDbEntity
  8
DP-350_0_15_大阪支店
  6
CONTINUOUS
 62
    54
100
AcDbLine
 10
981.5999999999988
 20
37.5220779386421
 30
0.0
 11
978.5999999999984
 21
40.52207793864261
 31
0.0
  0
LINE
  5
4DF
330
1F
100
AcDbEntity
  8
DP-350_0_15_大阪支店
  6
CONTINUOUS
 62
    54
100
AcDbLine
 10
977.0999999999943
 20
42.0220779386467
 30
0.0
 11
974.0999999999976
 21
45.02207793864338
 31
0.0
  0
LINE
  5
4E0
330
1F
100
AcDbEntity
  8
DP-350_0_15_大阪支店
  6
CONTINUOUS
 62
    54
100
AcDbLine
 10
985.8707644598742
 20
34.09984161619076
 30
0.0
 11
983.1000000000015
 21
36.87060607606344
 31
0.0
  0
LINE
  5
4E1
330
1F
100
AcDbEntity
  8
DP-350_0_15_大阪支店
  6
CONTINUOUS
 62
    54
100
AcDbLine
 10
981.6000000000012
 20
38.37060607606369
 30
0.0
 11
978.6000000000008
 21
41.37060607606421
 31
0.0
  0
LINE
  5
4E2
330
1F
100
AcDbEntity
  8
DP-350_0_15_大阪支店
  6
CONTINUOUS
 62
    54
100
AcDbLine
 10
977.0999999999967
 20
42.8706060760683
 30
0.0
 11
974.099999999996
 21
45.87060607606881
 31
0.0
  0
LINE
  5
4E3
330
1F
100
AcDbEntity
  8
DP-350_0_15_大阪支店
  6
CONTINUOUS
 62
    54
100
AcDbLine
 10
986.0596306009173
 20
34.75950361257134
 30
0.0
 11
983.0999999999998
 21
37.7191342134887
 31
0.0
  0
LINE
  5
4E4
330
1F
100
AcDbEntity
  8
DP-350_0_15_大阪支店
  6
CONTINUOUS
 62
    54
100
AcDbLine
 10
981.5999999999997
 20
39.21913421348896
 30
0.0
 11
978.5999999999991
 21
42.21913421348947
 31
0.0
  0
LINE
  5
4E5
330
1F
100
AcDbEntity
  8
DP-350_0_15_大阪支店
  6
CONTINUOUS
 62
    54
100
AcDbLine
 10
977.0999999999988
 20
43.71913421348972
 30
0.0
 11
974.0999999999945
 21
46.71913421349416
 31
0.0
  0
LINE
  5
4E6
330
1F
100
AcDbEntity
  8
DP-350_0_15_大阪支店
  6
CONTINUOUS
 62
    54
100
AcDbLine
 10
986.0999999999988
 20
35.56766235091362
 30
0.0
 11
983.0999999999984
 21
38.56766235091413
 31
0.0
  0
LINE
  5
4E7
330
1F
100
AcDbEntity
  8
DP-350_0_15_大阪支店
  6
CONTINUOUS
 62
    54
100
AcDbLine
 10
981.6000000000018
 20
40.06766235091055
 30
0.0
 11
978.5999999999976
 21
43.0676623509149
 31
0.0
  0
LINE
  5
4E8
330
1F
100
AcDbEntity
  8
DP-350_0_15_大阪支店
  6
CONTINUOUS
 62
    54
100
AcDbLine
 10
977.0999999999974
 20
44.56766235091516
 30
0.0
 11
974.0999999999967
 21
47.56766235091567
 31
0.0
  0
LINE
  5
4E9
330
1F
100
AcDbEntity
  8
DP-350_0_15_大阪支店
  6
CONTINUOUS
 62
    54
100
AcDbLine
 10
986.1000000000012
 20
36.41619048833513
 30
0.0
 11
983.0999999999967
 21
39.41619048833948
 31
0.0
  0
LINE
  5
4EA
330
1F
100
AcDbEntity
  8
DP-350_0_15_大阪支店
  6
CONTINUOUS
 62
    54
100
AcDbLine
 10
981.6000000000004
 20
40.9161904883359
 30
0.0
 11
978.599999999996
 21
43.91619048834025
 31
0.0
  0
LINE
  5
4EB
330
1F
100
AcDbEntity
  8
DP-350_0_15_大阪支店
  6
CONTINUOUS
 62
    54
100
AcDbLine
 10
977.0999999999957
 20
45.4161904883405
 30
0.0
 11
974.0999999999991
 21
48.41619048833718
 31
0.0
  0
LINE
  5
4EC
330
1F
100
AcDbEntity
  8
DP-350_0_15_大阪支店
  6
CONTINUOUS
 62
    54
100
AcDbLine
 10
986.0999999999995
 20
37.26471862576048
 30
0.0
 11
983.099999999999
 21
40.26471862576099
 31
0.0
  0
LINE
  5
4ED
330
1F
100
AcDbEntity
  8
DP-350_0_15_大阪支店
  6
CONTINUOUS
 62
    54
100
AcDbLine
 10
981.6000000000025
 20
41.76471862575733
 30
0.0
 11
978.5999999999983
 21
44.76471862576176
 31
0.0
  0
LINE
  5
4EE
330
1F
100
AcDbEntity
  8
DP-350_0_15_大阪支店
  6
CONTINUOUS
 62
    54
100
AcDbLine
 10
977.0999999999981
 20
46.26471862576201
 30
0.0
 11
974.0999999999974
 21
49.26471862576253
 31
0.0
  0
LINE
  5
4EF
330
1F
100
AcDbEntity
  8
DP-350_0_15_大阪支店
  6
CONTINUOUS
 62
    54
100
AcDbLine
 10
986.0999999999981
 20
38.11324676318591
 30
0.0
 11
983.0999999999974
 21
41.11324676318642
 31
0.0
  0
LINE
  5
4F0
330
1F
100
AcDbEntity
  8
DP-350_0_15_大阪支店
  6
CONTINUOUS
 62
    54
100
AcDbLine
 10
981.6000000000012
 20
42.61324676318276
 30
0.0
 11
978.5999999999967
 21
45.61324676318719
 31
0.0
  0
LINE
  5
4F1
330
1F
100
AcDbEntity
  8
DP-350_0_15_大阪支店
  6
CONTINUOUS
 62
    54
100
AcDbLine
 10
977.0999999999964
 20
47.11324676318745
 30
0.0
 11
974.0999999999998
 21
50.11324676318404
 31
0.0
  0
LINE
  5
4F2
330
1F
100
AcDbEntity
  8
DP-350_0_15_大阪支店
  6
CONTINUOUS
 62
    54
100
AcDbLine
 10
986.1000000000001
 20
38.96177490060734
 30
0.0
 11
983.0999999999958
 21
41.96177490061177
 31
0.0
  0
LINE
  5
4F3
330
1F
100
AcDbEntity
  8
DP-350_0_15_大阪支店
  6
CONTINUOUS
 62
    54
100
AcDbLine
 10
981.5999999999995
 20
43.46177490060811
 30
0.0
 11
978.599999999995
 21
46.46177490061245
 31
0.0
  0
LINE
  5
4F4
330
1F
100
AcDbEntity
  8
DP-350_0_15_大阪支店
  6
CONTINUOUS
 62
    54
100
AcDbLine
 10
977.0999999999988
 20
47.96177490060887
 30
0.0
 11
974.0999999999981
 21
50.96177490060938
 31
0.0
  0
LINE
  5
4F5
330
1F
100
AcDbEntity
  8
DP-350_0_15_大阪支店
  6
CONTINUOUS
 62
    54
100
AcDbLine
 10
986.0999999999988
 20
39.81030303803277
 30
0.0
 11
983.0999999999981
 21
42.81030303803328
 31
0.0
  0
LINE
  5
4F6
330
1F
100
AcDbEntity
  8
DP-350_0_15_大阪支店
  6
CONTINUOUS
 62
    54
100
AcDbLine
 10
981.6000000000018
 20
44.3103030380297
 30
0.0
 11
978.5999999999974
 21
47.31030303803405
 31
0.0
  0
LINE
  5
4F7
330
1F
100
AcDbEntity
  8
DP-350_0_15_大阪支店
  6
CONTINUOUS
 62
    54
100
AcDbLine
 10
977.0999999999971
 20
48.81030303803431
 30
0.0
 11
974.0999999999967
 21
51.81030303803482
 31
0.0
  0
LINE
  5
4F8
330
1F
100
AcDbEntity
  8
DP-350_0_15_大阪支店
  6
CONTINUOUS
 62
    54
100
AcDbLine
 10
986.0999999999971
 20
40.65883117545812
 30
0.0
 11
983.0999999999965
 21
43.65883117545863
 31
0.0
  0
LINE
  5
4F9
330
1F
100
AcDbEntity
  8
DP-350_0_15_大阪支店
  6
CONTINUOUS
 62
    54
100
AcDbLine
 10
981.6000000000001
 20
45.15883117545505
 30
0.0
 11
978.5999999999998
 21
48.15883117545556
 31
0.0
  0
LINE
  5
4FA
330
1F
100
AcDbEntity
  8
DP-350_0_15_大阪支店
  6
CONTINUOUS
 62
    54
100
AcDbLine
 10
977.0999999999995
 20
49.65883117545582
 30
0.0
 11
974.099999999999
 21
52.65883117545633
 31
0.0
  0
LINE
  5
4FB
330
1F
100
AcDbEntity
  8
DP-350_0_15_大阪支店
  6
CONTINUOUS
 62
    54
100
AcDbLine
 10
986.0999999999995
 20
41.50735931287971
 30
0.0
 11
983.099999999999
 21
44.50735931288023
 31
0.0
  0
LINE
  5
4FC
330
1F
100
AcDbEntity
  8
DP-350_0_15_大阪支店
  6
CONTINUOUS
 62
    54
100
AcDbLine
 10
981.6000000000025
 20
46.00735931287656
 30
0.0
 11
978.5999999999981
 21
49.00735931288091
 31
0.0
  0
LINE
  5
4FD
330
1F
100
AcDbEntity
  8
DP-350_0_15_大阪支店
  6
CONTINUOUS
 62
    54
100
AcDbLine
 10
977.0999999999979
 20
50.50735931288116
 30
0.0
 11
974.0999999999974
 21
53.50735931288168
 31
0.0
  0
LINE
  5
4FE
330
1F
100
AcDbEntity
  8
DP-350_0_15_大阪支店
  6
CONTINUOUS
 62
    54
100
AcDbLine
 10
986.0999999999977
 20
42.35588745030498
 30
0.0
 11
983.0999999999974
 21
45.35588745030549
 31
0.0
  0
LINE
  5
4FF
330
1F
100
AcDbEntity
  8
DP-350_0_15_大阪支店
  6
CONTINUOUS
 62
    54
100
AcDbLine
 10
981.6000000000008
 20
46.85588745030191
 30
0.0
 11
978.6000000000005
 21
49.85588745030242
 31
0.0
  0
LINE
  5
500
330
1F
100
AcDbEntity
  8
DP-350_0_15_大阪支店
  6
CONTINUOUS
 62
    54
100
AcDbLine
 10
977.1000000000001
 20
51.35588745030267
 30
0.0
 11
974.0999999999997
 21
54.35588745030319
 31
0.0
  0
LINE
  5
501
330
1F
100
AcDbEntity
  8
DP-350_0_15_大阪支店
  6
CONTINUOUS
 62
    54
100
AcDbLine
 10
986.1000000000001
 20
43.20441558772657
 30
0.0
 11
983.0999999999957
 21
46.20441558773092
 31
0.0
  0
LINE
  5
502
330
1F
100
AcDbEntity
  8
DP-350_0_15_大阪支店
  6
CONTINUOUS
 62
    54
100
AcDbLine
 10
981.5999999999995
 20
47.70441558772734
 30
0.0
 11
978.5999999999988
 21
50.70441558772785
 31
0.0
  0
LINE
  5
503
330
1F
100
AcDbEntity
  8
DP-350_0_15_大阪支店
  6
CONTINUOUS
 62
    54
100
AcDbLine
 10
977.0999999999985
 20
52.20441558772811
 30
0.0
 11
974.0999999999981
 21
55.20441558772862
 31
0.0
  0
LINE
  5
504
330
1F
100
AcDbEntity
  8
DP-350_0_15_大阪支店
  6
CONTINUOUS
 62
    54
100
AcDbLine
 10
986.0999999999984
 20
44.05294372515192
 30
0.0
 11
983.0999999999981
 21
47.05294372515243
 31
0.0
  0
LINE
  5
505
330
1F
100
AcDbEntity
  8
DP-350_0_15_大阪支店
  6
CONTINUOUS
 62
    54
100
AcDbLine
 10
981.6000000000017
 20
48.55294372514885
 30
0.0
 11
978.5999999999972
 21
51.5529437251532
 31
0.0
  0
LINE
  5
506
330
1F
100
AcDbEntity
  8
DP-350_0_15_大阪支店
  6
CONTINUOUS
 62
    54
100
AcDbLine
 10
977.0999999999971
 20
53.05294372515345
 30
0.0
 11
974.0999999999965
 21
56.05294372515397
 31
0.0
  0
LINE
  5
507
330
1F
100
AcDbEntity
  8
DP-350_0_15_大阪支店
  6
CONTINUOUS
 62
    54
100
AcDbLine
 10
986.0999999999971
 20
44.90147186257735
 30
0.0
 11
983.0999999999964
 21
47.90147186257786
 31
0.0
  0
LINE
  5
508
330
1F
100
AcDbEntity
  8
DP-350_0_15_大阪支店
  6
CONTINUOUS
 62
    54
100
AcDbLine
 10
981.6000000000001
 20
49.4014718625742
 30
0.0
 11
978.5999999999997
 21
52.40147186257471
 31
0.0
  0
LINE
  5
509
330
1F
100
AcDbEntity
  8
DP-350_0_15_大阪支店
  6
CONTINUOUS
 62
    54
100
AcDbLine
 10
977.0999999999956
 20
53.90147186257889
 30
0.0
 11
974.0999999999988
 21
56.90147186257548
 31
0.0
  0
LINE
  5
50A
330
1F
100
AcDbEntity
  8
DP-350_0_15_大阪支店
  6
CONTINUOUS
 62
    54
100
AcDbLine
 10
986.0999999999992
 20
45.74999999999878
 30
0.0
 11
983.099999999995
 21
48.75000000000321
 31
0.0
  0
LINE
  5
50B
330
1F
100
AcDbEntity
  8
DP-350_0_15_大阪支店
  6
CONTINUOUS
 62
    54
100
AcDbLine
 10
981.5999999999984
 20
50.24999999999955
 30
0.0
 11
978.5999999999981
 21
53.25000000000006
 31
0.0
  0
LINE
  5
50C
330
1F
100
AcDbEntity
  8
DP-350_0_15_大阪支店
  6
CONTINUOUS
 62
    54
100
AcDbLine
 10
977.0999999999977
 20
54.75000000000031
 30
0.0
 11
974.0999999999933
 21
57.75000000000466
 31
0.0
  0
LINE
  5
50D
330
1F
100
AcDbEntity
  8
DP-350_0_15_大阪支店
  6
CONTINUOUS
 62
    54
100
AcDbLine
 10
986.0999999999977
 20
46.59852813742421
 30
0.0
 11
983.0999999999972
 21
49.59852813742472
 31
0.0
  0
LINE
  5
50E
330
1F
100
AcDbEntity
  8
DP-350_0_15_大阪支店
  6
CONTINUOUS
 62
    54
100
AcDbLine
 10
981.6000000000008
 20
51.09852813742114
 30
0.0
 11
978.5999999999964
 21
54.09852813742549
 31
0.0
  0
LINE
  5
50F
330
1F
100
AcDbEntity
  8
DP-350_0_15_大阪支店
  6
CONTINUOUS
 62
    54
100
AcDbLine
 10
977.0999999999963
 20
55.59852813742575
 30
0.0
 11
974.948528137415
 21
57.75000000000705
 31
0.0
  0
LINE
  5
510
330
1F
100
AcDbEntity
  8
DP-350_0_15_大阪支店
  6
CONTINUOUS
 62
    54
100
AcDbLine
 10
986.0999999999999
 20
47.44705627484572
 30
0.0
 11
983.0999999999957
 21
50.44705627485007
 31
0.0
  0
LINE
  5
511
330
1F
100
AcDbEntity
  8
DP-350_0_15_大阪支店
  6
CONTINUOUS
 62
    54
100
AcDbLine
 10
981.6000000000032
 20
51.94705627484265
 30
0.0
 11
978.5999999999949
 21
54.94705627485084
 31
0.0
  0
LINE
  5
512
330
1F
100
AcDbEntity
  8
DP-350_0_15_大阪支店
  6
CONTINUOUS
 62
    54
100
AcDbLine
 10
977.0999999999947
 20
56.44705627485109
 30
0.0
 11
975.7970562748403
 21
57.75000000000543
 31
0.0
  0
LINE
  5
513
330
1F
100
AcDbEntity
  8
DP-350_0_15_大阪支店
  6
CONTINUOUS
 62
    54
100
AcDbLine
 10
986.0999999999984
 20
48.29558441227115
 30
0.0
 11
983.0999999999981
 21
51.29558441227167
 31
0.0
  0
LINE
  5
514
330
1F
100
AcDbEntity
  8
DP-350_0_15_大阪支店
  6
CONTINUOUS
 62
    54
100
AcDbLine
 10
981.6000000000015
 20
52.795584412268
 30
0.0
 11
978.5999999999972
 21
55.79558441227243
 31
0.0
  0
LINE
  5
515
330
1F
100
AcDbEntity
  8
DP-350_0_15_大阪支店
  6
CONTINUOUS
 62
    54
100
AcDbLine
 10
977.1000000000008
 20
57.29558441226877
 30
0.0
 11
976.6455844122656
 21
57.75000000000389
 31
0.0
  0
LINE
  5
516
330
1F
100
AcDbEntity
  8
DP-350_0_15_大阪支店
  6
CONTINUOUS
 62
    54
100
AcDbLine
 10
986.099999999997
 20
49.1441125496965
 30
0.0
 11
983.1000000000001
 21
52.14411254969309
 31
0.0
  0
LINE
  5
517
330
1F
100
AcDbEntity
  8
DP-350_0_15_大阪支店
  6
CONTINUOUS
 62
    54
100
AcDbLine
 10
981.6000000000039
 20
53.64411254968951
 30
0.0
 11
978.5999999999995
 21
56.64411254969386
 31
0.0
  0
LINE
  5
518
330
1F
100
AcDbEntity
  8
DP-350_0_15_大阪支店
  6
CONTINUOUS
 62
    54
100
AcDbLine
 10
986.0999999999991
 20
49.99264068711801
 30
0.0
 11
983.0999999999988
 21
52.99264068711852
 31
0.0
  0
LINE
  5
519
330
1F
100
AcDbEntity
  8
DP-350_0_15_大阪支店
  6
CONTINUOUS
 62
    54
100
AcDbLine
 10
981.6000000000022
 20
54.49264068711494
 30
0.0
 11
978.5999999999979
 21
57.49264068711929
 31
0.0
  0
LINE
  5
51A
330
1F
100
AcDbEntity
  8
DP-350_0_15_大阪支店
  6
CONTINUOUS
 62
    54
100
AcDbLine
 10
986.0999999999976
 20
50.84116882454336
 30
0.0
 11
983.0999999999971
 21
53.84116882454387
 31
0.0
  0
LINE
  5
51B
330
1F
100
AcDbEntity
  8
DP-350_0_15_大阪支店
  6
CONTINUOUS
 62
    54
100
AcDbLine
 10
981.6000000000006
 20
55.34116882454029
 30
0.0
 11
979.1911688245418
 21
57.7499999999992
 31
0.0
  0
LINE
  5
51C
330
1F
100
AcDbEntity
  8
DP-350_0_15_大阪支店
  6
CONTINUOUS
 62
    54
100
AcDbLine
 10
986.099999999996
 20
51.68969696196879
 30
0.0
 11
983.0999999999956
 21
54.6896969619693
 31
0.0
  0
LINE
  5
51D
330
1F
100
AcDbEntity
  8
DP-350_0_15_大阪支店
  6
CONTINUOUS
 62
    54
100
AcDbLine
 10
981.5999999999991
 20
56.18969696196572
 30
0.0
 11
980.0396969619633
 21
57.75000000000151
 31
0.0
  0
LINE
  5
51E
330
1F
100
AcDbEntity
  8
DP-350_0_15_大阪支店
  6
CONTINUOUS
 62
    54
100
AcDbLine
 10
986.1000000000022
 20
52.53822509938638
 30
0.0
 11
983.0999999999977
 21
55.53822509939081
 31
0.0
  0
LINE
  5
51F
330
1F
100
AcDbEntity
  8
DP-350_0_15_大阪支店
  6
CONTINUOUS
 62
    54
100
AcDbLine
 10
981.6000000000015
 20
57.03822509938715
 30
0.0
 11
980.8882250993886
 21
57.74999999999989
 31
0.0
  0
LINE
  5
520
330
1F
100
AcDbEntity
  8
DP-350_0_15_大阪支店
  6
CONTINUOUS
 62
    54
100
AcDbLine
 10
986.1000000000006
 20
53.38675323681181
 30
0.0
 11
983.0999999999964
 21
56.38675323681616
 31
0.0
  0
LINE
  5
521
330
1F
100
AcDbEntity
  8
DP-350_0_15_大阪支店
  6
CONTINUOUS
 62
    54
100
AcDbLine
 10
986.0999999999991
 20
54.23528137423716
 30
0.0
 11
983.0999999999947
 21
57.23528137424151
 31
0.0
  0
LINE
  5
522
330
1F
100
AcDbEntity
  8
DP-350_0_15_大阪支店
  6
CONTINUOUS
 62
    54
100
AcDbLine
 10
986.1000000000013
 20
55.08380951165867
 30
0.0
 11
983.433809511657
 21
57.75000000000287
 31
0.0
  0
LINE
  5
523
330
1F
100
AcDbEntity
  8
DP-350_0_15_大阪支店
  6
CONTINUOUS
 62
    54
100
AcDbLine
 10
986.0999999999998
 20
55.9323376490841
 30
0.0
 11
984.2823376490825
 21
57.75000000000134
 31
0.0
  0
LINE
  5
524
330
1F
100
AcDbEntity
  8
DP-350_0_15_大阪支店
  6
CONTINUOUS
 62
    54
100
AcDbLine
 10
986.0999999999981
 20
56.78086578650937
 30
0.0
 11
985.1308657865079
 21
57.74999999999972
 31
0.0
  0
LINE
  5
525
330
1F
100
AcDbEntity
  8
DP-350_0_15_大阪支店
  6
CONTINUOUS
 62
    54
100
AcDbLine
 10
986.0999999999967
 20
57.6293939239348
 30
0.0
 11
985.9793939239294
 21
57.7500000000021
 31
0.0
  0
LINE
  5
526
330
1F
100
AcDbEntity
  8
DP-350_0_15_大阪支店
  6
CONTINUOUS
 62
    54
100
AcDbLine
 10
987.632914449508
 20
55.19317415995269
 30
0.0
 11
990.1568258400491
 21
57.71708555049386
 31
0.0
  0
LINE
  5
527
330
1F
100
AcDbEntity
  8
DP-350_0_15_大阪支店
  6
CONTINUOUS
 62
    54
100
AcDbLine
 10
987.6000000000018
 20
54.31173157302277
 30
0.0
 11
991.0382684269791
 21
57.74999999999989
 31
0.0
  0
LINE
  5
528
330
1F
100
AcDbEntity
  8
DP-350_0_15_大阪支店
  6
CONTINUOUS
 62
    54
100
AcDbLine
 10
987.6000000000004
 20
53.46320343559742
 30
0.0
 11
991.8867965644083
 21
57.75000000000534
 31
0.0
  0
LINE
  5
529
330
1F
100
AcDbEntity
  8
DP-350_0_15_大阪支店
  6
CONTINUOUS
 62
    54
100
AcDbLine
 10
987.6000000000026
 20
52.61467529817591
 30
0.0
 11
992.6789339607301
 21
57.69360925890325
 31
0.0
  0
LINE
  5
52A
330
1F
100
AcDbEntity
  8
DP-350_0_15_大阪支店
  6
CONTINUOUS
 62
    54
100
AcDbLine
 10
987.6000000000049
 20
51.7661471607544
 30
0.0
 11
993.3231695765163
 21
57.48931673726571
 31
0.0
  0
LINE
  5
52B
330
1F
100
AcDbEntity
  8
DP-350_0_15_大阪支店
  6
CONTINUOUS
 62
    54
100
AcDbLine
 10
987.5999999999995
 20
50.91761902332513
 30
0.0
 11
990.5999999999997
 21
53.91761902332523
 31
0.0
  0
LINE
  5
52C
330
1F
100
AcDbEntity
  8
DP-350_0_15_大阪支店
  6
CONTINUOUS
 62
    54
100
AcDbLine
 10
987.6000000000018
 20
50.06909088590371
 30
0.0
 11
990.5999999999997
 21
53.06909088590146
 31
0.0
  0
LINE
  5
52D
330
1F
100
AcDbEntity
  8
DP-350_0_15_大阪支店
  6
CONTINUOUS
 62
    54
100
AcDbLine
 10
987.6000000000004
 20
49.22056274847827
 30
0.0
 11
990.5999999999997
 21
52.22056274847768
 31
0.0
  0
LINE
  5
52E
330
1F
100
AcDbEntity
  8
DP-350_0_15_大阪支店
  6
CONTINUOUS
 62
    54
100
AcDbLine
 10
987.6000000000025
 20
48.37203461105676
 30
0.0
 11
990.5999999999997
 21
51.37203461105383
 31
0.0
  0
LINE
  5
52F
330
1F
100
AcDbEntity
  8
DP-350_0_15_大阪支店
  6
CONTINUOUS
 62
    54
100
AcDbLine
 10
987.600000000001
 20
47.52350647363133
 30
0.0
 11
990.5999999999997
 21
50.52350647362996
 31
0.0
  0
LINE
  5
530
330
1F
100
AcDbEntity
  8
DP-350_0_15_大阪支店
  6
CONTINUOUS
 62
    54
100
AcDbLine
 10
987.6000000000032
 20
46.6749783362099
 30
0.0
 11
990.5999999999997
 21
49.67497833620628
 31
0.0
  0
LINE
  5
531
330
1F
100
AcDbEntity
  8
DP-350_0_15_大阪支店
  6
CONTINUOUS
 62
    54
100
AcDbLine
 10
987.6000000000018
 20
45.82645019878456
 30
0.0
 11
990.5999999999997
 21
48.82645019878238
 31
0.0
  0
LINE
  5
532
330
1F
100
AcDbEntity
  8
DP-350_0_15_大阪支店
  6
CONTINUOUS
 62
    54
100
AcDbLine
 10
987.6000000000001
 20
44.97792206135912
 30
0.0
 11
990.5999999999997
 21
47.97792206135865
 31
0.0
  0
LINE
  5
533
330
1F
100
AcDbEntity
  8
DP-350_0_15_大阪支店
  6
CONTINUOUS
 62
    54
100
AcDbLine
 10
987.6000000000025
 20
44.12939392393761
 30
0.0
 11
990.5999999999997
 21
47.12939392393477
 31
0.0
  0
LINE
  5
534
330
1F
100
AcDbEntity
  8
DP-350_0_15_大阪支店
  6
CONTINUOUS
 62
    54
100
AcDbLine
 10
987.6000000000008
 20
43.28086578651218
 30
0.0
 11
990.5999999999997
 21
46.28086578651099
 31
0.0
  0
LINE
  5
535
330
1F
100
AcDbEntity
  8
DP-350_0_15_大阪支店
  6
CONTINUOUS
 62
    54
100
AcDbLine
 10
987.6000000000032
 20
42.43233764909075
 30
0.0
 11
990.5999999999997
 21
45.43233764908722
 31
0.0
  0
LINE
  5
536
330
1F
100
AcDbEntity
  8
DP-350_0_15_大阪支店
  6
CONTINUOUS
 62
    54
100
AcDbLine
 10
987.6000000000015
 20
41.58380951166532
 30
0.0
 11
990.5999999999997
 21
44.58380951166345
 31
0.0
  0
LINE
  5
537
330
1F
100
AcDbEntity
  8
DP-350_0_15_大阪支店
  6
CONTINUOUS
 62
    54
100
AcDbLine
 10
987.6000000000001
 20
40.73528137423997
 30
0.0
 11
990.5999999999997
 21
43.73528137423952
 31
0.0
  0
LINE
  5
538
330
1F
100
AcDbEntity
  8
DP-350_0_15_大阪支店
  6
CONTINUOUS
 62
    54
100
AcDbLine
 10
987.6000000000022
 20
39.88675323681838
 30
0.0
 11
990.5999999999997
 21
42.88675323681575
 31
0.0
  0
LINE
  5
539
330
1F
100
AcDbEntity
  8
DP-350_0_15_大阪支店
  6
CONTINUOUS
 62
    54
100
AcDbLine
 10
987.6000000000008
 20
39.03822509939312
 30
0.0
 11
990.5999999999997
 21
42.03822509939197
 31
0.0
  0
LINE
  5
53A
330
1F
100
AcDbEntity
  8
DP-350_0_15_大阪支店
  6
CONTINUOUS
 62
    54
100
AcDbLine
 10
987.6000000000031
 20
38.18969696197152
 30
0.0
 11
990.5999999999997
 21
41.18969696196811
 31
0.0
  0
LINE
  5
53B
330
1F
100
AcDbEntity
  8
DP-350_0_15_大阪支店
  6
CONTINUOUS
 62
    54
100
AcDbLine
 10
987.5999999999977
 20
37.34116882454234
 30
0.0
 11
990.5999999999997
 21
40.34116882454425
 31
0.0
  0
LINE
  5
53C
330
1F
100
AcDbEntity
  8
DP-350_0_15_大阪支店
  6
CONTINUOUS
 62
    54
100
AcDbLine
 10
987.5999999999998
 20
36.49264068712074
 30
0.0
 11
990.8573593128825
 21
39.75000000000342
 31
0.0
  0
LINE
  5
53D
330
1F
100
AcDbEntity
  8
DP-350_0_15_大阪支店
  6
CONTINUOUS
 62
    54
100
AcDbLine
 10
987.6000000000022
 20
35.64411254969932
 30
0.0
 11
991.7058874503062
 21
39.75000000000342
 31
0.0
  0
LINE
  5
53E
330
1F
100
AcDbEntity
  8
DP-350_0_15_大阪支店
  6
CONTINUOUS
 62
    54
100
AcDbLine
 10
987.6000000000046
 20
34.79558441227772
 30
0.0
 11
995.0999999999981
 21
42.29558441227124
 31
0.0
  0
LINE
  5
53F
330
1F
100
AcDbEntity
  8
DP-350_0_15_大阪支店
  6
CONTINUOUS
 62
    54
100
AcDbLine
 10
987.6000000000029
 20
33.94705627485237
 30
0.0
 11
995.1000000000004
 21
41.44705627484981
 31
0.0
  0
LINE
  5
540
330
1F
100
AcDbEntity
  8
DP-350_0_15_大阪支店
  6
CONTINUOUS
 62
    54
100
AcDbLine
 10
987.6000000000053
 20
33.09852813743086
 30
0.0
 11
990.6000000000018
 21
36.09852813742745
 31
0.0
  0
LINE
  5
541
330
1F
100
AcDbEntity
  8
DP-350_0_15_大阪支店
  6
CONTINUOUS
 62
    54
100
AcDbLine
 10
991.2514718625753
 20
36.75000000000082
 30
0.0
 11
995.0999999999988
 21
40.59852813742438
 31
0.0
  0
LINE
  5
542
330
1F
100
AcDbEntity
  8
DP-350_0_15_大阪支店
  6
CONTINUOUS
 62
    54
100
AcDbLine
 10
987.5999999999998
 20
32.25000000000159
 30
0.0
 11
990.6000000000042
 21
35.25000000000603
 31
0.0
  0
LINE
  5
543
330
1F
100
AcDbEntity
  8
DP-350_0_15_大阪支店
  6
CONTINUOUS
 62
    54
100
AcDbLine
 10
992.0999999999967
 20
36.74999999999852
 30
0.0
 11
995.0999999999971
 21
39.74999999999903
 31
0.0
  0
LINE
  5
544
330
1F
100
AcDbEntity
  8
DP-350_0_15_大阪支店
  6
CONTINUOUS
 62
    54
100
AcDbLine
 10
988.4485281374214
 20
32.24999999999929
 30
0.0
 11
990.5999999999988
 21
34.40147186257676
 31
0.0
  0
LINE
  5
545
330
1F
100
AcDbEntity
  8
DP-350_0_15_大阪支店
  6
CONTINUOUS
 62
    54
100
AcDbLine
 10
992.0999999999991
 20
35.90147186257701
 30
0.0
 11
995.0999999999957
 21
38.9014718625736
 31
0.0
  0
LINE
  5
546
330
1F
100
AcDbEntity
  8
DP-350_0_15_大阪支店
  6
CONTINUOUS
 62
    54
100
AcDbLine
 10
989.2970562748505
 20
32.25000000000475
 30
0.0
 11
990.600000000001
 21
33.55294372515525
 31
0.0
  0
LINE
  5
547
330
1F
100
AcDbEntity
  8
DP-350_0_15_大阪支店
  6
CONTINUOUS
 62
    54
100
AcDbLine
 10
992.0999999999974
 20
35.05294372515166
 30
0.0
 11
995.0999999999979
 21
38.05294372515218
 31
0.0
  0
LINE
  5
548
330
1F
100
AcDbEntity
  8
DP-350_0_15_大阪支店
  6
CONTINUOUS
 62
    54
100
AcDbLine
 10
990.145584412272
 20
32.25000000000244
 30
0.0
 11
990.6000000000032
 21
32.70441558773365
 31
0.0
  0
LINE
  5
549
330
1F
100
AcDbEntity
  8
DP-350_0_15_大阪支店
  6
CONTINUOUS
 62
    54
100
AcDbLine
 10
992.0999999999958
 20
34.20441558772623
 30
0.0
 11
995.1000000000001
 21
37.20441558773058
 31
0.0
  0
LINE
  5
54A
330
1F
100
AcDbEntity
  8
DP-350_0_15_大阪支店
  6
CONTINUOUS
 62
    54
100
AcDbLine
 10
992.0999999999981
 20
33.35588745030472
 30
0.0
 11
995.0999999999985
 21
36.35588745030523
 31
0.0
  0
LINE
  5
54B
330
1F
100
AcDbEntity
  8
DP-350_0_15_大阪支店
  6
CONTINUOUS
 62
    54
100
AcDbLine
 10
992.0999999999965
 20
32.50735931287929
 30
0.0
 11
995.0999999999971
 21
35.5073593128798
 31
0.0
  0
LINE
  5
54C
330
1F
100
AcDbEntity
  8
DP-350_0_15_大阪支店
  6
CONTINUOUS
 62
    54
100
AcDbLine
 10
992.6911688245367
 20
32.24999999999562
 30
0.0
 11
995.0999999999954
 21
34.65883117545445
 31
0.0
  0
LINE
  5
54D
330
1F
100
AcDbEntity
  8
DP-350_0_15_大阪支店
  6
CONTINUOUS
 62
    54
100
AcDbLine
 10
993.5396969619619
 20
32.24999999999716
 30
0.0
 11
995.0999999999977
 21
33.81030303803303
 31
0.0
  0
LINE
  5
54E
330
1F
100
AcDbEntity
  8
DP-350_0_15_大阪支店
  6
CONTINUOUS
 62
    54
100
AcDbLine
 10
994.3882250993872
 20
32.24999999999869
 30
0.0
 11
995.0999999999963
 21
32.96177490060759
 31
0.0
  0
LINE
  5
54F
330
1F
100
AcDbEntity
  8
DP-350_0_15_大阪支店
  6
CONTINUOUS
 62
    54
100
AcDbLine
 10
988.4485281374189
 20
32.25000000000441
 30
0.0
 11
987.5999999999998
 21
33.09852813742361
 31
0.0
  0
LINE
  5
550
330
1F
100
AcDbEntity
  8
DP-350_0_15_大阪支店
  6
CONTINUOUS
 62
    54
100
AcDbLine
 10
989.2970562748444
 20
32.25000000000287
 30
0.0
 11
987.600000000002
 21
33.94705627484521
 31
0.0
  0
LINE
  5
551
330
1F
100
AcDbEntity
  8
DP-350_0_15_大阪支店
  6
CONTINUOUS
 62
    54
100
AcDbLine
 10
990.1455844122659
 20
32.25000000000517
 30
0.0
 11
987.6000000000005
 21
34.79558441227056
 31
0.0
  0
LINE
  5
552
330
1F
100
AcDbEntity
  8
DP-350_0_15_大阪支店
  6
CONTINUOUS
 62
    54
100
AcDbLine
 10
990.5999999999995
 20
32.64411254969548
 30
0.0
 11
987.6000000000029
 21
35.64411254969215
 31
0.0
  0
LINE
  5
553
330
1F
100
AcDbEntity
  8
DP-350_0_15_大阪支店
  6
CONTINUOUS
 62
    54
100
AcDbLine
 10
990.6000000000017
 20
33.4926406871169
 30
0.0
 11
987.6000000000012
 21
36.49264068711742
 31
0.0
  0
LINE
  5
554
330
1F
100
AcDbEntity
  8
DP-350_0_15_大阪支店
  6
CONTINUOUS
 62
    54
100
AcDbLine
 10
992.691168824542
 20
32.25000000000048
 30
0.0
 11
992.1000000000005
 21
32.84116882454208
 31
0.0
  0
LINE
  5
555
330
1F
100
AcDbEntity
  8
DP-350_0_15_大阪支店
  6
CONTINUOUS
 62
    54
100
AcDbLine
 10
990.6000000000001
 20
34.34116882454234
 30
0.0
 11
987.5999999999997
 21
37.34116882454285
 31
0.0
  0
LINE
  5
556
330
1F
100
AcDbEntity
  8
DP-350_0_15_大阪支店
  6
CONTINUOUS
 62
    54
100
AcDbLine
 10
993.5396969619635
 20
32.25000000000279
 30
0.0
 11
992.099999999995
 21
33.68969696197126
 31
0.0
  0
LINE
  5
557
330
1F
100
AcDbEntity
  8
DP-350_0_15_大阪支店
  6
CONTINUOUS
 62
    54
100
AcDbLine
 10
990.5999999999984
 20
35.18969696196768
 30
0.0
 11
987.6000000000018
 21
38.18969696196436
 31
0.0
  0
LINE
  5
558
330
1F
100
AcDbEntity
  8
DP-350_0_15_大阪支店
  6
CONTINUOUS
 62
    54
100
AcDbLine
 10
994.3882250993889
 20
32.25000000000125
 30
0.0
 11
992.0999999999972
 21
34.53822509939286
 31
0.0
  0
LINE
  5
559
330
1F
100
AcDbEntity
  8
DP-350_0_15_大阪支店
  6
CONTINUOUS
 62
    54
100
AcDbLine
 10
990.5999999999971
 20
36.03822509939312
 30
0.0
 11
987.6000000000005
 21
39.03822509938979
 31
0.0
  0
LINE
  5
55A
330
1F
100
AcDbEntity
  8
DP-350_0_15_大阪支店
  6
CONTINUOUS
 62
    54
100
AcDbLine
 10
995.099999999996
 20
32.3867532368177
 30
0.0
 11
992.0999999999995
 21
35.38675323681437
 31
0.0
  0
LINE
  5
55B
330
1F
100
AcDbEntity
  8
DP-350_0_15_大阪支店
  6
CONTINUOUS
 62
    54
100
AcDbLine
 10
990.7367532368174
 20
36.74999999999656
 30
0.0
 11
987.5999999999988
 21
39.88675323681514
 31
0.0
  0
LINE
  5
55C
330
1F
100
AcDbEntity
  8
DP-350_0_15_大阪支店
  6
CONTINUOUS
 62
    54
100
AcDbLine
 10
995.0999999999984
 20
33.23528137423929
 30
0.0
 11
992.0999999999981
 21
36.2352813742398
 31
0.0
  0
LINE
  5
55D
330
1F
100
AcDbEntity
  8
DP-350_0_15_大阪支店
  6
CONTINUOUS
 62
    54
100
AcDbLine
 10
991.5852813742388
 20
36.74999999999886
 30
0.0
 11
987.6000000000049
 21
40.73528137423281
 31
0.0
  0
LINE
  5
55E
330
1F
100
AcDbEntity
  8
DP-350_0_15_大阪支店
  6
CONTINUOUS
 62
    54
100
AcDbLine
 10
995.099999999997
 20
34.08380951166455
 30
0.0
 11
987.6000000000032
 21
41.58380951165816
 31
0.0
  0
LINE
  5
55F
330
1F
100
AcDbEntity
  8
DP-350_0_15_大阪支店
  6
CONTINUOUS
 62
    54
100
AcDbLine
 10
995.0999999999991
 20
34.93233764908615
 30
0.0
 11
987.6000000000018
 21
42.43233764908359
 31
0.0
  0
LINE
  5
560
330
1F
100
AcDbEntity
  8
DP-350_0_15_大阪支店
  6
CONTINUOUS
 62
    54
100
AcDbLine
 10
995.0999999999976
 20
35.7808657865115
 30
0.0
 11
991.1308657865055
 21
39.75000000000342
 31
0.0
  0
LINE
  5
561
330
1F
100
AcDbEntity
  8
DP-350_0_15_大阪支店
  6
CONTINUOUS
 62
    54
100
AcDbLine
 10
995.099999999996
 20
36.62939392393693
 30
0.0
 11
991.9793939239296
 21
39.75000000000342
 31
0.0
  0
LINE
  5
562
330
1F
100
AcDbEntity
  8
DP-350_0_15_大阪支店
  6
CONTINUOUS
 62
    54
100
AcDbLine
 10
995.0999999999984
 20
37.47792206135836
 30
0.0
 11
992.0999999999997
 21
40.47792206135703
 31
0.0
  0
LINE
  5
563
330
1F
100
AcDbEntity
  8
DP-350_0_15_大阪支店
  6
CONTINUOUS
 62
    54
100
AcDbLine
 10
995.1000000000005
 20
38.32645019877987
 30
0.0
 11
992.0999999999997
 21
41.32645019878076
 31
0.0
  0
LINE
  5
564
330
1F
100
AcDbEntity
  8
DP-350_0_15_大阪支店
  6
CONTINUOUS
 62
    54
100
AcDbLine
 10
995.0999999999991
 20
39.17497833620538
 30
0.0
 11
992.0999999999997
 21
42.17497833620489
 31
0.0
  0
LINE
  5
565
330
1F
100
AcDbEntity
  8
DP-350_0_15_大阪支店
  6
CONTINUOUS
 62
    54
100
AcDbLine
 10
995.0999999999976
 20
40.02350647363073
 30
0.0
 11
992.0999999999997
 21
43.02350647362866
 31
0.0
  0
LINE
  5
566
330
1F
100
AcDbEntity
  8
DP-350_0_15_大阪支店
  6
CONTINUOUS
 62
    54
100
AcDbLine
 10
995.099999999996
 20
40.87203461105616
 30
0.0
 11
992.0999999999997
 21
43.87203461105258
 31
0.0
  0
LINE
  5
567
330
1F
100
AcDbEntity
  8
DP-350_0_15_大阪支店
  6
CONTINUOUS
 62
    54
100
AcDbLine
 10
995.0999999999983
 20
41.72056274847759
 30
0.0
 11
992.0999999999997
 21
44.72056274847627
 31
0.0
  0
LINE
  5
568
330
1F
100
AcDbEntity
  8
DP-350_0_15_大阪支店
  6
CONTINUOUS
 62
    54
100
AcDbLine
 10
995.0999999999967
 20
42.56909088590302
 30
0.0
 11
992.0999999999997
 21
45.56909088590014
 31
0.0
  0
LINE
  5
569
330
1F
100
AcDbEntity
  8
DP-350_0_15_大阪支店
  6
CONTINUOUS
 62
    54
100
AcDbLine
 10
995.099999999995
 20
43.41761902332837
 30
0.0
 11
992.0999999999997
 21
46.41761902332382
 31
0.0
  0
LINE
  5
56A
330
1F
100
AcDbEntity
  8
DP-350_0_15_大阪支店
  6
CONTINUOUS
 62
    54
100
AcDbLine
 10
995.1000000000013
 20
44.26614716074604
 30
0.0
 11
992.0999999999997
 21
47.26614716074776
 31
0.0
  0
LINE
  5
56B
330
1F
100
AcDbEntity
  8
DP-350_0_15_大阪支店
  6
CONTINUOUS
 62
    54
100
AcDbLine
 10
995.0999999999998
 20
45.11467529817139
 30
0.0
 11
992.0999999999997
 21
48.11467529817153
 31
0.0
  0
LINE
  5
56C
330
1F
100
AcDbEntity
  8
DP-350_0_15_大阪支店
  6
CONTINUOUS
 62
    54
100
AcDbLine
 10
995.0999999999981
 20
45.96320343559674
 30
0.0
 11
992.0999999999997
 21
48.9632034355953
 31
0.0
  0
LINE
  5
56D
330
1F
100
AcDbEntity
  8
DP-350_0_15_大阪支店
  6
CONTINUOUS
 62
    54
100
AcDbLine
 10
995.1000000000005
 20
46.81173157301833
 30
0.0
 11
992.0999999999997
 21
49.81173157301915
 31
0.0
  0
LINE
  5
56E
330
1F
100
AcDbEntity
  8
DP-350_0_15_大阪支店
  6
CONTINUOUS
 62
    54
100
AcDbLine
 10
995.0999999999988
 20
47.6602597104436
 30
0.0
 11
992.0999999999997
 21
50.66025971044287
 31
0.0
  0
LINE
  5
56F
330
1F
100
AcDbEntity
  8
DP-350_0_15_大阪支店
  6
CONTINUOUS
 62
    54
100
AcDbLine
 10
995.0999999999974
 20
48.50878784786903
 30
0.0
 11
992.0999999999997
 21
51.50878784786678
 31
0.0
  0
LINE
  5
570
330
1F
100
AcDbEntity
  8
DP-350_0_15_大阪支店
  6
CONTINUOUS
 62
    54
100
AcDbLine
 10
995.0999999999995
 20
49.35731598529054
 30
0.0
 11
992.0999999999997
 21
52.35731598529041
 31
0.0
  0
LINE
  5
571
330
1F
100
AcDbEntity
  8
DP-350_0_15_大阪支店
  6
CONTINUOUS
 62
    54
100
AcDbLine
 10
995.0999999999981
 20
50.20584412271597
 30
0.0
 11
992.0999999999997
 21
53.2058441227144
 31
0.0
  0
LINE
  5
572
330
1F
100
AcDbEntity
  8
DP-350_0_15_大阪支店
  6
CONTINUOUS
 62
    54
100
AcDbLine
 10
995.1000000000004
 20
51.0543722601374
 30
0.0
 11
992.0978685229964
 21
54.05650373714134
 31
0.0
  0
LINE
  5
573
330
1F
100
AcDbEntity
  8
DP-350_0_15_大阪支店
  6
CONTINUOUS
 62
    54
100
AcDbLine
 10
995.0999999999988
 20
51.90290039756283
 30
0.0
 11
989.472740888537
 21
57.53015950902457
 31
0.0
  0
LINE
  5
574
330
1F
100
AcDbEntity
  8
DP-350_0_15_大阪支店
  6
CONTINUOUS
 62
    54
100
AcDbLine
 10
995.0999999999971
 20
52.75142853498818
 30
0.0
 11
990.1373217785748
 21
57.71410675641044
 31
0.0
  0
LINE
  5
575
330
1F
100
AcDbEntity
  8
DP-350_0_15_大阪支店
  6
CONTINUOUS
 62
    54
100
AcDbLine
 10
995.0999999999995
 20
53.59995667240977
 30
0.0
 11
990.9499566724058
 21
57.75000000000338
 31
0.0
  0
LINE
  5
576
330
1F
100
AcDbEntity
  8
DP-350_0_15_大阪支店
  6
CONTINUOUS
 62
    54
100
AcDbLine
 10
995.0999999999979
 20
54.44848480983512
 30
0.0
 11
991.7984848098313
 21
57.75000000000176
 31
0.0
  0
LINE
  5
577
330
1F
100
AcDbEntity
  8
DP-350_0_15_大阪支店
  6
CONTINUOUS
 62
    54
100
AcDbLine
 10
995.037411447413
 20
55.35960149984379
 30
0.0
 11
992.7096014998439
 21
57.68741144741315
 31
0.0
  0
LINE
  5
578
330
1F
100
AcDbEntity
  8
DP-350_0_15_大阪支店
  6
CONTINUOUS
 62
    54
100
AcDbLine
 10
991.418376618406
 20
54.73599564173165
 30
0.0
 11
993.8610821824137
 21
57.17870120573923
 31
0.0
  0
LINE
  5
579
330
1F
100
AcDbEntity
  8
DP-350_0_15_大阪支店
  6
CONTINUOUS
 62
    54
100
AcDbLine
 10
991.418376618406
 20
54.73599564173165
 30
0.0
 11
988.9193404044361
 21
57.23503185570158
 31
0.0
  0
LINE
  5
57A
330
1F
100
AcDbEntity
  8
DP-350_0_15_大阪支店
  6
CONTINUOUS
 62
    54
100
AcDbLine
 10
991.9630136188869
 20
54.43210450478873
 30
0.0
 11
994.3098455009523
 21
56.77893638685407
 31
0.0
  0
LINE
  5
57B
330
1F
100
AcDbEntity
  8
DP-350_0_15_大阪支店
  6
CONTINUOUS
 62
    54
100
AcDbLine
 10
992.0999999999997
 20
53.72056274847765
 30
0.0
 11
994.6726459170643
 21
56.29320866554235
 31
0.0
  0
LINE
  5
57C
330
1F
100
AcDbEntity
  8
DP-350_0_15_大阪支店
  6
CONTINUOUS
 62
    54
100
AcDbLine
 10
992.0999999999997
 20
52.87203461105386
 30
0.0
 11
994.9411686736775
 21
55.71320328473169
 31
0.0
  0
LINE
  5
57D
330
1F
100
AcDbEntity
  8
DP-350_0_15_大阪支店
  6
CONTINUOUS
 62
    54
100
AcDbLine
 10
990.7980517332335
 20
54.50779238948043
 30
0.0
 11
988.4567166105275
 21
56.84912751218653
 31
0.0
  0
LINE
  5
57E
330
1F
100
AcDbEntity
  8
DP-350_0_15_大阪支店
  6
CONTINUOUS
 62
    54
100
AcDbLine
 10
990.5999999999997
 20
53.85731598529043
 30
0.0
 11
988.0798260774509
 21
56.37748990783919
 31
0.0
  0
LINE
  5
57F
330
1F
100
AcDbEntity
  8
DP-350_0_15_大阪支店
  6
CONTINUOUS
 62
    54
100
AcDbLine
 10
990.5999999999997
 20
53.00878784786677
 30
0.0
 11
987.794957297852
 21
55.81383055001439
 31
0.0
  0
LINE
  5
580
330
1F
100
AcDbEntity
  8
DP-350_0_15_大阪支店
  6
CONTINUOUS
 62
    54
100
AcDbLine
 10
990.5999999999997
 20
52.16025971044284
 30
0.0
 11
987.6248586544434
 21
55.13540105599913
 31
0.0
  0
LINE
  5
581
330
1F
100
AcDbEntity
  8
DP-350_0_15_大阪支店
  6
CONTINUOUS
 62
    54
100
AcDbLine
 10
990.5999999999997
 20
51.31173157301915
 30
0.0
 11
987.6000000000031
 21
54.31173157301569
 31
0.0
  0
LINE
  5
582
330
1F
100
AcDbEntity
  8
DP-350_0_15_大阪支店
  6
CONTINUOUS
 62
    54
100
AcDbLine
 10
990.5999999999997
 20
50.4632034355953
 30
0.0
 11
987.6000000000008
 21
53.46320343559418
 31
0.0
  0
LINE
  5
583
330
1F
100
AcDbEntity
  8
DP-350_0_15_大阪支店
  6
CONTINUOUS
 62
    54
100
AcDbLine
 10
990.5999999999997
 20
49.61467529817156
 30
0.0
 11
987.6000000000024
 21
52.61467529816883
 31
0.0
  0
LINE
  5
584
330
1F
100
AcDbEntity
  8
DP-350_0_15_大阪支店
  6
CONTINUOUS
 62
    54
100
AcDbLine
 10
990.5999999999997
 20
48.76614716074775
 30
0.0
 11
987.6000000000039
 21
51.76614716074349
 31
0.0
  0
LINE
  5
585
330
1F
100
AcDbEntity
  8
DP-350_0_15_大阪支店
  6
CONTINUOUS
 62
    54
100
AcDbLine
 10
990.5999999999997
 20
47.91761902332377
 30
0.0
 11
987.6000000000015
 21
50.91761902332189
 31
0.0
  0
LINE
  5
586
330
1F
100
AcDbEntity
  8
DP-350_0_15_大阪支店
  6
CONTINUOUS
 62
    54
100
AcDbLine
 10
990.5999999999997
 20
47.06909088590022
 30
0.0
 11
987.5999999999995
 21
50.06909088590047
 31
0.0
  0
LINE
  5
587
330
1F
100
AcDbEntity
  8
DP-350_0_15_大阪支店
  6
CONTINUOUS
 62
    54
100
AcDbLine
 10
990.5999999999997
 20
46.22056274847623
 30
0.0
 11
987.6000000000008
 21
49.22056274847503
 31
0.0
  0
LINE
  5
588
330
1F
100
AcDbEntity
  8
DP-350_0_15_大阪支店
  6
CONTINUOUS
 62
    54
100
AcDbLine
 10
990.5999999999997
 20
45.37203461105258
 30
0.0
 11
987.6000000000025
 21
48.37203461104968
 31
0.0
  0
LINE
  5
589
330
1F
100
AcDbEntity
  8
DP-350_0_15_大阪支店
  6
CONTINUOUS
 62
    54
100
AcDbLine
 10
990.5999999999997
 20
44.52350647362857
 30
0.0
 11
987.6000000000039
 21
47.52350647362425
 31
0.0
  0
LINE
  5
58A
330
1F
100
AcDbEntity
  8
DP-350_0_15_大阪支店
  6
CONTINUOUS
 62
    54
100
AcDbLine
 10
990.5999999999997
 20
43.67497833620492
 30
0.0
 11
987.6000000000018
 21
46.67497833620274
 31
0.0
  0
LINE
  5
58B
330
1F
100
AcDbEntity
  8
DP-350_0_15_大阪支店
  6
CONTINUOUS
 62
    54
100
AcDbLine
 10
990.5999999999997
 20
42.82645019878082
 30
0.0
 11
987.6000000000032
 21
45.82645019877731
 31
0.0
  0
LINE
  5
58C
330
1F
100
AcDbEntity
  8
DP-350_0_15_大阪支店
  6
CONTINUOUS
 62
    54
100
AcDbLine
 10
990.5999999999997
 20
41.97792206135705
 30
0.0
 11
987.6000000000008
 21
44.9779220613558
 31
0.0
  0
LINE
  5
58D
330
1F
100
AcDbEntity
  8
DP-350_0_15_大阪支店
  6
CONTINUOUS
 62
    54
100
AcDbLine
 10
990.5999999999997
 20
41.12939392393335
 30
0.0
 11
987.6000000000025
 21
44.12939392393045
 31
0.0
  0
LINE
  5
58E
330
1F
100
AcDbEntity
  8
DP-350_0_15_大阪支店
  6
CONTINUOUS
 62
    54
100
AcDbLine
 10
990.5999999999997
 20
40.28086578650945
 30
0.0
 11
987.600000000004
 21
43.28086578650502
 31
0.0
  0
LINE
  5
58F
330
1F
100
AcDbEntity
  8
DP-350_0_15_大阪支店
  6
CONTINUOUS
 62
    54
100
AcDbLine
 10
992.0999999999997
 20
40.1441125496968
 30
0.0
 11
995.0999999999995
 21
43.14411254969667
 31
0.0
  0
LINE
  5
590
330
1F
100
AcDbEntity
  8
DP-350_0_15_大阪支店
  6
CONTINUOUS
 62
    54
100
AcDbLine
 10
992.0999999999997
 20
40.99264068712048
 30
0.0
 11
995.0999999999974
 21
43.99264068711818
 31
0.0
  0
LINE
  5
591
330
1F
100
AcDbEntity
  8
DP-350_0_15_大阪支店
  6
CONTINUOUS
 62
    54
100
AcDbLine
 10
992.0999999999997
 20
41.84116882454425
 30
0.0
 11
995.099999999995
 21
44.84116882453969
 31
0.0
  0
LINE
  5
592
330
1F
100
AcDbEntity
  8
DP-350_0_15_大阪支店
  6
CONTINUOUS
 62
    54
100
AcDbLine
 10
992.0999999999997
 20
42.68969696196812
 30
0.0
 11
995.1000000000005
 21
45.68969696196896
 31
0.0
  0
LINE
  5
593
330
1F
100
AcDbEntity
  8
DP-350_0_15_大阪支店
  6
CONTINUOUS
 62
    54
100
AcDbLine
 10
992.0999999999997
 20
43.53822509939198
 30
0.0
 11
995.0999999999981
 21
46.53822509939047
 31
0.0
  0
LINE
  5
594
330
1F
100
AcDbEntity
  8
DP-350_0_15_大阪支店
  6
CONTINUOUS
 62
    54
100
AcDbLine
 10
992.0999999999997
 20
44.38675323681574
 30
0.0
 11
995.0999999999998
 21
47.38675323681582
 31
0.0
  0
LINE
  5
595
330
1F
100
AcDbEntity
  8
DP-350_0_15_大阪支店
  6
CONTINUOUS
 62
    54
100
AcDbLine
 10
992.0999999999997
 20
45.23528137423955
 30
0.0
 11
995.0999999999974
 21
48.23528137423742
 31
0.0
  0
LINE
  5
596
330
1F
100
AcDbEntity
  8
DP-350_0_15_大阪支店
  6
CONTINUOUS
 62
    54
100
AcDbLine
 10
992.0999999999997
 20
46.08380951166345
 30
0.0
 11
995.099999999995
 21
49.08380951165884
 31
0.0
  0
LINE
  5
597
330
1F
100
AcDbEntity
  8
DP-350_0_15_大阪支店
  6
CONTINUOUS
 62
    54
100
AcDbLine
 10
992.0999999999997
 20
46.93233764908719
 30
0.0
 11
995.1000000000005
 21
49.93233764908811
 31
0.0
  0
LINE
  5
598
330
1F
100
AcDbEntity
  8
DP-350_0_15_大阪支店
  6
CONTINUOUS
 62
    54
100
AcDbLine
 10
992.0999999999997
 20
47.780865786511
 30
0.0
 11
995.0999999999983
 21
50.78086578650962
 31
0.0
  0
LINE
  5
599
330
1F
100
AcDbEntity
  8
DP-350_0_15_大阪支店
  6
CONTINUOUS
 62
    54
100
AcDbLine
 10
992.0999999999997
 20
48.6293939239348
 30
0.0
 11
995.0999999999998
 21
51.62939392393505
 31
0.0
  0
LINE
  5
59A
330
1F
100
AcDbEntity
  8
DP-350_0_15_大阪支店
  6
CONTINUOUS
 62
    54
100
AcDbLine
 10
992.0999999999997
 20
49.47792206135865
 30
0.0
 11
995.0999999999974
 21
52.47792206135648
 31
0.0
  0
LINE
  5
59B
330
1F
100
AcDbEntity
  8
DP-350_0_15_大阪支店
  6
CONTINUOUS
 62
    54
100
AcDbLine
 10
992.0999999999997
 20
50.3264501987824
 30
0.0
 11
995.1000000000031
 21
53.32645019878584
 31
0.0
  0
LINE
  5
59C
330
1F
100
AcDbEntity
  8
DP-350_0_15_大阪支店
  6
CONTINUOUS
 62
    54
100
AcDbLine
 10
992.0999999999997
 20
51.17497833620625
 30
0.0
 11
995.1000000000006
 21
54.17497833620726
 31
0.0
  0
LINE
  5
59D
330
1F
100
AcDbEntity
  8
DP-350_0_15_大阪支店
  6
CONTINUOUS
 62
    54
100
AcDbLine
 10
992.0999999999997
 20
52.02350647362996
 30
0.0
 11
995.0885338955568
 21
55.01204036918713
 31
0.0
  0
ENDSEC
  0
SECTION
  2
OBJECTS
  0
DICTIONARY
  5
C
330
0
100
AcDbDictionary
  3
ACAD_GROUP
350
D
  3
ACAD_LAYOUT
350
1A
  3
ACAD_MATERIAL
350
43
  3
ACAD_MLEADERSTYLE
350
6B
  3
ACAD_MLINESTYLE
350
17
  3
ACAD_PLOTSETTINGS
350
19
  3
ACAD_SCALELIST
350
47
  3
ACAD_VISUALSTYLE
350
2A
  3
ACDBHEADERROUNDTRIPXREC
350
59E
  3
ACDBVARIABLEDICTIONARY
350
5BF
  0
DICTIONARY
  5
5C8
330
8
100
AcDbDictionary
280
     1
  3
ACAD_XREC_ROUNDTRIP
360
5C9
  0
DICTIONARY
  5
D
102
{ACAD_REACTORS
330
C
102
}
330
C
100
AcDbDictionary
  0
DICTIONARY
  5
1A
102
{ACAD_REACTORS
330
C
102
}
330
C
100
AcDbDictionary
  0
DICTIONARY
  5
43
102
{ACAD_REACTORS
330
C
102
}
330
C
100
AcDbDictionary
  3
BYBLOCK
350
45
  3
BYLAYER
350
44
  3
GLOBAL
350
46
  0
DICTIONARY
  5
6B
102
{ACAD_REACTORS
330
C
102
}
330
C
100
AcDbDictionary
  3
STANDARD
350
6C
  0
DICTIONARY
  5
17
102
{ACAD_REACTORS
330
C
102
}
330
C
100
AcDbDictionary
  3
STANDARD
350
18
  0
DICTIONARY
  5
19
102
{ACAD_REACTORS
330
C
102
}
330
C
100
AcDbDictionary
  0
DICTIONARY
  5
47
102
{ACAD_REACTORS
330
C
102
}
330
C
100
AcDbDictionary
  3
A0
350
48
  3
A1
350
49
  3
A2
350
4A
  3
A3
350
4B
  3
A4
350
4C
  3
A5
350
4D
  3
A6
350
4E
  3
A7
350
4F
  3
A8
350
50
  3
A9
350
51
  3
B0
350
52
  3
B1
350
53
  3
B2
350
54
  3
B3
350
55
  3
B4
350
56
  3
B5
350
57
  3
B6
350
58
  3
B7
350
59
  3
B8
350
5A
  3
B9
350
5B
  3
C0
350
5C
  3
C1
350
5D
  3
C2
350
5E
  3
C3
350
5F
  3
C4
350
60
  3
C5
350
61
  3
C6
350
62
  3
C7
350
63
  3
C8
350
64
  3
C9
350
65
  3
D0
350
66
  3
D1
350
67
  3
D2
350
68
  0
DICTIONARY
  5
2A
102
{ACAD_REACTORS
330
C
102
}
330
C
100
AcDbDictionary
  3
2DWIREFRAME
350
2F
  3
BASIC
350
32
  3
BRIGHTEN
350
36
  3
COLORCHANGE
350
3A
  3
CONCEPTUAL
350
34
  3
DIM
350
35
  3
EDGECOLOROFF
350
3D
  3
FACEPATTERN
350
39
  3
FLAT
350
2B
  3
FLATWITHEDGES
350
2C
  3
GOURAUD
350
2D
  3
GOURAUDWITHEDGES
350
2E
  3
HIDDEN
350
31
  3
JITTEROFF
350
3B
  3
LINEPATTERN
350
38
  3
OVERHANGOFF
350
3C
  3
REALISTIC
350
33
  3
SHADED
350
42
  3
SHADED_WITH_EDGES
350
41
  3
SHADES_OF_GRAY
350
3E
  3
SKETCHY
350
3F
  3
THICKEN
350
37
  3
WIREFRAME
350
30
  3
X-RAY
350
40
  0
DICTIONARY
  5
59E
102
{ACAD_REACTORS
330
C
102
}
330
C
100
AcDbDictionary
  3
CEPSNID
350
5A8
  3
CEPSNTYPE
350
5A7
  3
DIMSTYLEDATA
350
5BE
  3
FINGERPRINTGUID
350
5A9
  3
HYPERLINKBASE
350
5A1
  3
INSUNITS
350
5A6
  3
LAYOUTDICT
350
5A3
  3
LWETCUNION
350
5A5
  3
PLOTSETDICT
350
5A4
  3
PSVPSCALE
350
5AB
  3
PUCSBASE
350
5AE
  3
PUCSORGBACK
350
5B4
  3
PUCSORGBOTTOM
350
5B0
  3
PUCSORGFRONT
350
5B3
  3
PUCSORGLEFT
350
5B1
  3
PUCSORGRIGHT
350
5B2
  3
PUCSORGTOP
350
5AF
  3
PUCSORTHOREF
350
5AC
  3
PUCSORTHOVIEW
350
5AD
  3
STYLESHEET
350
5A2
  3
TSTACKALIGN
350
59F
  3
TSTACKSIZE
350
5A0
  3
UCSBASE
350
5B7
  3
UCSORGBACK
350
5BD
  3
UCSORGBOTTOM
350
5B9
  3
UCSORGFRONT
350
5BC
  3
UCSORGLEFT
350
5BA
  3
UCSORGRIGHT
350
5BB
  3
UCSORGTOP
350
5B8
  3
UCSORTHOREF
350
5B5
  3
UCSORTHOVIEW
350
5B6
  3
VERSIONGUID
350
5AA
  0
DICTIONARY
  5
5BF
102
{ACAD_REACTORS
330
C
102
}
330
C
100
AcDbDictionary
  3
CANNOSCALE
350
5CA
  3
CMLEADERSTYLE
350
5C1
  3
CTABLESTYLE
350
5C0
  3
DIMASSOC
350
5C6
  3
HIDETEXT
350
5C7
  3
MSLTSCALE
350
5CB
  3
PSOLHEIGHT
350
5C3
  3
PSOLWIDTH
350
5C2
  0
XRECORD
  5
5C9
102
{ACAD_REACTORS
330
5C8
102
}
330
5C8
100
AcDbXrecord
102
VTR_0.000_0.000_1.000_1.000_VISUALSTYLE
340
2F
102
VTR_0.000_0.000_1.000_1.000_GRIDDISPLAY
 70
     3
102
VTR_0.000_0.000_1.000_1.000_GRIDMAJOR
 70
     5
102
VTR_0.000_0.000_1.000_1.000_DEFAULTLIGHTING
280
     1
102
VTR_0.000_0.000_1.000_1.000_DEFAULTLIGHTINGTYPE
 70
     1
102
VTR_0.000_0.000_1.000_1.000_BRIGHTNESS
141
0.0
102
VTR_0.000_0.000_1.000_1.000_CONTRAST
142
0.0
  0
MATERIAL
  5
45
102
{ACAD_REACTORS
330
43
102
}
102
{ACAD_XDICTIONARY
360
5CE
102
}
330
43
100
AcDbMaterial
  1
BYBLOCK
  0
MATERIAL
  5
44
102
{ACAD_REACTORS
330
43
102
}
102
{ACAD_XDICTIONARY
360
5CC
102
}
330
43
100
AcDbMaterial
  1
BYLAYER
  0
MATERIAL
  5
46
102
{ACAD_REACTORS
330
43
102
}
102
{ACAD_XDICTIONARY
360
5D0
102
}
330
43
100
AcDbMaterial
  1
GLOBAL
  0
ACAD_PROXY_OBJECT
  5
6C
102
{ACAD_REACTORS
330
6B
102
}
330
6B
100
AcDbProxyObject
 90
      499
 91
      505
 93
      610
310
40901902A4063FBFFFFFE0000000000000020400000000000020404214DD185B99185C990000000000000104090141901A00000000000004100000000000000041025764000000000000039000
340
14
340
0
340
11
340
0
 94
        0
1001
ACAD_MLEADERVER
1070
     2
  0
MLINESTYLE
  5
18
102
{ACAD_REACTORS
330
17
102
}
330
17
100
AcDbMlineStyle
  2
Standard
 70
     0
  3

 62
   256
 51
90.0
 52
90.0
 71
     2
 49
0.5
 62
   256
  6
BYLAYER
 49
-0.5
 62
   256
  6
BYLAYER
  0
ACAD_PROXY_OBJECT
  5
48
102
{ACAD_REACTORS
330
47
102
}
330
47
100
AcDbProxyObject
 90
      499
 91
      503
 93
       41
310
903313A31580
  0
ACAD_PROXY_OBJECT
  5
49
102
{ACAD_REACTORS
330
47
102
}
330
47
100
AcDbProxyObject
 90
      499
 91
      503
 93
      105
310
903313A324000000000000004000
  0
ACAD_PROXY_OBJECT
  5
4A
102
{ACAD_REACTORS
330
47
102
}
330
47
100
AcDbProxyObject
 90
      499
 91
      503
 93
      105
310
903313A344000000000000104000
  0
ACAD_PROXY_OBJECT
  5
4B
102
{ACAD_REACTORS
330
47
102
}
330
47
100
AcDbProxyObject
 90
      499
 91
      503
 93
      105
310
903313A354000000000000144000
  0
ACAD_PROXY_OBJECT
  5
4C
102
{ACAD_REACTORS
330
47
102
}
330
47
100
AcDbProxyObject
 90
      499
 91
      503
 93
      105
310
903313A384000000000000204000
  0
ACAD_PROXY_OBJECT
  5
4D
102
{ACAD_REACTORS
330
47
102
}
330
47
100
AcDbProxyObject
 90
      499
 91
      503
 93
      113
310
904313A31304000000000000244000
  0
ACAD_PROXY_OBJECT
  5
4E
102
{ACAD_REACTORS
330
47
102
}
330
47
100
AcDbProxyObject
 90
      499
 91
      503
 93
      113
310
904313A31364000000000000304000
  0
ACAD_PROXY_OBJECT
  5
4F
102
{ACAD_REACTORS
330
47
102
}
330
47
100
AcDbProxyObject
 90
      499
 91
      503
 93
      113
310
904313A32304000000000000344000
  0
ACAD_PROXY_OBJECT
  5
50
102
{ACAD_REACTORS
330
47
102
}
330
47
100
AcDbProxyObject
 90
      499
 91
      503
 93
      113
310
904313A333040000000000003E4000
  0
ACAD_PROXY_OBJECT
  5
51
102
{ACAD_REACTORS
330
47
102
}
330
47
100
AcDbProxyObject
 90
      499
 91
      503
 93
      113
310
904313A34304000000000000444000
  0
ACAD_PROXY_OBJECT
  5
52
102
{ACAD_REACTORS
330
47
102
}
330
47
100
AcDbProxyObject
 90
      499
 91
      503
 93
      113
310
904313A35304000000000000494000
  0
ACAD_PROXY_OBJECT
  5
53
102
{ACAD_REACTORS
330
47
102
}
330
47
100
AcDbProxyObject
 90
      499
 91
      503
 93
      121
310
905313A3130304000000000000594000
  0
ACAD_PROXY_OBJECT
  5
54
102
{ACAD_REACTORS
330
47
102
}
330
47
100
AcDbProxyObject
 90
      499
 91
      503
 93
      105
310
903323A310000000000000010100
  0
ACAD_PROXY_OBJECT
  5
55
102
{ACAD_REACTORS
330
47
102
}
330
47
100
AcDbProxyObject
 90
      499
 91
      503
 93
      105
310
903343A310000000000000410100
  0
ACAD_PROXY_OBJECT
  5
56
102
{ACAD_REACTORS
330
47
102
}
330
47
100
AcDbProxyObject
 90
      499
 91
      503
 93
      105
310
903383A310000000000000810100
  0
ACAD_PROXY_OBJECT
  5
57
102
{ACAD_REACTORS
330
47
102
}
330
47
100
AcDbProxyObject
 90
      499
 91
      503
 93
      113
310
90431303A310000000000000910100
  0
ACAD_PROXY_OBJECT
  5
58
102
{ACAD_REACTORS
330
47
102
}
330
47
100
AcDbProxyObject
 90
      499
 91
      503
 93
      121
310
9053130303A310000000000001650100
  0
ACAD_PROXY_OBJECT
  5
59
102
{ACAD_REACTORS
330
47
102
}
330
47
100
AcDbProxyObject
 90
      499
 91
      503
 93
      257
310
90E312F31323822203D2031272D3022000000000000200FC000000000000284000
  0
ACAD_PROXY_OBJECT
  5
5A
102
{ACAD_REACTORS
330
47
102
}
330
47
100
AcDbProxyObject
 90
      499
 91
      503
 93
      249
310
90D312F363422203D2031272D3022000000000000240FC000000000000284000
  0
ACAD_PROXY_OBJECT
  5
5B
102
{ACAD_REACTORS
330
47
102
}
330
47
100
AcDbProxyObject
 90
      499
 91
      503
 93
      249
310
90D312F333222203D2031272D3022000000000000280FC000000000000284000
  0
ACAD_PROXY_OBJECT
  5
5C
102
{ACAD_REACTORS
330
47
102
}
330
47
100
AcDbProxyObject
 90
      499
 91
      503
 93
      249
310
90D312F313622203D2031272D30220000000000002C0FC000000000000284000
  0
ACAD_PROXY_OBJECT
  5
5D
102
{ACAD_REACTORS
330
47
102
}
330
47
100
AcDbProxyObject
 90
      499
 91
      503
 93
      249
310
90D332F333222203D2031272D30220000000000002E0FC000000000000284000
  0
ACAD_PROXY_OBJECT
  5
5E
102
{ACAD_REACTORS
330
47
102
}
330
47
100
AcDbProxyObject
 90
      499
 91
      503
 93
      241
310
90C312F3822203D2031272D3022000000000000300FC000000000000284000
  0
ACAD_PROXY_OBJECT
  5
5F
102
{ACAD_REACTORS
330
47
102
}
330
47
100
AcDbProxyObject
 90
      499
 91
      503
 93
      249
310
90D332F313622203D2031272D3022000000000000320FC000000000000284000
  0
ACAD_PROXY_OBJECT
  5
60
102
{ACAD_REACTORS
330
47
102
}
330
47
100
AcDbProxyObject
 90
      499
 91
      503
 93
      241
310
90C312F3422203D2031272D3022000000000000340FC000000000000284000
  0
ACAD_PROXY_OBJECT
  5
61
102
{ACAD_REACTORS
330
47
102
}
330
47
100
AcDbProxyObject
 90
      499
 91
      503
 93
      241
310
90C332F3822203D2031272D3022000000000000360FC000000000000284000
  0
ACAD_PROXY_OBJECT
  5
62
102
{ACAD_REACTORS
330
47
102
}
330
47
100
AcDbProxyObject
 90
      499
 91
      503
 93
      241
310
90C312F3222203D2031272D3022000000000000380FC000000000000284000
  0
ACAD_PROXY_OBJECT
  5
63
102
{ACAD_REACTORS
330
47
102
}
330
47
100
AcDbProxyObject
 90
      499
 91
      503
 93
      241
310
90C332F3422203D2031272D30220000000000003A0FC000000000000284000
  0
ACAD_PROXY_OBJECT
  5
64
102
{ACAD_REACTORS
330
47
102
}
330
47
100
AcDbProxyObject
 90
      499
 91
      503
 93
      161
310
90A3122203D2031272D30224000000000000284000
  0
ACAD_PROXY_OBJECT
  5
65
102
{ACAD_REACTORS
330
47
102
}
330
47
100
AcDbProxyObject
 90
      499
 91
      503
 93
      257
310
90E312D312F3222203D2031272D30220000000000003E0FC000000000000284000
  0
ACAD_PROXY_OBJECT
  5
66
102
{ACAD_REACTORS
330
47
102
}
330
47
100
AcDbProxyObject
 90
      499
 91
      503
 93
      225
310
90A3322203D2031272D302200000000000002100000000000000284000
  0
ACAD_PROXY_OBJECT
  5
67
102
{ACAD_REACTORS
330
47
102
}
330
47
100
AcDbProxyObject
 90
      499
 91
      503
 93
      225
310
90A3622203D2031272D302200000000000006100000000000000284000
  0
ACAD_PROXY_OBJECT
  5
68
102
{ACAD_REACTORS
330
47
102
}
330
47
100
AcDbProxyObject
 90
      499
 91
      503
 93
      249
310
90D31272D3022203D2031272D30220000000000000A100000000000000284000
  0
ACAD_PROXY_OBJECT
  5
2F
102
{ACAD_REACTORS
330
2A
102
}
330
2A
100
AcDbProxyObject
 90
      499
 91
      501
 93
      436
310
42CC9915DA5C99599C985B595049028333333333333E33F0000000000000F90107901411070040501600405405064090741402480A0340
1001
ACAD
1000
AcDbSavedByObjectVersion
1070
     0
  0
ACAD_PROXY_OBJECT
  5
32
102
{ACAD_REACTORS
330
2A
102
}
330
2A
100
AcDbProxyObject
 90
      499
 91
      501
 93
      388
310
4150985CDA58D07406404333333333333E33F0000000000000F90107A41107004050150841D405064090741402480A0350
1001
ACAD
1000
AcDbSavedByObjectVersion
1070
     0
  0
ACAD_PROXY_OBJECT
  5
36
102
{ACAD_REACTORS
330
2A
102
}
330
2A
100
AcDbProxyObject
 90
      499
 91
      501
 93
      428
310
42109C9A59DA1D195B90C409028333333333333E33F0000000000000F9010790141107004050150841D405064090741402480A029950
1001
ACAD
1000
AcDbSavedByObjectVersion
1070
     0
  0
ACAD_PROXY_OBJECT
  5
3A
102
{ACAD_REACTORS
330
2A
102
}
330
2A
100
AcDbProxyObject
 90
      499
 91
      501
 93
      452
310
42D0DBDB1BDC90DA185B99D95104090240C333333333333E33F0000000000000F90108901411070040501508421405064090741402480A0350
1001
ACAD
1000
AcDbSavedByObjectVersion
1070
     0
  0
ACAD_PROXY_OBJECT
  5
34
102
{ACAD_REACTORS
330
2A
102
}
330
2A
100
AcDbProxyObject
 90
      499
 91
      501
 93
      500
310
4290DBDB98D95C1D1D585B10940D028333333333333E33F0000000000000F90107902409070040501000000000018199010841D405064090740C02480A0340
1001
ACAD
1000
AcDbSavedByObjectVersion
1070
     0
  0
ACAD_PROXY_OBJECT
  5
35
102
{ACAD_REACTORS
330
2A
102
}
330
2A
100
AcDbProxyObject
 90
      499
 91
      501
 93
      412
310
40D11A5B50B409028333333333333E33F0000000000000F9010790141107004050150841D405064090741402480A02677FFFFFD0
1001
ACAD
1000
AcDbSavedByObjectVersion
1070
     0
  0
ACAD_PROXY_OBJECT
  5
3D
102
{ACAD_REACTORS
330
2A
102
}
330
2A
100
AcDbProxyObject
 90
      499
 91
      501
 93
      452
310
43115919D950DBDB1BDC93D999916409028333333333333E33F0000000000000F9010790141107004050150841D405064090741402480A0350
1001
ACAD
1000
AcDbSavedByObjectVersion
1070
     0
  0
ACAD_PROXY_OBJECT
  5
39
102
{ACAD_REACTORS
330
2A
102
}
330
2A
100
AcDbProxyObject
 90
      499
 91
      501
 93
      444
310
42D19858D95C185D1D195C9B90F409028333333333333E33F0000000000000F9010790141107004050150841D405064090741402480A0350
1001
ACAD
1000
AcDbSavedByObjectVersion
1070
     0
  0
ACAD_PROXY_OBJECT
  5
2B
102
{ACAD_REACTORS
330
2A
102
}
330
2A
100
AcDbProxyObject
 90
      499
 91
      501
 93
      380
310
41119B185D240901404333333333333E33F0000000000000F9010740A907004050150841D405064090741402480A1B50
1001
ACAD
1000
AcDbSavedByObjectVersion
1070
     0
  0
ACAD_PROXY_OBJECT
  5
2C
102
{ACAD_REACTORS
330
2A
102
}
330
2A
100
AcDbProxyObject
 90
      499
 91
      501
 93
      468
310
43519B185D15DA5D1A115919D95CD0140901404333333333333E33F0000000000000F90107409019070040501600405405064090741402480A1B50
1001
ACAD
1000
AcDbSavedByObjectVersion
1070
     0
  0
ACAD_PROXY_OBJECT
  5
2D
102
{ACAD_REACTORS
330
2A
102
}
330
2A
100
AcDbProxyObject
 90
      499
 91
      501
 93
      404
310
41D1DBDD5C985D5910240902404333333333333E33F0000000000000F9010740A9070040501641D405064090741402480A1B50
1001
ACAD
1000
AcDbSavedByObjectVersion
1070
     0
  0
ACAD_PROXY_OBJECT
  5
2E
102
{ACAD_REACTORS
330
2A
102
}
330
2A
100
AcDbProxyObject
 90
      499
 91
      501
 93
      492
310
4411DBDD5C985D5915DA5D1A115919D95CD0340902404333333333333E33F0000000000000F90107409019070040501600405405064090741402480A1B50
1001
ACAD
1000
AcDbSavedByObjectVersion
1070
     0
  0
ACAD_PROXY_OBJECT
  5
31
102
{ACAD_REACTORS
330
2A
102
}
330
2A
100
AcDbProxyObject
 90
      499
 91
      501
 93
      476
310
41921A5919195B90640502408333333333333E33F0000000000000F901079024090700405020000000000001110200405405064090740C02480A0340
1001
ACAD
1000
AcDbSavedByObjectVersion
1070
     0
  0
ACAD_PROXY_OBJECT
  5
3B
102
{ACAD_REACTORS
330
2A
102
}
330
2A
100
AcDbProxyObject
 90
      499
 91
      501
 93
      428
310
42529A5D1D195C93D999914409028333333333333E33F0000000000000F9010790141107004050150A41D405064090741402480A0350
1001
ACAD
1000
AcDbSavedByObjectVersion
1070
     0
  0
ACAD_PROXY_OBJECT
  5
38
102
{ACAD_REACTORS
330
2A
102
}
330
2A
100
AcDbProxyObject
 90
      499
 91
      501
 93
      444
310
42D31A5B995C185D1D195C9B90E409028333333333333E33F0000000000000F9010790141107004050750841D405064090741402483A0350
1001
ACAD
1000
AcDbSavedByObjectVersion
1070
     0
  0
ACAD_PROXY_OBJECT
  5
3C
102
{ACAD_REACTORS
330
2A
102
}
330
2A
100
AcDbProxyObject
 90
      499
 91
      501
 93
      444
310
42D3DD995C9A185B99D3D999915409028333333333333E33F0000000000000F9010790141107004050150941D405064090741402480A0350
1001
ACAD
1000
AcDbSavedByObjectVersion
1070
     0
  0
ACAD_PROXY_OBJECT
  5
33
102
{ACAD_REACTORS
330
2A
102
}
330
2A
100
AcDbProxyObject
 90
      499
 91
      501
 93
      428
310
425499585B1A5CDD1A58D08409038333333333333E33F0000000000000F9010740A907004050150800405405064090740C02480A1B40
1001
ACAD
1000
AcDbSavedByObjectVersion
1070
     0
  0
ACAD_PROXY_OBJECT
  5
42
102
{ACAD_REACTORS
330
2A
102
}
330
2A
100
AcDbProxyObject
 90
      499
 91
      501
 93
      420
310
4194DA1859195911B40902404333333333333E33F0000000000000F9010740A41107004050150800405405064090840C02480A0B40
1001
ACAD
1000
AcDbSavedByObjectVersion
1070
     0
  0
ACAD_PROXY_OBJECT
  5
41
102
{ACAD_REACTORS
330
2A
102
}
330
2A
100
AcDbProxyObject
 90
      499
 91
      501
 93
      516
310
4454DA18591959081DDA5D1A08195919D95CD1A40902404333333333333E33F0000000000000F901074090142907004050250800405405064090740C02480A0B40
1001
ACAD
1000
AcDbSavedByObjectVersion
1070
     0
  0
ACAD_PROXY_OBJECT
  5
3E
102
{ACAD_REACTORS
330
2A
102
}
330
2A
100
AcDbProxyObject
 90
      499
 91
      501
 93
      532
310
4394DA1859195CC81BD98811DC985E5174090240C333333333333E33F0000000000000F901079024090741D01000000000000111010841D405064090740C02480A0340
1001
ACAD
1000
AcDbSavedByObjectVersion
1070
     0
  0
ACAD_PROXY_OBJECT
  5
3F
102
{ACAD_REACTORS
330
2A
102
}
330
2A
100
AcDbProxyObject
 90
      499
 91
      501
 93
      476
310
41D4DAD95D18DA1E51840502408333333333333E33F0000000000000F901079024090741D01000000000000111010B41D405064090741802480A0340
1001
ACAD
1000
AcDbSavedByObjectVersion
1070
     0
  0
ACAD_PROXY_OBJECT
  5
37
102
{ACAD_REACTORS
330
2A
102
}
330
2A
100
AcDbProxyObject
 90
      499
 91
      501
 93
      412
310
41D51A1A58DAD95B90D409028333333333333E33F0000000000000F9010790141107004050150C41D405064090741402480A0350
1001
ACAD
1000
AcDbSavedByObjectVersion
1070
     0
  0
ACAD_PROXY_OBJECT
  5
30
102
{ACAD_REACTORS
330
2A
102
}
330
2A
100
AcDbProxyObject
 90
      499
 91
      501
 93
      420
310
4255DA5C99599C985B595059028333333333333E33F0000000000000F90107901411070040501600405405064090740C02480A0340
1001
ACAD
1000
AcDbSavedByObjectVersion
1070
     0
  0
ACAD_PROXY_OBJECT
  5
40
102
{ACAD_REACTORS
330
2A
102
}
330
2A
100
AcDbProxyObject
 90
      499
 91
      501
 93
      404
310
41560B54985E51940902404000000000000E03F0000000000000F9010740501907004050150841D405064090740C02480A1B40
1001
ACAD
1000
AcDbSavedByObjectVersion
1070
     0
  0
XRECORD
  5
5A8
102
{ACAD_REACTORS
330
59E
102
}
330
59E
100
AcDbXrecord
340
0
  0
XRECORD
  5
5A7
102
{ACAD_REACTORS
330
59E
102
}
330
59E
100
AcDbXrecord
 90
        0
  0
XRECORD
  5
5BE
102
{ACAD_REACTORS
330
59E
102
}
330
59E
100
AcDbXrecord
1000
DSTYLE
1002
{
1070
   340
340
11
1002
}
  0
XRECORD
  5
5A9
102
{ACAD_REACTORS
330
59E
102
}
330
59E
100
AcDbXrecord
  1
{B2879937-132B-4CE0-AA4A-B44A89F4B592}
  0
XRECORD
  5
5A1
102
{ACAD_REACTORS
330
59E
102
}
330
59E
100
AcDbXrecord
  1

  0
XRECORD
  5
5A6
102
{ACAD_REACTORS
330
59E
102
}
330
59E
100
AcDbXrecord
 90
        4
  0
XRECORD
  5
5A3
102
{ACAD_REACTORS
330
59E
102
}
330
59E
100
AcDbXrecord
340
1A
  0
XRECORD
  5
5A5
102
{ACAD_REACTORS
330
59E
102
}
330
59E
100
AcDbXrecord
 90
    10781
  0
XRECORD
  5
5A4
102
{ACAD_REACTORS
330
59E
102
}
330
59E
100
AcDbXrecord
340
19
  0
XRECORD
  5
5AB
102
{ACAD_REACTORS
330
59E
102
}
330
59E
100
AcDbXrecord
 40
0.0
  0
XRECORD
  5
5AE
102
{ACAD_REACTORS
330
59E
102
}
330
59E
100
AcDbXrecord
340
0
  0
XRECORD
  5
5B4
102
{ACAD_REACTORS
330
59E
102
}
330
59E
100
AcDbXrecord
 10
0.0
 20
0.0
 30
0.0
  0
XRECORD
  5
5B0
102
{ACAD_REACTORS
330
59E
102
}
330
59E
100
AcDbXrecord
 10
0.0
 20
0.0
 30
0.0
  0
XRECORD
  5
5B3
102
{ACAD_REACTORS
330
59E
102
}
330
59E
100
AcDbXrecord
 10
0.0
 20
0.0
 30
0.0
  0
XRECORD
  5
5B1
102
{ACAD_REACTORS
330
59E
102
}
330
59E
100
AcDbXrecord
 10
0.0
 20
0.0
 30
0.0
  0
XRECORD
  5
5B2
102
{ACAD_REACTORS
330
59E
102
}
330
59E
100
AcDbXrecord
 10
0.0
 20
0.0
 30
0.0
  0
XRECORD
  5
5AF
102
{ACAD_REACTORS
330
59E
102
}
330
59E
100
AcDbXrecord
 10
0.0
 20
0.0
 30
0.0
  0
XRECORD
  5
5AC
102
{ACAD_REACTORS
330
59E
102
}
330
59E
100
AcDbXrecord
340
0
  0
XRECORD
  5
5AD
102
{ACAD_REACTORS
330
59E
102
}
330
59E
100
AcDbXrecord
 70
     0
  0
XRECORD
  5
5A2
102
{ACAD_REACTORS
330
59E
102
}
330
59E
100
AcDbXrecord
  1

  0
XRECORD
  5
59F
102
{ACAD_REACTORS
330
59E
102
}
330
59E
100
AcDbXrecord
 90
        1
  0
XRECORD
  5
5A0
102
{ACAD_REACTORS
330
59E
102
}
330
59E
100
AcDbXrecord
 90
       70
  0
XRECORD
  5
5B7
102
{ACAD_REACTORS
330
59E
102
}
330
59E
100
AcDbXrecord
340
0
  0
XRECORD
  5
5BD
102
{ACAD_REACTORS
330
59E
102
}
330
59E
100
AcDbXrecord
 10
0.0
 20
0.0
 30
0.0
  0
XRECORD
  5
5B9
102
{ACAD_REACTORS
330
59E
102
}
330
59E
100
AcDbXrecord
 10
0.0
 20
0.0
 30
0.0
  0
XRECORD
  5
5BC
102
{ACAD_REACTORS
330
59E
102
}
330
59E
100
AcDbXrecord
 10
0.0
 20
0.0
 30
0.0
  0
XRECORD
  5
5BA
102
{ACAD_REACTORS
330
59E
102
}
330
59E
100
AcDbXrecord
 10
0.0
 20
0.0
 30
0.0
  0
XRECORD
  5
5BB
102
{ACAD_REACTORS
330
59E
102
}
330
59E
100
AcDbXrecord
 10
0.0
 20
0.0
 30
0.0
  0
XRECORD
  5
5B8
102
{ACAD_REACTORS
330
59E
102
}
330
59E
100
AcDbXrecord
 10
0.0
 20
0.0
 30
0.0
  0
XRECORD
  5
5B5
102
{ACAD_REACTORS
330
59E
102
}
330
59E
100
AcDbXrecord
340
0
  0
XRECORD
  5
5B6
102
{ACAD_REACTORS
330
59E
102
}
330
59E
100
AcDbXrecord
 70
     0
  0
XRECORD
  5
5AA
102
{ACAD_REACTORS
330
59E
102
}
330
59E
100
AcDbXrecord
  1
{FAEB1C32-E019-11D5-929B-00C0DF256EC4}
  0
DICTIONARYVAR
  5
5CA
102
{ACAD_REACTORS
330
5BF
102
}
330
5BF
100
DictionaryVariables
280
     0
  1
1:1
  0
DICTIONARYVAR
  5
5C1
102
{ACAD_REACTORS
330
5BF
102
}
330
5BF
100
DictionaryVariables
280
     0
  1
Standard
  0
DICTIONARYVAR
  5
5C0
102
{ACAD_REACTORS
330
5BF
102
}
330
5BF
100
DictionaryVariables
280
     0
  1
Standard
  0
DICTIONARYVAR
  5
5C6
102
{ACAD_REACTORS
330
5BF
102
}
330
5BF
100
DictionaryVariables
280
     0
  1
2
  0
DICTIONARYVAR
  5
5C7
102
{ACAD_REACTORS
330
5BF
102
}
330
5BF
100
DictionaryVariables
280
     0
  1
1
  0
DICTIONARYVAR
  5
5CB
102
{ACAD_REACTORS
330
5BF
102
}
330
5BF
100
DictionaryVariables
280
     0
  1
1
  0
DICTIONARYVAR
  5
5C3
102
{ACAD_REACTORS
330
5BF
102
}
330
5BF
100
DictionaryVariables
280
     0
  1
80.000000
  0
DICTIONARYVAR
  5
5C2
102
{ACAD_REACTORS
330
5BF
102
}
330
5BF
100
DictionaryVariables
280
     0
  1
5.000000
  0
DICTIONARY
  5
5CE
330
45
100
AcDbDictionary
280
     1
  3
ACAD_XREC_ROUNDTRIP
360
5CF
  0
DICTIONARY
  5
5CC
330
44
100
AcDbDictionary
280
     1
  3
ACAD_XREC_ROUNDTRIP
360
5CD
  0
DICTIONARY
  5
5D0
330
46
100
AcDbDictionary
280
     1
  3
ACAD_XREC_ROUNDTRIP
360
5D1
  0
XRECORD
  5
5CF
102
{ACAD_REACTORS
330
5CE
102
}
330
5CE
100
AcDbXrecord
102
MATERIAL
148
0.0
149
0.0
149
0.0
 93
        0
 94
      127
282
     0
 72
     1
 77
     1
171
     1
175
     1
179
     1
273
     0
  0
XRECORD
  5
5CD
102
{ACAD_REACTORS
330
5CC
102
}
330
5CC
100
AcDbXrecord
102
MATERIAL
148
0.0
149
0.0
149
0.0
 93
        0
 94
      127
282
     0
 72
     1
 77
     1
171
     1
175
     1
179
     1
273
     0
  0
XRECORD
  5
5D1
102
{ACAD_REACTORS
330
5D0
102
}
330
5D0
100
AcDbXrecord
102
MATERIAL
148
0.0
149
0.0
149
0.0
 93
        0
 94
      127
282
     0
 72
     1
 77
     1
171
     1
175
     1
179
     1
273
     0
  0
ENDSEC
  0
EOF
